<?xml version="1.0" standalone="no"?>
<!DOCTYPE svg PUBLIC "-//W3C//DTD SVG 1.1//EN" "http://www.w3.org/Graphics/SVG/1.1/DTD/svg11.dtd" >
<svg xmlns="http://www.w3.org/2000/svg" xmlns:xlink="http://www.w3.org/1999/xlink" version="1.1">
<metadata>
Created by FontForge 20170731 at Thu Nov  9 13:35:47 2017
 By Aleksey,,,
(c) 2017 Microsoft Corporation. All Rights Reserved.
</metadata>
<defs>
<font id="NirmalaUI" horiz-adv-x="0" >
  <font-face 
    font-family="Nirmala UI"
    font-weight="400"
    font-stretch="normal"
    units-per-em="2048"
    panose-1="2 11 5 2 4 2 4 2 2 3"
    ascent="1638"
    descent="-410"
    x-height="1024"
    cap-height="1434"
    bbox="-2400 -672 5604 2387"
    underline-thickness="72"
    underline-position="-286"
    unicode-range="U+000D-111F4"
  />
<missing-glyph horiz-adv-x="1322" 
d="M166 0v1398h990v-1398h-990zM314 148h694v1102h-694v-1102z" />
    <glyph glyph-name=".notdef" horiz-adv-x="1322" 
d="M166 0v1398h990v-1398h-990zM314 148h694v1102h-694v-1102z" />
    <glyph glyph-name="uni0000" 
 />
    <glyph glyph-name="uni000D" unicode="&#xd;" horiz-adv-x="561" 
 />
    <glyph glyph-name="uni00A0" unicode="&#xa0;" horiz-adv-x="561" 
 />
    <glyph glyph-name="uni00A0" unicode=" " horiz-adv-x="561" 
 />
    <glyph glyph-name="exclam" unicode="!" horiz-adv-x="582" 
d="M375 1434l-19 -1030h-135l-18 1030h172zM291 -18q-46 0 -78.5 32t-32.5 78t32.5 78.5t78.5 32.5q45 0 78 -32.5t33 -78.5t-33 -78t-78 -32z" />
    <glyph glyph-name="quotedbl" unicode="&#x22;" horiz-adv-x="803" 
d="M323 1434l-30 -447h-115l-30 447h175zM655 1434l-30 -447h-115l-30 447h175z" />
    <glyph glyph-name="numbersign" unicode="#" horiz-adv-x="1210" 
d="M1166 1032l-23 -106h-261l-63 -300h281l-27 -106h-275l-88 -397h-126l86 397h-250l-84 -397h-125l84 397h-262l20 106h265l61 300h-277l21 106h277l84 402h126l-84 -402h252l86 402h123l-84 -402h263zM758 926h-252l-66 -300h254z" />
    <glyph glyph-name="dollar" unicode="$" horiz-adv-x="1104" 
d="M616 8v-217h-104v209q-213 0 -346 86v174q58 -51 158.5 -85.5t187.5 -34.5v512q-220 106 -285 195.5t-65 211.5q0 145 99 250.5t251 126.5v180h104v-176q196 -6 271 -56v-170q-102 80 -271 86v-528q208 -99 284.5 -191.5t76.5 -210.5q0 -142 -95.5 -238.5t-265.5 -123.5z
M512 828v466q-84 -17 -133 -74.5t-49 -139.5q0 -86 40 -141t142 -111zM616 600v-452q193 42 193 208q0 138 -193 244z" />
    <glyph glyph-name="percent" unicode="%" horiz-adv-x="1676" 
d="M404 715q-148 0 -236 97.5t-88 260.5q0 178 93 280.5t251 102.5q153 0 237.5 -95t84.5 -267t-94.5 -275.5t-247.5 -103.5zM418 1346q-95 0 -150 -70.5t-55 -193.5q0 -121 54 -188.5t147 -67.5q94 0 147 70t53 194q0 121 -52.5 188.5t-143.5 67.5zM1364 1434l-920 -1444
h-143l919 1444h144zM1258 -22q-148 0 -236 98t-88 260q0 178 94 281.5t250 103.5q152 0 237 -96t85 -269q0 -171 -94.5 -274.5t-247.5 -103.5zM1272 608q-96 0 -150.5 -70t-54.5 -194q0 -119 54 -186.5t147 -67.5q94 0 147 70.5t53 193.5q0 122 -52.5 188t-143.5 66z" />
    <glyph glyph-name="ampersand" unicode="&#x26;" horiz-adv-x="1639" 
d="M1445 -23q-57 0 -100.5 15.5t-80.5 44t-71.5 69.5t-72.5 93q-40 -43 -92.5 -83t-116.5 -71t-140 -49.5t-165 -18.5q-108 0 -198 27t-154 79.5t-99.5 129.5t-35.5 177q0 153 87 261.5t246 177.5q-30 22 -60 51.5t-53.5 67t-38 83t-14.5 99.5q0 79 28.5 140t78.5 103
t118 63.5t147 21.5q78 0 142.5 -21.5t111 -61.5t72.5 -96t26 -125q0 -120 -68.5 -199.5t-205.5 -135.5q69 -27 125 -66t103.5 -87t88.5 -103t81 -114q81 113 122 249t41 285q0 38 -4.5 71.5t-12.5 66.5h159q8 -33 9.5 -62.5t3.5 -70.5q0 -91 -19 -183t-51 -178.5
t-74.5 -164.5t-89.5 -143q35 -48 64 -83.5t58.5 -59.5t61 -35.5t71.5 -11.5q30 0 61 8t64 20v-152q-36 -14 -75.5 -21t-77.5 -7zM606 119q76 0 140 16.5t118 44t98 64t80 76.5q-61 95 -112.5 162.5t-104 116.5t-112 84t-137.5 65q-63 -25 -116 -55.5t-91.5 -72t-60.5 -96.5
t-22 -129q0 -68 25 -120t68.5 -86.5t101.5 -52t125 -17.5zM856 1140q0 50 -18.5 85t-47 58t-63.5 33.5t-69 10.5q-98 0 -156.5 -53t-59.5 -144q0 -41 12.5 -77t35 -67t52.5 -55t64 -41q126 44 188 102.5t62 147.5z" />
    <glyph glyph-name="quotesingle" unicode="'" horiz-adv-x="471" 
d="M323 1434l-30 -447h-115l-30 447h175z" />
    <glyph glyph-name="parenleft" unicode="(" horiz-adv-x="618" 
d="M596 -326h-146q-310 354 -310 873q0 521 310 887h148q-314 -380 -314 -885q0 -501 312 -875z" />
    <glyph glyph-name="parenright" unicode=")" horiz-adv-x="618" 
d="M170 -326h-146q312 374 312 875q0 505 -314 885h148q312 -366 312 -887q0 -519 -312 -873z" />
    <glyph glyph-name="asterisk" unicode="*" horiz-adv-x="854" 
d="M780 1104l-274 -56l190 -243l-110 -76l-156 265l-158 -265l-110 76l190 243l-276 56l45 125l262 -99l-23 304h138l-23 -304l263 99z" />
    <glyph glyph-name="plus" unicode="+" horiz-adv-x="1401" 
d="M1172 530h-404v-403h-133v403h-403v134h403v403h133v-403h404v-134z" />
    <glyph glyph-name="comma" unicode="," horiz-adv-x="444" 
d="M316 228l-160 -492h-117l117 492h160z" />
    <glyph glyph-name="uni2010" unicode="&#x2010;" horiz-adv-x="819" 
d="M690 506h-546v129h546v-129z" />
    <glyph glyph-name="uni2010" unicode="&#xad;" horiz-adv-x="819" 
d="M690 506h-546v129h546v-129z" />
    <glyph glyph-name="uni2010" unicode="-" horiz-adv-x="819" 
d="M690 506h-546v129h546v-129z" />
    <glyph glyph-name="period" unicode="." horiz-adv-x="444" 
d="M223 -22q-46 0 -78.5 33t-32.5 79t32.5 79.5t78.5 33.5q47 0 80 -33.5t33 -79.5t-33 -79t-80 -33z" />
    <glyph glyph-name="slash" unicode="/" horiz-adv-x="798" 
d="M813 1434l-688 -1672h-153l686 1672h155z" />
    <glyph glyph-name="zero" unicode="0" horiz-adv-x="1104" 
d="M1020 723q0 -180 -32.5 -319t-94 -234.5t-151 -145t-203.5 -49.5q-108 0 -192.5 47.5t-142.5 138.5t-88 223.5t-30 303.5q0 188 31.5 332t92.5 241.5t151.5 147t207.5 49.5q451 0 451 -735zM852 707q0 612 -291 612q-307 0 -307 -623q0 -581 301 -581q297 0 297 592z" />
    <glyph glyph-name="one" unicode="1" horiz-adv-x="1104" 
d="M724 0h-164v1239q-19 -19 -55.5 -43.5t-82 -48.5t-96 -45t-98.5 -33v166q54 15 114.5 40.5t119 57t110.5 66t90 67.5h62v-1466z" />
    <glyph glyph-name="two" unicode="2" horiz-adv-x="1104" 
d="M772 1058q0 66 -20.5 115t-56 81.5t-83.5 48.5t-104 16q-48 0 -94 -13t-89.5 -36t-84 -55t-75.5 -71v176q69 67 154.5 102.5t208.5 35.5q88 0 163 -25.5t130 -74.5t86.5 -121t31.5 -165q0 -85 -19.5 -154t-59 -130t-99.5 -117t-141 -114q-101 -72 -166.5 -123t-104 -95.5
t-54 -89t-15.5 -102.5h714v-147h-885v71q0 92 20 162t66 133t120.5 126t182.5 142q78 56 130.5 107t84.5 102t45.5 103.5t13.5 111.5z" />
    <glyph glyph-name="three" unicode="3" horiz-adv-x="1104" 
d="M953 406q0 -97 -36.5 -176.5t-103 -136t-159.5 -87.5t-205 -31q-205 0 -326 78v176q145 -114 332 -114q75 0 135.5 19t104 55t67 87t23.5 115q0 281 -400 281h-119v139h113q354 0 354 264q0 244 -270 244q-152 0 -285 -102v159q137 82 326 82q90 0 163 -25t125 -70
t80.5 -108t28.5 -139q0 -283 -286 -364v-4q73 -8 135 -35.5t107 -71.5t70.5 -103.5t25.5 -131.5z" />
    <glyph glyph-name="four" unicode="4" horiz-adv-x="1104" 
d="M850 1434v-947h184v-150h-184v-337h-162v337h-674v142q94 106 190 226.5t183.5 244.5t162 247.5t125.5 236.5h175zM199 487h489v702q-75 -131 -142 -234t-127.5 -187t-115.5 -152t-104 -129z" />
    <glyph glyph-name="five" unicode="5" horiz-adv-x="1104" 
d="M969 438q0 -105 -36 -190t-102.5 -146t-160.5 -94t-209 -33q-200 0 -297 60v174q146 -94 299 -94q78 0 140.5 23t106.5 64t67.5 99t23.5 127q0 140 -94 219.5t-273 79.5q-29 0 -61 -1t-64 -2.5t-62.5 -3.5t-55.5 -5l49 719h663v-148h-521l-29 -421q32 2 68 3.5t64 1.5
q114 0 204 -30t152.5 -85.5t95 -136t32.5 -180.5z" />
    <glyph glyph-name="six" unicode="6" horiz-adv-x="1104" 
d="M1022 455q0 -105 -34 -193t-94 -152t-143 -99.5t-180 -35.5q-108 0 -193.5 45t-145 129.5t-90.5 206.5t-31 275q0 187 41.5 339.5t118 261t184.5 167.5t241 59q148 0 238 -41v-155q-111 57 -234 57q-96 0 -173 -43t-132 -121.5t-84.5 -189.5t-29.5 -247h4q99 179 327 179
q94 0 169.5 -32t129 -90.5t82.5 -139.5t29 -180zM854 434q0 75 -19 135t-54.5 102t-87.5 64.5t-118 22.5q-61 0 -113 -23t-90 -62.5t-59.5 -92t-21.5 -111.5q0 -74 21 -138.5t59 -112.5t90.5 -75.5t116.5 -27.5q62 0 113 23.5t87 65.5t56 100.5t20 129.5z" />
    <glyph glyph-name="seven" unicode="7" horiz-adv-x="1104" 
d="M1010 1339q-33 -57 -79.5 -142t-98.5 -191t-106 -228t-101 -252t-82.5 -263.5t-51.5 -262.5h-176q18 128 55.5 261.5t85 262t100.5 247.5t103 219t91.5 176.5t66.5 119.5h-719v148h912v-95z" />
    <glyph glyph-name="eight" unicode="8" horiz-adv-x="1104" 
d="M90 400q0 57 18 114.5t51.5 107.5t83 91t112.5 65q-93 52 -148 133.5t-55 180.5q0 79 30.5 146t84.5 116t128 76.5t160 27.5q87 0 161 -28t128 -77t84 -116t30 -145q0 -99 -55 -180.5t-146 -133.5q62 -24 111 -65t82.5 -91t51.5 -107.5t18 -114.5q0 -94 -34 -172
t-95.5 -133.5t-147 -86.5t-188.5 -31q-102 0 -187 31t-147 86.5t-96.5 133.5t-34.5 172zM268 414q0 -67 20.5 -121t58 -92t91 -58.5t118.5 -20.5q63 0 116 21t91.5 59t60 92t21.5 120q0 60 -20.5 112.5t-58.5 92.5t-91 63t-119 23q-62 0 -114.5 -21.5t-91 -60t-60.5 -92
t-22 -117.5zM319 1079q0 -51 18.5 -94.5t51 -76t75.5 -51t92 -18.5t92.5 19t75.5 51.5t51 76t19 93.5q0 52 -18.5 96t-50.5 76t-75.5 50.5t-93.5 18.5q-53 0 -96.5 -19t-75 -51.5t-48.5 -76.5t-17 -94z" />
    <glyph glyph-name="nine" unicode="9" horiz-adv-x="1104" 
d="M1004 803q0 -197 -39 -350.5t-114 -260t-183 -162t-246 -55.5q-142 0 -250 50v157q119 -67 254 -67q97 0 173.5 40t129.5 116.5t81 188.5t28 257h-4q-92 -185 -320 -185q-92 0 -169 32.5t-133 92t-87 141.5t-31 181q0 106 34.5 194t96 151.5t146 98.5t184.5 35
q108 0 191.5 -43.5t140.5 -127t87 -205.5t30 -279zM827 950q0 83 -21.5 151t-59.5 116.5t-90.5 75t-114.5 26.5q-59 0 -110 -23.5t-88.5 -66t-59 -101t-21.5 -127.5q0 -76 20.5 -136t58.5 -101.5t91.5 -63.5t118.5 -22q57 0 107.5 21.5t88 58t59 86t21.5 106.5z" />
    <glyph glyph-name="colon" unicode=":" horiz-adv-x="444" 
d="M223 824q-46 0 -78.5 33t-32.5 79t32.5 78t78.5 32q47 0 80 -32t33 -78t-33 -79t-80 -33zM223 -22q-46 0 -78.5 33t-32.5 79t32.5 79.5t78.5 33.5q47 0 80 -33.5t33 -79.5t-33 -79t-80 -33z" />
    <glyph glyph-name="semicolon" unicode=";" horiz-adv-x="444" 
d="M226 824q-47 0 -79.5 33t-32.5 79t32.5 78t79.5 32q46 0 79 -32t33 -78t-33 -79t-79 -33zM316 228l-160 -492h-117l117 492h160z" />
    <glyph glyph-name="less" unicode="&#x3c;" horiz-adv-x="1401" 
d="M1132 127l-860 432v59l860 482v-150l-642 -356v-4l642 -314v-149z" />
    <glyph glyph-name="equal" unicode="=" horiz-adv-x="1401" 
d="M1172 744h-940v132h940v-132zM1172 318h-940v132h940v-132z" />
    <glyph glyph-name="greater" unicode="&#x3e;" horiz-adv-x="1401" 
d="M1132 559l-860 -432v149l644 312v6l-644 356v150l860 -482v-59z" />
    <glyph glyph-name="question" unicode="?" horiz-adv-x="918" 
d="M335 398q-9 26 -16 67.5t-7 82.5q0 64 25.5 115.5t63.5 96.5t83 86.5t83 84t63.5 89t25.5 102.5q0 48 -18.5 85t-50.5 62t-74 37.5t-89 12.5q-169 0 -293 -133v176q153 96 317 96q76 0 143 -20t117.5 -59.5t79.5 -98.5t29 -137q0 -74 -26 -132t-65.5 -106.5t-85.5 -90.5
t-85.5 -83.5t-65.5 -86.5t-26 -99q0 -46 11 -83.5t22 -63.5h-161zM425 -18q-44 0 -78 32q-33 32 -33 78q0 47 33 78q33 33 78 33t78 -33q33 -31 33 -78q0 -46 -33 -78q-34 -32 -78 -32z" />
    <glyph glyph-name="at" unicode="@" horiz-adv-x="1956" 
d="M1164 420h-5q-73 -238 -287 -238q-137 0 -220.5 101t-83.5 272q0 226 115.5 375.5t303.5 149.5q72 0 128.5 -37t72.5 -93h4q2 28 10 115h125q-47 -551 -47 -561q0 -207 119 -207q108 0 179.5 117t71.5 303q0 275 -174 449t-482 174q-297 0 -491 -208t-194 -520
q0 -307 184.5 -495.5t497.5 -188.5q247 0 422 82v-124q-173 -74 -432 -74q-364 0 -586.5 219.5t-222.5 574.5q0 366 233.5 607t596.5 241q340 0 563 -202t223 -527q0 -238 -117.5 -390.5t-286.5 -152.5q-219 0 -220 238zM985 964q-124 0 -200.5 -118t-76.5 -293
q0 -118 51.5 -186t137.5 -68q124 0 196.5 123.5t72.5 327.5q0 214 -181 214z" />
    <glyph glyph-name="A" unicode="A" horiz-adv-x="1321" 
d="M1298 0h-186l-152 402h-608l-143 -402h-187l550 1434h174zM905 553l-225 611q-11 30 -22 96h-4q-10 -61 -23 -96l-223 -611h497z" />
    <glyph glyph-name="B" unicode="B" horiz-adv-x="1174" 
d="M188 0v1434h408q186 0 295 -91t109 -237q0 -122 -66 -212t-182 -128v-4q145 -17 232 -109.5t87 -240.5q0 -184 -132 -298t-333 -114h-418zM356 1282v-463h172q138 0 217 66.5t79 187.5q0 209 -275 209h-193zM356 668v-516h228q148 0 229.5 70t81.5 192q0 254 -346 254
h-193z" />
    <glyph glyph-name="C" unicode="C" horiz-adv-x="1268" 
d="M1164 60q-159 -84 -396 -84q-306 0 -490 197t-184 517q0 344 207 556t525 212q204 0 338 -59v-179q-154 86 -340 86q-247 0 -400.5 -165t-153.5 -441q0 -262 143.5 -417.5t376.5 -155.5q216 0 374 96v-163z" />
    <glyph glyph-name="D" unicode="D" horiz-adv-x="1436" 
d="M188 0v1434h396q758 0 758 -699q0 -332 -210.5 -533.5t-563.5 -201.5h-380zM356 1282v-1130h214q282 0 439 151t157 428q0 551 -586 551h-224z" />
    <glyph glyph-name="E" unicode="E" horiz-adv-x="1036" 
d="M948 0h-760v1434h728v-152h-560v-477h518v-151h-518v-502h592v-152z" />
    <glyph glyph-name="F" unicode="F" horiz-adv-x="1000" 
d="M916 1282h-560v-496h518v-151h-518v-635h-168v1434h728v-152z" />
    <glyph glyph-name="G" unicode="G" horiz-adv-x="1405" 
d="M1260 98q-216 -122 -480 -122q-307 0 -496.5 198t-189.5 524q0 333 210.5 546.5t533.5 213.5q234 0 393 -76v-186q-174 110 -412 110q-241 0 -395 -166t-154 -430q0 -272 143 -427.5t388 -155.5q168 0 291 67v402h-314v152h482v-650z" />
    <glyph glyph-name="H" unicode="H" horiz-adv-x="1454" 
d="M1266 0h-168v654h-742v-654h-168v1434h168v-629h742v629h168v-1434z" />
    <glyph glyph-name="I" unicode="I" horiz-adv-x="545" 
d="M356 0h-168v1434h168v-1434z" />
    <glyph glyph-name="J" unicode="J" horiz-adv-x="731" 
d="M555 514q0 -255 -108 -396.5t-289 -141.5q-84 0 -138 24v166q54 -39 140 -39q227 0 227 385v922h168v-920z" />
    <glyph glyph-name="K" unicode="K" horiz-adv-x="1188" 
d="M1186 0h-234l-554 656q-31 37 -38 50h-4v-706h-168v1434h168v-674h4q14 22 38 49l536 625h209l-615 -688z" />
    <glyph glyph-name="L" unicode="L" horiz-adv-x="964" 
d="M932 0h-744v1434h168v-1282h576v-152z" />
    <glyph glyph-name="M" unicode="M" horiz-adv-x="1839" 
d="M1650 0h-167v962q0 114 14 279h-4q-24 -97 -43 -139l-490 -1102h-82l-489 1094q-21 48 -43 147h-4q8 -86 8 -281v-960h-162v1434h222l440 -1000q51 -115 66 -172h6q43 118 69 176l449 996h210v-1434z" />
    <glyph glyph-name="N" unicode="N" horiz-adv-x="1532" 
d="M1344 0h-206l-738 1143q-28 43 -46 90h-6q8 -46 8 -197v-1036h-168v1434h218l718 -1125q45 -70 58 -96h4q-10 62 -10 211v1010h168v-1434z" />
    <glyph glyph-name="O" unicode="O" horiz-adv-x="1544" 
d="M766 -24q-305 0 -488.5 201t-183.5 523q0 346 187 552t509 206q297 0 478.5 -200t181.5 -523q0 -351 -186 -555t-498 -204zM778 1306q-226 0 -367 -163t-141 -428t137.5 -426.5t358.5 -161.5q236 0 372 154t136 431q0 284 -132 439t-364 155z" />
    <glyph glyph-name="P" unicode="P" horiz-adv-x="1147" 
d="M356 542v-542h-168v1434h394q230 0 356.5 -112t126.5 -316t-140.5 -334t-379.5 -130h-189zM356 1282v-588h176q174 0 265.5 79.5t91.5 224.5q0 284 -336 284h-197z" />
    <glyph glyph-name="Q" unicode="Q" horiz-adv-x="1544" 
d="M766 -24q-304 0 -489 201q-183 201 -183 523q0 347 187 552q188 206 509 206q296 0 478 -200t182 -523q0 -351 -186 -555q-44 -49 -94 -84l403 -289h-305l-270 202q-106 -33 -232 -33zM778 1306q-226 0 -367 -163t-141 -428q0 -264 137 -427q138 -161 359 -161
q236 0 372 154t136 431q0 285 -132 439q-132 155 -364 155z" />
    <glyph glyph-name="R" unicode="R" horiz-adv-x="1225" 
d="M1216 0h-200l-240 402q-33 56 -64 95.5t-63.5 64.5t-70 36.5t-84.5 11.5h-138v-610h-168v1434h428q94 0 173.5 -23.5t138 -71.5t91.5 -119.5t33 -167.5q0 -75 -22.5 -137.5t-64 -111.5t-100 -83.5t-131.5 -53.5v-4q36 -16 62.5 -36.5t50.5 -48.5t47.5 -63.5t52.5 -82.5z
M356 1282v-520h228q63 0 116.5 19t92.5 54.5t61 87t22 115.5q0 115 -74.5 179.5t-215.5 64.5h-230z" />
    <glyph glyph-name="S" unicode="S" horiz-adv-x="1088" 
d="M121 58v198q34 -30 81.5 -54t100 -40.5t105.5 -25.5t98 -9q155 0 231.5 57.5t76.5 165.5q0 58 -25.5 101t-70.5 78.5t-106.5 68t-132.5 68.5q-75 38 -140 77t-113 86t-75.5 106.5t-27.5 139.5q0 98 43 170.5t113 119.5t159.5 70t182.5 23q212 0 309 -51v-189
q-127 88 -326 88q-55 0 -110 -11.5t-98 -37.5t-70 -67t-27 -100q0 -55 20.5 -95t60.5 -73t97.5 -64t132.5 -68q77 -38 146 -80t121 -93t82.5 -113t30.5 -142q0 -106 -41.5 -179.5t-112 -119.5t-162.5 -66.5t-194 -20.5q-34 0 -84 5.5t-102 16t-98.5 26t-74.5 34.5z" />
    <glyph glyph-name="T" unicode="T" horiz-adv-x="1073" 
d="M1036 1282h-414v-1282h-168v1282h-413v152h995v-152z" />
    <glyph glyph-name="U" unicode="U" horiz-adv-x="1407" 
d="M1237 580q0 -604 -545 -604q-522 0 -522 581v877h168v-866q0 -441 372 -441q359 0 359 426v881h168v-854z" />
    <glyph glyph-name="V" unicode="V" horiz-adv-x="1272" 
d="M1254 1434l-531 -1434h-185l-520 1434h187l397 -1137q19 -55 29 -127h4q8 60 33 129l405 1135h181z" />
    <glyph glyph-name="W" unicode="W" horiz-adv-x="1913" 
d="M1888 1434l-405 -1434h-197l-295 1048q-19 67 -23 146h-4q-6 -74 -26 -144l-297 -1050h-195l-420 1434h185l305 -1100q19 -69 24 -144h5q5 53 31 144l317 1100h161l304 -1108q16 -57 24 -134h4q4 52 27 138l293 1104h182z" />
    <glyph glyph-name="X" unicode="X" horiz-adv-x="1208" 
d="M1178 0h-205l-330 549q-15 25 -33 71h-4q-10 -23 -34 -71l-340 -549h-206l480 721l-442 713h206l293 -504q29 -50 51 -100h4q32 66 56 104l305 500h193l-451 -711z" />
    <glyph glyph-name="Y" unicode="Y" horiz-adv-x="1132" 
d="M1120 1434l-473 -904v-530h-168v526l-461 908h191l321 -648q6 -12 35 -88h3q10 34 38 88l336 648h178z" />
    <glyph glyph-name="Z" unicode="Z" horiz-adv-x="1168" 
d="M1124 1394l-840 -1242h820v-152h-1071v47l833 1235h-766v152h1024v-40z" />
    <glyph glyph-name="bracketleft" unicode="[" horiz-adv-x="618" 
d="M568 -326h-368v1760h368v-119h-222v-1522h222v-119z" />
    <glyph glyph-name="backslash" unicode="\" horiz-adv-x="776" 
d="M798 -240h-151l-673 1674h155z" />
    <glyph glyph-name="bracketright" unicode="]" horiz-adv-x="618" 
d="M420 -326h-367v119h221v1522h-221v119h367v-1760z" />
    <glyph glyph-name="asciicircum" unicode="^" horiz-adv-x="1401" 
d="M1174 624h-150l-332 619h-6l-309 -619h-147l422 834h65z" />
    <glyph glyph-name="underscore" unicode="_" horiz-adv-x="850" 
d="M850 -297h-850v119h850v-119z" />
    <glyph glyph-name="grave" unicode="`" horiz-adv-x="549" 
d="M471 1218h-127l-262 328h168z" />
    <glyph glyph-name="a" unicode="a" horiz-adv-x="1042" 
d="M899 0h-164v160h-4q-107 -184 -315 -184q-153 0 -239.5 81t-86.5 215q0 287 338 334l307 43q0 261 -211 261q-185 0 -334 -126v168q151 96 348 96q361 0 361 -382v-666zM735 518l-247 -34q-114 -16 -172 -56.5t-58 -143.5q0 -75 53.5 -122.5t142.5 -47.5
q122 0 201.5 85.5t79.5 216.5v102z" />
    <glyph glyph-name="b" unicode="b" horiz-adv-x="1204" 
d="M334 148h-4v-148h-164v1516h164v-672h4q121 204 354 204q197 0 308.5 -137.5t111.5 -368.5q0 -257 -125 -411.5t-342 -154.5q-203 0 -307 172zM330 561v-143q0 -127 82.5 -215.5t209.5 -88.5q149 0 233.5 114t84.5 317q0 171 -79 268t-214 97q-143 0 -230 -99.5
t-87 -249.5z" />
    <glyph glyph-name="c" unicode="c" horiz-adv-x="946" 
d="M864 47q-118 -71 -280 -71q-219 0 -353.5 142.5t-134.5 369.5q0 253 145 406.5t387 153.5q135 0 238 -50v-168q-114 80 -244 80q-157 0 -257.5 -112.5t-100.5 -295.5q0 -180 94.5 -284t253.5 -104q134 0 252 89v-156z" />
    <glyph glyph-name="d" unicode="d" horiz-adv-x="1206" 
d="M1040 0h-164v174h-4q-114 -198 -352 -198q-193 0 -308.5 137.5t-115.5 374.5q0 254 128 407t341 153q211 0 307 -166h4v634h164v-1516zM876 463v151q0 124 -82 210t-208 86q-150 0 -236 -110t-86 -304q0 -177 82.5 -279.5t221.5 -102.5q137 0 222.5 99t85.5 250z" />
    <glyph glyph-name="e" unicode="e" horiz-adv-x="1071" 
d="M989 471h-723q4 -171 92 -264t242 -93q173 0 318 114v-154q-135 -98 -357 -98q-217 0 -341 139.5t-124 392.5q0 239 135.5 389.5t336.5 150.5t311 -130t110 -361v-86zM821 610q-1 142 -68.5 221t-187.5 79q-116 0 -197 -83t-100 -217h553z" />
    <glyph glyph-name="f" unicode="f" horiz-adv-x="641" 
d="M672 1372q-48 27 -109 27q-172 0 -172 -217v-158h240v-140h-240v-884h-163v884h-175v140h175v166q0 161 93 254.5t232 93.5q75 0 119 -18v-148z" />
    <glyph glyph-name="g" unicode="g" horiz-adv-x="1206" 
d="M1040 82q0 -564 -540 -564q-190 0 -332 72v164q173 -96 330 -96q378 0 378 402v112h-4q-117 -196 -352 -196q-191 0 -307.5 136.5t-116.5 366.5q0 261 125.5 415t343.5 154q207 0 307 -166h4v142h164v-942zM876 463v151q0 122 -82.5 209t-205.5 87q-152 0 -238 -110.5
t-86 -309.5q0 -171 82.5 -273.5t218.5 -102.5q138 0 224.5 98t86.5 251z" />
    <glyph glyph-name="h" unicode="h" horiz-adv-x="1159" 
d="M1016 0h-164v590q0 320 -238 320q-120 0 -202 -92.5t-82 -237.5v-580h-164v1516h164v-662h4q118 194 336 194q346 0 346 -417v-631z" />
    <glyph glyph-name="i" unicode="i" horiz-adv-x="496" 
d="M250 1284q-44 0 -75 30t-31 76t31 76.5t75 30.5q45 0 76.5 -30.5t31.5 -76.5q0 -44 -31.5 -75t-76.5 -31zM330 0h-164v1024h164v-1024z" />
    <glyph glyph-name="j" unicode="j" horiz-adv-x="496" 
d="M330 43q0 -252 -101.5 -388.5t-290.5 -136.5q-70 0 -136 32v153q74 -45 140 -45q224 0 224 358v1008h164v-981zM250 1284q-44 0 -75 30t-31 76t31 76.5t75 30.5q45 0 76.5 -30.5t31.5 -76.5q0 -44 -31.5 -75t-76.5 -31z" />
    <glyph glyph-name="k" unicode="k" horiz-adv-x="1018" 
d="M1016 0h-230l-452 492h-4v-492h-164v1516h164v-961h4l430 469h215l-475 -494z" />
    <glyph glyph-name="l" unicode="l" horiz-adv-x="496" 
d="M330 0h-164v1516h164v-1516z" />
    <glyph glyph-name="m" unicode="m" horiz-adv-x="1764" 
d="M1620 0h-164v588q0 170 -52.5 246t-176.5 76q-105 0 -178.5 -96t-73.5 -230v-584h-164v608q0 302 -233 302q-108 0 -178 -90.5t-70 -235.5v-584h-164v1024h164v-162h4q109 186 318 186q105 0 183 -58.5t107 -153.5q114 212 340 212q338 0 338 -417v-631z" />
    <glyph glyph-name="n" unicode="n" horiz-adv-x="1159" 
d="M1016 0h-164v584q0 326 -238 326q-123 0 -203.5 -92.5t-80.5 -233.5v-584h-164v1024h164v-170h4q116 194 336 194q168 0 257 -108.5t89 -313.5v-626z" />
    <glyph glyph-name="o" unicode="o" horiz-adv-x="1200" 
d="M594 -24q-227 0 -362.5 143.5t-135.5 380.5q0 258 141 403t381 145q229 0 357.5 -141t128.5 -391q0 -245 -138.5 -392.5t-371.5 -147.5zM606 910q-158 0 -250 -107.5t-92 -296.5q0 -182 93 -287t249 -105q159 0 244.5 103t85.5 293q0 192 -85.5 296t-244.5 104z" />
    <glyph glyph-name="p" unicode="p" horiz-adv-x="1204" 
d="M334 148h-4v-619h-164v1495h164v-180h4q121 204 354 204q198 0 309 -137.5t111 -368.5q0 -257 -125 -411.5t-342 -154.5q-199 0 -307 172zM330 561v-143q0 -127 82.5 -215.5t209.5 -88.5q149 0 233.5 114t84.5 317q0 171 -79 268t-214 97q-143 0 -230 -99.5t-87 -249.5z
" />
    <glyph glyph-name="q" unicode="q" horiz-adv-x="1206" 
d="M1040 -471h-164v647h-4q-107 -200 -350 -200q-193 0 -309.5 137.5t-116.5 374.5q0 255 128 407.5t344 152.5q210 0 304 -166h4v142h164v-1495zM876 461v149q0 126 -82.5 213t-209.5 87q-148 0 -234 -109.5t-86 -308.5q0 -177 83 -277.5t214 -100.5q144 0 229.5 98.5
t85.5 248.5z" />
    <glyph glyph-name="r" unicode="r" horiz-adv-x="712" 
d="M700 858q-43 33 -124 33q-105 0 -175.5 -99t-70.5 -270v-522h-164v1024h164v-211h4q35 108 107 168.5t161 60.5q64 0 98 -14v-170z" />
    <glyph glyph-name="s" unicode="s" horiz-adv-x="869" 
d="M104 37v176q134 -99 295 -99q216 0 216 144q0 41 -18.5 69.5t-50 50.5t-74 39.5t-91.5 36.5q-68 27 -119.5 54.5t-86 62t-52 78.5t-17.5 103q0 72 33 127.5t88 93t125.5 56.5t145.5 19q133 0 238 -46v-166q-113 74 -260 74q-46 0 -83 -10.5t-63.5 -29.5t-41 -45.5
t-14.5 -58.5q0 -40 14.5 -67t42.5 -48t68 -38t91 -37q68 -26 122 -53.5t92 -62t58.5 -79.5t20.5 -107q0 -76 -33.5 -132t-89.5 -93t-129 -55t-153 -18q-158 0 -274 61z" />
    <glyph glyph-name="t" unicode="t" horiz-adv-x="694" 
d="M641 10q-58 -32 -153 -32q-269 0 -269 300v606h-176v140h176v250l164 53v-303h258v-140h-258v-577q0 -103 35 -147t116 -44q62 0 107 34v-140z" />
    <glyph glyph-name="u" unicode="u" horiz-adv-x="1159" 
d="M994 0h-164v162h-4q-102 -186 -316 -186q-366 0 -366 436v612h163v-586q0 -324 248 -324q120 0 197.5 88.5t77.5 231.5v590h164v-1024z" />
    <glyph glyph-name="v" unicode="v" horiz-adv-x="981" 
d="M971 1024l-408 -1024h-161l-388 1024h180l260 -744q29 -82 36 -143h4q10 77 32 139l272 748h173z" />
    <glyph glyph-name="w" unicode="w" horiz-adv-x="1480" 
d="M1456 1024l-307 -1024h-170l-211 733q-12 42 -16 95h-4q-3 -36 -21 -93l-229 -735h-164l-310 1024h172l212 -770q10 -35 14 -92h8q3 44 18 94l236 768h150l212 -772q10 -37 15 -92h8q2 39 17 92l208 772h162z" />
    <glyph glyph-name="x" unicode="x" horiz-adv-x="940" 
d="M914 1024l-344 -518l338 -506h-191l-201 332q-19 31 -45 78h-4q-5 -9 -47 -78l-205 -332h-189l349 502l-334 522h191l198 -350q22 -39 43 -80h4l256 430h181z" />
    <glyph glyph-name="y" unicode="y" horiz-adv-x="991" 
d="M981 1024l-471 -1188q-126 -318 -354 -318q-64 0 -107 13v147q53 -18 97 -18q124 0 186 148l82 194l-400 1022h182l277 -788q5 -15 21 -78h6q5 24 20 76l291 790h170z" />
    <glyph glyph-name="z" unicode="z" horiz-adv-x="926" 
d="M880 977l-606 -837h600v-140h-841v51l606 833h-549v140h790v-47z" />
    <glyph glyph-name="braceleft" unicode="{" horiz-adv-x="618" 
d="M555 -326q-307 4 -307 310v300q0 202 -156 212v116q156 10 156 216v292q0 310 307 314v-128q-159 -4 -159 -198v-293q0 -210 -150 -258v-4q150 -45 150 -256v-289q0 -111 35.5 -158.5t123.5 -49.5v-126z" />
    <glyph glyph-name="bar" unicode="|" horiz-adv-x="490" 
d="M320 -482h-148v2048h148v-2048z" />
    <glyph glyph-name="braceright" unicode="}" horiz-adv-x="618" 
d="M528 496q-156 -10 -156 -212v-300q0 -306 -306 -310v126q87 2 123.5 50t36.5 158v289q0 211 149 256v4q-149 48 -149 258v293q0 194 -160 198v128q306 -4 306 -314v-292q0 -206 156 -216v-116z" />
    <glyph glyph-name="asciitilde" unicode="~" horiz-adv-x="1401" 
d="M1194 750q-7 -148 -80.5 -229t-199.5 -81q-109 0 -265 109q-97 67 -159 67q-140 0 -146 -176h-135q5 143 79.5 226.5t201.5 83.5q106 0 235 -88q132 -90 197 -90q61 0 98 49t39 129h135z" />
    <glyph glyph-name="exclamdown" unicode="&#xa1;" horiz-adv-x="582" 
d="M291 826q-46 0 -78.5 32t-32.5 78t32.5 78t78.5 32q45 0 78 -32t33 -78t-33 -78t-78 -32zM379 -406h-172l19 1030h134z" />
    <glyph glyph-name="cent" unicode="&#xa2;" horiz-adv-x="1104" 
d="M952 209q-96 -59 -221 -69v-189h-125v191q-193 22 -307.5 161t-114.5 346q0 219 114.5 366.5t307.5 184.5v213h125v-203q123 -2 221 -51v-172q-101 71 -221 78v-785q122 12 221 86v-157zM606 291v761q-119 -31 -186.5 -133.5t-67.5 -252.5t68 -249t186 -126z" />
    <glyph glyph-name="sterling" unicode="&#xa3;" horiz-adv-x="1104" 
d="M1006 0h-900v135q218 69 218 313v187h-197v141h197v254q0 188 109 308t282 120q117 0 213 -41v-155q-100 57 -211 57q-229 0 -229 -307v-236h296v-141h-296v-156q0 -242 -193 -339h711v-140z" />
    <glyph glyph-name="currency" unicode="&#xa4;" horiz-adv-x="1138" 
d="M1038 354l-92 -96l-137 138q-105 -76 -239 -76q-136 0 -240 76l-138 -138l-92 96l138 134q-76 113 -76 237q0 129 76 237l-138 136l92 96l138 -137q110 77 240 77q129 0 237 -77l139 137l92 -96l-137 -136q78 -112 78 -237q0 -121 -78 -237zM570 1002q-116 0 -195.5 -81
t-79.5 -194t80.5 -194t194.5 -81q113 0 194.5 81t81.5 194t-83 194t-193 81z" />
    <glyph glyph-name="yen" unicode="&#xa5;" horiz-adv-x="1104" 
d="M1042 1434l-356 -656h285v-139h-334v-207h334v-139h-334v-293h-164v293h-344v139h344v207h-344v139h291l-352 656h192l250 -514q28 -58 47 -111h4q13 42 49 117l252 508h180z" />
    <glyph glyph-name="brokenbar" unicode="&#xa6;" horiz-adv-x="490" 
d="M320 715h-148v851h148v-851zM320 -482h-148v852h148v-852z" />
    <glyph glyph-name="section" unicode="&#xa7;" horiz-adv-x="918" 
d="M658 416q90 -74 90 -186q0 -132 -100 -214t-255 -82q-131 0 -239 56v158q130 -74 250 -74q84 0 130 39.5t46 99.5q0 53 -35.5 89.5t-180.5 113.5q-233 122 -233 317q0 163 147 244q-106 83 -106 223q0 127 93.5 209t246.5 82q130 0 219 -43v-158q-101 62 -223 62
q-168 0 -168 -144q0 -55 40.5 -100t203.5 -123q223 -107 223 -293q0 -170 -149 -276zM398 905q-101 -51 -101 -159q0 -72 56.5 -126.5t197.5 -117.5q88 68 88 172q0 72 -52.5 122.5t-188.5 108.5z" />
    <glyph glyph-name="dieresis" unicode="&#xa8;" horiz-adv-x="848" 
d="M610 1218q-40 0 -69 28t-29 71q0 42 28 70t68 28q42 0 71 -28.5t29 -69.5t-28 -70t-70 -29zM226 1218q-42 0 -71.5 29.5t-29.5 69.5q0 42 28.5 70t69.5 28t71 -28.5t30 -69.5t-29 -70t-69 -29z" />
    <glyph glyph-name="copyright" unicode="&#xa9;" horiz-adv-x="1823" 
d="M912 -33q-311 0 -530.5 219.5t-219.5 530.5t219.5 530.5t530.5 219.5q310 0 529.5 -219.5t219.5 -530.5t-219.5 -530.5t-529.5 -219.5zM912 1379q-274 0 -468 -194t-194 -468t194 -467.5t468 -193.5t467.5 193.5t193.5 467.5t-193.5 468t-467.5 194zM1213 266
q-114 -69 -269 -69q-209 0 -350 141.5t-141 353.5q0 247 144.5 394t375.5 147q132 0 236 -53v-150q-95 72 -254 72q-156 0 -257.5 -106.5t-101.5 -286.5q0 -174 103.5 -279.5t263.5 -105.5q146 0 250 78v-136z" />
    <glyph glyph-name="ordfeminine" unicode="&#xaa;" horiz-adv-x="803" 
d="M688 717h-129v100h-4q-79 -119 -231 -119q-109 0 -175.5 59.5t-66.5 152.5q0 202 248 235l229 31q0 168 -151 168q-136 0 -254 -86v128q111 70 266 70q126 0 197 -72t71 -202v-465zM559 1075l-180 -25q-168 -23 -168 -134q0 -51 38.5 -83t102.5 -32q82 0 144.5 61
t62.5 146v67z" />
    <glyph glyph-name="guillemotleft" unicode="&#xab;" horiz-adv-x="1036" 
d="M946 200h-168l-299 336l299 344h170l-307 -344zM557 200h-166l-299 336l299 344h166l-303 -344z" />
    <glyph glyph-name="logicalnot" unicode="&#xac;" horiz-adv-x="1401" 
d="M1172 254h-132v430h-808v133h940v-563z" />
    <glyph glyph-name="registered" unicode="&#xae;" horiz-adv-x="1823" 
d="M912 255q-249 0 -424.5 175t-175.5 424t175.5 424.5t424.5 175.5q248 0 423.5 -175.5t175.5 -424.5t-175.5 -424t-423.5 -175zM913 1360q-210 0 -358.5 -148t-148.5 -358q0 -209 148.5 -357t358.5 -148q209 0 356.5 148t147.5 357q0 210 -147.5 358t-356.5 148zM1203 479
h-138l-83 183q-63 138 -136 138h-52v-321h-117v763h215q133 0 205.5 -56t72.5 -152q0 -78 -51 -133.5t-142 -74.5v-3q63 -14 126 -141zM794 1143v-245h94q158 0 158 123q0 71 -42.5 96.5t-134.5 25.5h-75z" />
    <glyph glyph-name="macron" unicode="&#xaf;" horiz-adv-x="635" 
d="M570 1218h-508v109h508v-109z" />
    <glyph glyph-name="degree" unicode="&#xb0;" horiz-adv-x="772" 
d="M385 897q-115 0 -196 81.5t-81 197.5q0 115 80 194.5t195 79.5q116 0 197.5 -80t81.5 -194q0 -116 -81 -197.5t-196 -81.5zM385 1333q-65 0 -111 -46t-46 -111q0 -67 45 -114.5t110 -47.5t112 48t47 114t-46 111.5t-111 45.5z" />
    <glyph glyph-name="plusminus" unicode="&#xb1;" horiz-adv-x="1401" 
d="M1172 652h-404v-404h-131v404h-405v132h405v404h131v-404h404v-132zM1172 0h-940v133h940v-133z" />
    <glyph glyph-name="uni00B2" unicode="&#xb2;" horiz-adv-x="750" 
d="M658 884h-554v114l240 236q104 102 132 156.5t28 109.5q0 58 -38 94.5t-100 36.5q-118 0 -216 -102v149q84 76 235 76q118 0 187 -66t69 -174q0 -153 -205 -348l-164 -156v-4h386v-122z" />
    <glyph glyph-name="uni00B3" unicode="&#xb3;" horiz-adv-x="750" 
d="M129 916v142q103 -76 217 -76q80 0 126 37.5t46 101.5q0 141 -219 141h-84v118h80q197 0 197 134q0 119 -144 119q-94 0 -186 -69v139q87 51 213 51q113 0 180 -59.5t67 -155.5q0 -151 -145 -205v-4q177 -42 177 -202q0 -117 -85 -191t-227 -74q-137 0 -213 53z" />
    <glyph glyph-name="acute" unicode="&#xb4;" horiz-adv-x="578" 
d="M524 1546l-262 -328h-127l223 328h166z" />
    <glyph glyph-name="uni03BC" unicode="&#x3bc;" horiz-adv-x="1182" 
d="M1048 0h-170q-23 72 -23 168h-5q-84 -191 -279 -191q-167 0 -238 123h-4v-496h-163v1420h163v-626q0 -127 69 -202t180 -75q121 0 196.5 86t75.5 231v586h166v-759q0 -188 32 -265z" />
    <glyph glyph-name="uni03BC" unicode="&#xb5;" horiz-adv-x="1182" 
d="M1048 0h-170q-23 72 -23 168h-5q-84 -191 -279 -191q-167 0 -238 123h-4v-496h-163v1420h163v-626q0 -127 69 -202t180 -75q121 0 196.5 86t75.5 231v586h166v-759q0 -188 32 -265z" />
    <glyph glyph-name="paragraph" unicode="&#xb6;" horiz-adv-x="938" 
d="M834 1331h-128v-1331h-106v1331h-158v-1331h-108v903q-108 0 -179 76t-71 191q0 117 74.5 190.5t181.5 73.5h494v-103z" />
    <glyph glyph-name="uni2219" unicode="&#x2219;" horiz-adv-x="444" 
d="M223 510q-46 0 -78.5 33t-32.5 79q0 47 32.5 80t78.5 33q47 0 80 -33t33 -80q0 -46 -33 -79t-80 -33z" />
    <glyph glyph-name="uni2219" unicode="&#xb7;" horiz-adv-x="444" 
d="M223 510q-46 0 -78.5 33t-32.5 79q0 47 32.5 80t78.5 33q47 0 80 -33t33 -80q0 -46 -33 -79t-80 -33z" />
    <glyph glyph-name="cedilla" unicode="&#xb8;" horiz-adv-x="420" 
d="M391 -256q0 -176 -275 -176q-38 0 -65 2v90q43 -6 70 -6q141 0 141 90q0 78 -129 78q-10 0 -41 -4v182h108v-104q88 0 139.5 -40t51.5 -112z" />
    <glyph glyph-name="uni00B9" unicode="&#xb9;" horiz-adv-x="719" 
d="M639 884h-504v112h185v594l-193 -55v125l323 96v-760h189v-112z" />
    <glyph glyph-name="ordmasculine" unicode="&#xba;" horiz-adv-x="882" 
d="M436 696q-167 0 -262.5 100.5t-95.5 272.5q0 181 102.5 283t271.5 102q163 0 257 -99.5t94 -270.5q0 -178 -99.5 -283t-267.5 -105zM444 1344q-106 0 -168.5 -72t-62.5 -199q0 -124 59.5 -194t169.5 -70q105 0 166.5 71.5t61.5 194.5q0 126 -60.5 197.5t-165.5 71.5z" />
    <glyph glyph-name="guillemotright" unicode="&#xbb;" horiz-adv-x="1036" 
d="M948 538l-301 -338h-165l302 338l-302 342h165zM559 538l-299 -338h-170l308 338l-308 342h170z" />
    <glyph glyph-name="onequarter" unicode="&#xbc;" horiz-adv-x="1856" 
d="M639 584h-504v112h185v594l-193 -55v125l323 96v-760h189v-112zM1706 204h-110v-204h-132v204h-393v92l369 554h156v-537h110v-109zM1468 724h-4q-12 -31 -38 -73l-218 -338h256v323q0 32 4 88zM1393 1434l-858 -1434h-144l859 1434h143z" />
    <glyph glyph-name="onehalf" unicode="&#xbd;" horiz-adv-x="1906" 
d="M639 584h-504v112h185v594l-193 -55v125l323 96v-760h189v-112zM1748 1h-554v114l240 236q104 102 132 156.5t28 109.5q0 58 -38 94.5t-100 36.5q-118 0 -216 -102v149q84 76 235 76q118 0 187 -66t69 -174q0 -153 -205 -348l-164 -156v-4h386v-122zM1393 1434
l-858 -1434h-144l859 1434h143z" />
    <glyph glyph-name="threequarters" unicode="&#xbe;" horiz-adv-x="1950" 
d="M129 616v142q103 -76 217 -76q80 0 126 37.5t46 101.5q0 141 -219 141h-84v118h80q197 0 197 134q0 119 -144 119q-94 0 -186 -69v139q87 51 213 51q113 0 180 -59.5t67 -155.5q0 -151 -145 -205v-4q177 -42 177 -202q0 -117 -85 -191t-227 -74q-137 0 -213 53zM1771 204
h-110v-204h-132v204h-393v92l369 554h156v-537h110v-109zM1533 724h-4q-12 -31 -38 -73l-218 -338h256v323q0 32 4 88zM1464 1434l-858 -1434h-144l859 1434h143z" />
    <glyph glyph-name="questiondown" unicode="&#xbf;" horiz-adv-x="918" 
d="M625 630q9 -26 16 -67.5t7 -82.5q0 -64 -25.5 -115.5t-63.5 -96.5t-83 -86.5t-83 -84t-63.5 -89t-25.5 -102.5q0 -48 18.5 -85t50.5 -62t74 -37.5t89 -12.5q169 0 293 133v-176q-153 -96 -317 -96q-76 0 -143 20t-117 59.5t-79.5 98.5t-29.5 137q0 74 26 132t65.5 106.5
t85.5 90.5t85.5 83.5t65.5 86.5t26 99q0 46 -11 83.5t-22 63.5h161zM535 1046q44 0 78 -32q33 -31 33 -78q0 -46 -33 -78q-33 -33 -78 -33t-78 33q-33 32 -33 78q0 47 33 78q34 32 78 32z" />
    <glyph glyph-name="Agrave" unicode="&#xc0;" horiz-adv-x="1321" 
d="M1298 0h-186l-152 402h-608l-143 -402h-187l550 1434h174zM905 553l-225 611q-11 30 -22 96h-4q-10 -61 -23 -96l-223 -611h497zM758 1566h-127l-262 328h168z" />
    <glyph glyph-name="Aacute" unicode="&#xc1;" horiz-adv-x="1321" 
d="M1298 0h-186l-152 402h-608l-143 -402h-187l550 1434h174zM905 553l-225 611q-11 30 -22 96h-4q-10 -61 -23 -96l-223 -611h497zM867 1894l-262 -328h-127l223 328h166z" />
    <glyph glyph-name="Acircumflex" unicode="&#xc2;" horiz-adv-x="1321" 
d="M1298 0h-186l-152 402h-608l-143 -402h-187l550 1434h174zM905 553l-225 611q-11 30 -22 96h-4q-10 -61 -23 -96l-223 -611h497zM927 1565h-122l-164 230l-165 -230h-113l215 332h133z" />
    <glyph glyph-name="Atilde" unicode="&#xc3;" horiz-adv-x="1321" 
d="M1298 0h-186l-152 402h-608l-143 -402h-187l550 1434h174zM905 553l-225 611q-11 30 -22 96h-4q-10 -61 -23 -96l-223 -611h497zM977 1803q0 -105 -48 -171.5t-130 -66.5q-71 0 -162 52q-77 43 -119 43q-88 0 -88 -113h-94q0 107 48 171.5t134 64.5q65 0 149 -52
q74 -44 128 -44q84 0 84 116h98z" />
    <glyph glyph-name="Adieresis" unicode="&#xc4;" horiz-adv-x="1321" 
d="M1298 0h-186l-152 402h-608l-143 -402h-187l550 1434h174zM905 553l-225 611q-11 30 -22 96h-4q-10 -61 -23 -96l-223 -611h497zM840 1565q-40 0 -69 28t-29 71q0 42 28 70t68 28q42 0 71 -28.5t29 -69.5t-28 -70t-70 -29zM456 1565q-42 0 -71.5 29.5t-29.5 69.5
q0 42 28.5 70t69.5 28t71 -28.5t30 -69.5t-29 -70t-69 -29z" />
    <glyph glyph-name="Aring" unicode="&#xc5;" horiz-adv-x="1321" 
d="M1298 0h-186l-152 402h-608l-143 -402h-187l529 1378q-101 52 -101 164q0 89 60 144t152 55q88 0 144 -54.5t56 -138.5q0 -112 -96 -166zM656 1659q-50 0 -82 -31.5t-32 -79.5q0 -114 114 -114q48 0 81 33t33 81q0 49 -33 80t-81 31zM905 553l-225 611q-11 30 -22 96h-4
q-10 -61 -23 -96l-223 -611h497z" />
    <glyph glyph-name="AE" unicode="&#xc6;" horiz-adv-x="1762" 
d="M1667 0h-759v402h-510l-193 -402h-195l700 1434h924v-152h-559v-477h519v-151h-519v-502h592v-152zM908 553v729h-95l-346 -729h441z" />
    <glyph glyph-name="Ccedilla" unicode="&#xc7;" horiz-adv-x="1268" 
d="M1164 60q-159 -84 -396 -84q-306 0 -490 197t-184 517q0 344 207 556t525 212q204 0 338 -59v-179q-154 86 -340 86q-247 0 -400.5 -165t-153.5 -441q0 -262 143.5 -417.5t376.5 -155.5q216 0 374 96v-163zM960 -256q0 -176 -275 -176q-38 0 -65 2v90q43 -6 70 -6
q141 0 141 90q0 78 -129 78q-10 0 -41 -4v182h108v-104q88 0 139.5 -40t51.5 -112z" />
    <glyph glyph-name="Egrave" unicode="&#xc8;" horiz-adv-x="1036" 
d="M948 0h-760v1434h728v-152h-560v-477h518v-151h-518v-502h592v-152zM703 1566h-127l-262 328h168z" />
    <glyph glyph-name="Eacute" unicode="&#xc9;" horiz-adv-x="1036" 
d="M948 0h-760v1434h728v-152h-560v-477h518v-151h-518v-502h592v-152zM803 1893l-262 -328h-127l223 328h166z" />
    <glyph glyph-name="Ecircumflex" unicode="&#xca;" horiz-adv-x="1036" 
d="M948 0h-760v1434h728v-152h-560v-477h518v-151h-518v-502h592v-152zM827 1567h-122l-164 230l-165 -230h-113l215 332h133z" />
    <glyph glyph-name="Edieresis" unicode="&#xcb;" horiz-adv-x="1036" 
d="M948 0h-760v1434h728v-152h-560v-477h518v-151h-518v-502h592v-152zM749 1566q-40 0 -69 28t-29 71q0 42 28 70t68 28q42 0 71 -28.5t29 -69.5t-28 -70t-70 -29zM365 1566q-42 0 -71.5 29.5t-29.5 69.5q0 42 28.5 70t69.5 28t71 -28.5t30 -69.5t-29 -70t-69 -29z" />
    <glyph glyph-name="Igrave" unicode="&#xcc;" horiz-adv-x="545" 
d="M356 0h-168v1434h168v-1434zM417 1566h-127l-262 328h168z" />
    <glyph glyph-name="Iacute" unicode="&#xcd;" horiz-adv-x="545" 
d="M356 0h-168v1434h168v-1434zM510 1894l-262 -328h-127l223 328h166z" />
    <glyph glyph-name="Icircumflex" unicode="&#xce;" horiz-adv-x="545" 
d="M356 0h-168v1434h168v-1434zM562 1567h-122l-164 230l-165 -230h-113l215 332h133z" />
    <glyph glyph-name="Idieresis" unicode="&#xcf;" horiz-adv-x="545" 
d="M356 0h-168v1434h168v-1434zM471 1566q-40 0 -69 28t-29 71q0 42 28 70t68 28q42 0 71 -28.5t29 -69.5t-28 -70t-70 -29zM87 1566q-42 0 -71.5 29.5t-29.5 69.5q0 42 28.5 70t69.5 28t71 -28.5t30 -69.5t-29 -70t-69 -29z" />
    <glyph glyph-name="Eth" unicode="&#xd0;" horiz-adv-x="1436" 
d="M188 0v641h-160v155h160v638h396q758 0 758 -699q0 -334 -210.5 -534.5t-563.5 -200.5h-380zM356 1282v-486h336v-155h-336v-489h214q282 0 439 151t157 428q0 551 -586 551h-224z" />
    <glyph glyph-name="Ntilde" unicode="&#xd1;" horiz-adv-x="1532" 
d="M1344 0h-206l-738 1143q-28 43 -46 90h-6q8 -46 8 -197v-1036h-168v1434h218l718 -1125q45 -70 58 -96h4q-10 62 -10 211v1010h168v-1434zM1113 1803q0 -105 -48 -171.5t-130 -66.5q-71 0 -162 52q-77 43 -119 43q-88 0 -88 -113h-94q0 107 48 171.5t134 64.5
q65 0 149 -52q74 -44 128 -44q84 0 84 116h98z" />
    <glyph glyph-name="Ograve" unicode="&#xd2;" horiz-adv-x="1544" 
d="M766 -24q-305 0 -488.5 201t-183.5 523q0 346 187 552t509 206q297 0 478.5 -200t181.5 -523q0 -351 -186 -555t-498 -204zM778 1306q-226 0 -367 -163t-141 -428t137.5 -426.5t358.5 -161.5q236 0 372 154t136 431q0 284 -132 439t-364 155zM880 1566h-127l-262 328h168
z" />
    <glyph glyph-name="Oacute" unicode="&#xd3;" horiz-adv-x="1544" 
d="M766 -24q-305 0 -488.5 201t-183.5 523q0 346 187 552t509 206q297 0 478.5 -200t181.5 -523q0 -351 -186 -555t-498 -204zM778 1306q-226 0 -367 -163t-141 -428t137.5 -426.5t358.5 -161.5q236 0 372 154t136 431q0 284 -132 439t-364 155zM1028 1894l-262 -328h-127
l223 328h166z" />
    <glyph glyph-name="Ocircumflex" unicode="&#xd4;" horiz-adv-x="1544" 
d="M766 -24q-305 0 -488.5 201t-183.5 523q0 346 187 552t509 206q297 0 478.5 -200t181.5 -523q0 -351 -186 -555t-498 -204zM778 1306q-226 0 -367 -163t-141 -428t137.5 -426.5t358.5 -161.5q236 0 372 154t136 431q0 284 -132 439t-364 155zM1063 1566h-122l-164 230
l-165 -230h-113l215 332h133z" />
    <glyph glyph-name="Otilde" unicode="&#xd5;" horiz-adv-x="1544" 
d="M766 -24q-305 0 -488.5 201t-183.5 523q0 346 187 552t509 206q297 0 478.5 -200t181.5 -523q0 -351 -186 -555t-498 -204zM778 1306q-226 0 -367 -163t-141 -428t137.5 -426.5t358.5 -161.5q236 0 372 154t136 431q0 284 -132 439t-364 155zM1103 1802
q0 -105 -48 -171.5t-130 -66.5q-71 0 -162 52q-77 43 -119 43q-88 0 -88 -113h-94q0 107 48 171.5t134 64.5q65 0 149 -52q74 -44 128 -44q84 0 84 116h98z" />
    <glyph glyph-name="Odieresis" unicode="&#xd6;" horiz-adv-x="1544" 
d="M766 -24q-305 0 -488.5 201t-183.5 523q0 346 187 552t509 206q297 0 478.5 -200t181.5 -523q0 -351 -186 -555t-498 -204zM778 1306q-226 0 -367 -163t-141 -428t137.5 -426.5t358.5 -161.5q236 0 372 154t136 431q0 284 -132 439t-364 155zM968 1563q-40 0 -69 28
t-29 71q0 42 28 70t68 28q42 0 71 -28.5t29 -69.5t-28 -70t-70 -29zM584 1563q-42 0 -71.5 29.5t-29.5 69.5q0 42 28.5 70t69.5 28t71 -28.5t30 -69.5t-29 -70t-69 -29z" />
    <glyph glyph-name="multiply" unicode="&#xd7;" horiz-adv-x="1401" 
d="M1134 258l-94 -94l-340 340l-338 -340l-94 94l340 338l-340 340l94 94l338 -340l340 340l94 -94l-340 -340z" />
    <glyph glyph-name="Oslash" unicode="&#xd8;" horiz-adv-x="1544" 
d="M324 131l-152 -182l-78 65l158 191q-158 195 -158 495q0 343 186.5 550.5t509.5 207.5q234 0 402 -129l135 162l78 -63l-139 -166q184 -200 184 -527q0 -351 -186 -555t-498 -204q-266 0 -442 155zM1090 1204q-126 102 -312 102q-227 0 -367.5 -164t-140.5 -427
q0 -223 98 -373zM1157 1130l-725 -866q131 -137 334 -137q236 0 372 154.5t136 430.5q0 260 -117 418z" />
    <glyph glyph-name="Ugrave" unicode="&#xd9;" horiz-adv-x="1407" 
d="M1237 580q0 -604 -545 -604q-522 0 -522 581v877h168v-866q0 -441 372 -441q359 0 359 426v881h168v-854zM830 1566h-127l-262 328h168z" />
    <glyph glyph-name="Uacute" unicode="&#xda;" horiz-adv-x="1407" 
d="M1237 580q0 -604 -545 -604q-522 0 -522 581v877h168v-866q0 -441 372 -441q359 0 359 426v881h168v-854zM960 1893l-262 -328h-127l223 328h166z" />
    <glyph glyph-name="Ucircumflex" unicode="&#xdb;" horiz-adv-x="1407" 
d="M1237 580q0 -604 -545 -604q-522 0 -522 581v877h168v-866q0 -441 372 -441q359 0 359 426v881h168v-854zM987 1567h-122l-164 230l-165 -230h-113l215 332h133z" />
    <glyph glyph-name="Udieresis" unicode="&#xdc;" horiz-adv-x="1407" 
d="M1237 580q0 -604 -545 -604q-522 0 -522 581v877h168v-866q0 -441 372 -441q359 0 359 426v881h168v-854zM895 1567q-40 0 -69 28t-29 71q0 42 28 70t68 28q42 0 71 -28.5t29 -69.5t-28 -70t-70 -29zM511 1567q-42 0 -71.5 29.5t-29.5 69.5q0 42 28.5 70t69.5 28
t71 -28.5t30 -69.5t-29 -70t-69 -29z" />
    <glyph glyph-name="Yacute" unicode="&#xdd;" horiz-adv-x="1132" 
d="M1120 1434l-473 -904v-530h-168v526l-461 908h191l321 -648q6 -12 35 -88h3q10 34 38 88l336 648h178zM831 1894l-262 -328h-127l223 328h166z" />
    <glyph glyph-name="Thorn" unicode="&#xde;" horiz-adv-x="1147" 
d="M356 318v-318h-168v1434h168v-226h226q232 0 357.5 -111.5t125.5 -316.5q0 -204 -141.5 -333t-381.5 -129h-186zM356 1057v-588h176q173 0 265 78t92 223q0 287 -336 287h-197z" />
    <glyph glyph-name="germandbls" unicode="&#xdf;" horiz-adv-x="1114" 
d="M461 2v160q75 -48 170 -48q109 0 177 73.5t68 197.5q0 150 -100 243.5t-278 113.5v130q118 20 194 103t76 197q0 108 -55 167.5t-152 59.5q-231 0 -231 -309v-1090h-164v1114q0 192 110 308t296 116q166 0 265 -95t99 -251q0 -127 -75 -228t-195 -140v-5
q378 -75 378 -426q0 -177 -111 -297t-294 -120q-101 0 -178 26z" />
    <glyph glyph-name="agrave" unicode="&#xe0;" horiz-adv-x="1042" 
d="M899 0h-164v160h-4q-107 -184 -315 -184q-153 0 -239.5 81t-86.5 215q0 287 338 334l307 43q0 261 -211 261q-185 0 -334 -126v168q151 96 348 96q361 0 361 -382v-666zM735 518l-247 -34q-114 -16 -172 -56.5t-58 -143.5q0 -75 53.5 -122.5t142.5 -47.5
q122 0 201.5 85.5t79.5 216.5v102zM674 1218h-127l-262 328h168z" />
    <glyph glyph-name="aacute" unicode="&#xe1;" horiz-adv-x="1042" 
d="M899 0h-164v160h-4q-107 -184 -315 -184q-153 0 -239.5 81t-86.5 215q0 287 338 334l307 43q0 261 -211 261q-185 0 -334 -126v168q151 96 348 96q361 0 361 -382v-666zM735 518l-247 -34q-114 -16 -172 -56.5t-58 -143.5q0 -75 53.5 -122.5t142.5 -47.5
q122 0 201.5 85.5t79.5 216.5v102zM757 1546l-262 -328h-127l223 328h166z" />
    <glyph glyph-name="acircumflex" unicode="&#xe2;" horiz-adv-x="1042" 
d="M899 0h-164v160h-4q-107 -184 -315 -184q-153 0 -239.5 81t-86.5 215q0 287 338 334l307 43q0 261 -211 261q-185 0 -334 -126v168q151 96 348 96q361 0 361 -382v-666zM735 518l-247 -34q-114 -16 -172 -56.5t-58 -143.5q0 -75 53.5 -122.5t142.5 -47.5
q122 0 201.5 85.5t79.5 216.5v102zM806 1218h-122l-164 230l-165 -230h-113l215 332h133z" />
    <glyph glyph-name="atilde" unicode="&#xe3;" horiz-adv-x="1042" 
d="M899 0h-164v160h-4q-107 -184 -315 -184q-153 0 -239.5 81t-86.5 215q0 287 338 334l307 43q0 261 -211 261q-185 0 -334 -126v168q151 96 348 96q361 0 361 -382v-666zM735 518l-247 -34q-114 -16 -172 -56.5t-58 -143.5q0 -75 53.5 -122.5t142.5 -47.5
q122 0 201.5 85.5t79.5 216.5v102zM844 1458q0 -105 -48 -171.5t-130 -66.5q-71 0 -162 52q-77 43 -119 43q-88 0 -88 -113h-94q0 107 48 171.5t134 64.5q65 0 149 -52q74 -44 128 -44q84 0 84 116h98z" />
    <glyph glyph-name="adieresis" unicode="&#xe4;" horiz-adv-x="1042" 
d="M899 0h-164v160h-4q-107 -184 -315 -184q-153 0 -239.5 81t-86.5 215q0 287 338 334l307 43q0 261 -211 261q-185 0 -334 -126v168q151 96 348 96q361 0 361 -382v-666zM735 518l-247 -34q-114 -16 -172 -56.5t-58 -143.5q0 -75 53.5 -122.5t142.5 -47.5
q122 0 201.5 85.5t79.5 216.5v102zM708 1218q-40 0 -69 28t-29 71q0 42 28 70t68 28q42 0 71 -28.5t29 -69.5t-28 -70t-70 -29zM324 1218q-42 0 -71.5 29.5t-29.5 69.5q0 42 28.5 70t69.5 28t71 -28.5t30 -69.5t-29 -70t-69 -29z" />
    <glyph glyph-name="aring" unicode="&#xe5;" horiz-adv-x="1042" 
d="M899 0h-164v160h-4q-107 -184 -315 -184q-153 0 -239.5 81t-86.5 215q0 287 338 334l307 43q0 261 -211 261q-185 0 -334 -126v168q151 96 348 96q361 0 361 -382v-666zM735 518l-247 -34q-114 -16 -172 -56.5t-58 -143.5q0 -75 53.5 -122.5t142.5 -47.5
q122 0 201.5 85.5t79.5 216.5v102zM517 1176q-87 0 -144.5 52.5t-57.5 137.5q0 90 59 144t150 54q89 0 146 -54t57 -138t-61 -140t-149 -56zM517 1483q-48 0 -80 -32.5t-32 -80.5q0 -112 112 -112q50 0 83 32t33 80q0 49 -33 81t-83 32z" />
    <glyph glyph-name="ae" unicode="&#xe6;" horiz-adv-x="1704" 
d="M1622 471h-725q3 -171 91 -264t241 -93q177 0 321 114v-154q-132 -98 -358 -98q-270 0 -383 229h-4q-145 -229 -387 -229q-153 0 -240.5 80.5t-87.5 215.5q0 300 383 324l262 16q0 298 -215 298q-175 0 -330 -122v164q148 96 348 96q232 0 300 -200h4q116 200 356 200
q202 0 313 -130.5t111 -362.5v-84zM1454 610q-2 144 -68.5 222t-185.5 78q-116 0 -199 -82t-102 -218h555zM735 410v63l-203 -12q-139 -8 -207.5 -49t-68.5 -136q0 -73 53 -117.5t143 -44.5q119 0 201 84.5t82 211.5z" />
    <glyph glyph-name="ccedilla" unicode="&#xe7;" horiz-adv-x="946" 
d="M864 47q-118 -71 -280 -71q-219 0 -353.5 142.5t-134.5 369.5q0 253 145 406.5t387 153.5q135 0 238 -50v-168q-114 80 -244 80q-157 0 -257.5 -112.5t-100.5 -295.5q0 -180 94.5 -284t253.5 -104q134 0 252 89v-156zM778 -256q0 -176 -275 -176q-38 0 -65 2v90
q43 -6 70 -6q141 0 141 90q0 78 -129 78q-10 0 -41 -4v182h108v-104q88 0 139.5 -40t51.5 -112z" />
    <glyph glyph-name="egrave" unicode="&#xe8;" horiz-adv-x="1071" 
d="M989 471h-723q4 -171 92 -264t242 -93q173 0 318 114v-154q-135 -98 -357 -98q-217 0 -341 139.5t-124 392.5q0 239 135.5 389.5t336.5 150.5t311 -130t110 -361v-86zM821 610q-1 142 -68.5 221t-187.5 79q-116 0 -197 -83t-100 -217h553zM725 1218h-127l-262 328h168z
" />
    <glyph glyph-name="eacute" unicode="&#xe9;" horiz-adv-x="1071" 
d="M989 471h-723q4 -171 92 -264t242 -93q173 0 318 114v-154q-135 -98 -357 -98q-217 0 -341 139.5t-124 392.5q0 239 135.5 389.5t336.5 150.5t311 -130t110 -361v-86zM821 610q-1 142 -68.5 221t-187.5 79q-116 0 -197 -83t-100 -217h553zM795 1546l-262 -328h-127
l223 328h166z" />
    <glyph glyph-name="ecircumflex" unicode="&#xea;" horiz-adv-x="1071" 
d="M989 471h-723q4 -171 92 -264t242 -93q173 0 318 114v-154q-135 -98 -357 -98q-217 0 -341 139.5t-124 392.5q0 239 135.5 389.5t336.5 150.5t311 -130t110 -361v-86zM821 610q-1 142 -68.5 221t-187.5 79q-116 0 -197 -83t-100 -217h553zM840 1218h-122l-164 230
l-165 -230h-113l215 332h133z" />
    <glyph glyph-name="edieresis" unicode="&#xeb;" horiz-adv-x="1071" 
d="M989 471h-723q4 -171 92 -264t242 -93q173 0 318 114v-154q-135 -98 -357 -98q-217 0 -341 139.5t-124 392.5q0 239 135.5 389.5t336.5 150.5t311 -130t110 -361v-86zM821 610q-1 142 -68.5 221t-187.5 79q-116 0 -197 -83t-100 -217h553zM746 1218q-40 0 -69 28t-29 71
q0 42 28 70t68 28q42 0 71 -28.5t29 -69.5t-28 -70t-70 -29zM362 1218q-42 0 -71.5 29.5t-29.5 69.5q0 42 28.5 70t69.5 28t71 -28.5t30 -69.5t-29 -70t-69 -29z" />
    <glyph glyph-name="igrave" unicode="&#xec;" horiz-adv-x="496" 
d="M330 0h-164v1024h164v-1024zM370 1218h-127l-262 328h168z" />
    <glyph glyph-name="iacute" unicode="&#xed;" horiz-adv-x="496" 
d="M330 0h-164v1024h164v-1024zM478 1546l-262 -328h-127l223 328h166z" />
    <glyph glyph-name="icircumflex" unicode="&#xee;" horiz-adv-x="496" 
d="M330 0h-164v1024h164v-1024zM520 1218h-122l-164 230l-165 -230h-113l215 332h133z" />
    <glyph glyph-name="idieresis" unicode="&#xef;" horiz-adv-x="496" 
d="M330 0h-164v1024h164v-1024zM431 1218q-40 0 -69 28t-29 71q0 42 28 70t68 28q42 0 71 -28.5t29 -69.5t-28 -70t-70 -29zM47 1218q-42 0 -71.5 29.5t-29.5 69.5q0 42 28.5 70t69.5 28t71 -28.5t30 -69.5t-29 -70t-69 -29z" />
    <glyph glyph-name="eth" unicode="&#xf0;" horiz-adv-x="1145" 
d="M786 968l4 3q-90 162 -198 266l-299 -151l-51 98l270 131q-118 105 -264 201h221q75 -52 172 -136l289 144l55 -94l-264 -130q327 -307 327 -774q0 -240 -129 -394t-351 -154t-347 140t-125 382q0 243 130 394.5t350 151.5q123 0 210 -78zM582 910q-148 0 -233 -108.5
t-85 -295.5q0 -181 83 -286.5t231 -105.5q139 0 220.5 108t81.5 288q0 400 -298 400z" />
    <glyph glyph-name="ntilde" unicode="&#xf1;" horiz-adv-x="1159" 
d="M1016 0h-164v584q0 326 -238 326q-123 0 -203.5 -92.5t-80.5 -233.5v-584h-164v1024h164v-170h4q116 194 336 194q168 0 257 -108.5t89 -313.5v-626zM908 1458q0 -105 -48 -171.5t-130 -66.5q-71 0 -162 52q-77 43 -119 43q-88 0 -88 -113h-94q0 107 48 171.5t134 64.5
q65 0 149 -52q74 -44 128 -44q84 0 84 116h98z" />
    <glyph glyph-name="ograve" unicode="&#xf2;" horiz-adv-x="1200" 
d="M594 -24q-227 0 -362.5 143.5t-135.5 380.5q0 258 141 403t381 145q229 0 357.5 -141t128.5 -391q0 -245 -138.5 -392.5t-371.5 -147.5zM606 910q-158 0 -250 -107.5t-92 -296.5q0 -182 93 -287t249 -105q159 0 244.5 103t85.5 293q0 192 -85.5 296t-244.5 104zM747 1218
h-127l-262 328h168z" />
    <glyph glyph-name="oacute" unicode="&#xf3;" horiz-adv-x="1200" 
d="M594 -24q-227 0 -362.5 143.5t-135.5 380.5q0 258 141 403t381 145q229 0 357.5 -141t128.5 -391q0 -245 -138.5 -392.5t-371.5 -147.5zM606 910q-158 0 -250 -107.5t-92 -296.5q0 -182 93 -287t249 -105q159 0 244.5 103t85.5 293q0 192 -85.5 296t-244.5 104zM846 1546
l-262 -328h-127l223 328h166z" />
    <glyph glyph-name="ocircumflex" unicode="&#xf4;" horiz-adv-x="1200" 
d="M594 -24q-227 0 -362.5 143.5t-135.5 380.5q0 258 141 403t381 145q229 0 357.5 -141t128.5 -391q0 -245 -138.5 -392.5t-371.5 -147.5zM606 910q-158 0 -250 -107.5t-92 -296.5q0 -182 93 -287t249 -105q159 0 244.5 103t85.5 293q0 192 -85.5 296t-244.5 104zM885 1218
h-122l-164 230l-165 -230h-113l215 332h133z" />
    <glyph glyph-name="otilde" unicode="&#xf5;" horiz-adv-x="1200" 
d="M594 -24q-227 0 -362.5 143.5t-135.5 380.5q0 258 141 403t381 145q229 0 357.5 -141t128.5 -391q0 -245 -138.5 -392.5t-371.5 -147.5zM606 910q-158 0 -250 -107.5t-92 -296.5q0 -182 93 -287t249 -105q159 0 244.5 103t85.5 293q0 192 -85.5 296t-244.5 104zM931 1458
q0 -105 -48 -171.5t-130 -66.5q-71 0 -162 52q-77 43 -119 43q-88 0 -88 -113h-94q0 107 48 171.5t134 64.5q65 0 149 -52q74 -44 128 -44q84 0 84 116h98z" />
    <glyph glyph-name="odieresis" unicode="&#xf6;" horiz-adv-x="1200" 
d="M594 -24q-227 0 -362.5 143.5t-135.5 380.5q0 258 141 403t381 145q229 0 357.5 -141t128.5 -391q0 -245 -138.5 -392.5t-371.5 -147.5zM606 910q-158 0 -250 -107.5t-92 -296.5q0 -182 93 -287t249 -105q159 0 244.5 103t85.5 293q0 192 -85.5 296t-244.5 104zM793 1218
q-40 0 -69 28t-29 71q0 42 28 70t68 28q42 0 71 -28.5t29 -69.5t-28 -70t-70 -29zM409 1218q-42 0 -71.5 29.5t-29.5 69.5q0 42 28.5 70t69.5 28t71 -28.5t30 -69.5t-29 -70t-69 -29z" />
    <glyph glyph-name="divide" unicode="&#xf7;" horiz-adv-x="1401" 
d="M708 868q-44 0 -74 30.5t-30 74.5q0 45 29 77t75 32q103 0 103 -107q0 -47 -30.5 -77t-72.5 -30zM1172 530h-940v134h940v-134zM704 112q-44 0 -75 30t-31 73q0 45 30 78t76 33q101 0 101 -109q0 -45 -29 -75t-72 -30z" />
    <glyph glyph-name="oslash" unicode="&#xf8;" horiz-adv-x="1200" 
d="M1174 1048l-168 -180q98 -138 98 -346q0 -252 -139 -399t-371 -147q-192 0 -318 102l-145 -160l-82 78l149 164q-102 137 -102 340q0 258 142 403t382 145q184 0 308 -98l162 176zM821 836q-79 74 -215 74q-159 0 -250.5 -107.5t-91.5 -296.5q0 -132 50 -224zM891 742
l-508 -552q87 -76 221 -76q163 0 248.5 104t85.5 294q0 134 -47 230z" />
    <glyph glyph-name="ugrave" unicode="&#xf9;" horiz-adv-x="1159" 
d="M994 0h-164v162h-4q-102 -186 -316 -186q-366 0 -366 436v612h163v-586q0 -324 248 -324q120 0 197.5 88.5t77.5 231.5v590h164v-1024zM705 1218h-127l-262 328h168z" />
    <glyph glyph-name="uacute" unicode="&#xfa;" horiz-adv-x="1159" 
d="M994 0h-164v162h-4q-102 -186 -316 -186q-366 0 -366 436v612h163v-586q0 -324 248 -324q120 0 197.5 88.5t77.5 231.5v590h164v-1024zM840 1546l-262 -328h-127l223 328h166z" />
    <glyph glyph-name="ucircumflex" unicode="&#xfb;" horiz-adv-x="1159" 
d="M994 0h-164v162h-4q-102 -186 -316 -186q-366 0 -366 436v612h163v-586q0 -324 248 -324q120 0 197.5 88.5t77.5 231.5v590h164v-1024zM854 1218h-122l-164 230l-165 -230h-113l215 332h133z" />
    <glyph glyph-name="udieresis" unicode="&#xfc;" horiz-adv-x="1159" 
d="M994 0h-164v162h-4q-102 -186 -316 -186q-366 0 -366 436v612h163v-586q0 -324 248 -324q120 0 197.5 88.5t77.5 231.5v590h164v-1024zM770 1218q-40 0 -69 28t-29 71q0 42 28 70t68 28q42 0 71 -28.5t29 -69.5t-28 -70t-70 -29zM386 1218q-42 0 -71.5 29.5t-29.5 69.5
q0 42 28.5 70t69.5 28t71 -28.5t30 -69.5t-29 -70t-69 -29z" />
    <glyph glyph-name="yacute" unicode="&#xfd;" horiz-adv-x="991" 
d="M981 1024l-471 -1188q-126 -318 -354 -318q-64 0 -107 13v147q53 -18 97 -18q124 0 186 148l82 194l-400 1022h182l277 -788q5 -15 21 -78h6q5 24 20 76l291 790h170zM762 1546l-262 -328h-127l223 328h166z" />
    <glyph glyph-name="thorn" unicode="&#xfe;" horiz-adv-x="1204" 
d="M334 148h-4v-619h-164v1987h164v-672h4q121 204 354 204q198 0 309 -137.5t111 -368.5q0 -257 -125 -411.5t-342 -154.5q-199 0 -307 172zM330 561v-143q0 -127 82.5 -215.5t209.5 -88.5q149 0 233.5 114t84.5 317q0 171 -79 268t-214 97q-143 0 -230 -99.5t-87 -249.5z
" />
    <glyph glyph-name="ydieresis" unicode="&#xff;" horiz-adv-x="991" 
d="M981 1024l-471 -1188q-126 -318 -354 -318q-64 0 -107 13v147q53 -18 97 -18q124 0 186 148l82 194l-400 1022h182l277 -788q5 -15 21 -78h6q5 24 20 76l291 790h170zM689 1218q-40 0 -69 28t-29 71q0 42 28 70t68 28q42 0 71 -28.5t29 -69.5t-28 -70t-70 -29zM305 1218
q-42 0 -71.5 29.5t-29.5 69.5q0 42 28.5 70t69.5 28t71 -28.5t30 -69.5t-29 -70t-69 -29z" />
    <glyph glyph-name="dotlessi" unicode="&#x131;" horiz-adv-x="496" 
d="M330 0h-164v1024h164v-1024z" />
    <glyph glyph-name="OE" unicode="&#x152;" horiz-adv-x="1906" 
d="M1810 0h-720q-16 0 -138 -14q-98 -10 -182 -10q-312 0 -494 201t-182 523q0 346 189.5 552t514.5 206q90 0 178 -10q112 -14 114 -14h688v-152h-560v-477h518v-151h-518v-502h592v-152zM1050 160v1118q-160 28 -268 28q-229 0 -370.5 -166t-141.5 -425q0 -258 139.5 -423
t366.5 -165q116 0 274 33z" />
    <glyph glyph-name="oe" unicode="&#x153;" horiz-adv-x="1900" 
d="M1825 471h-725q3 -171 91.5 -264t242.5 -93q175 0 319 114v-154q-136 -98 -357 -98q-270 0 -382 237h-4q-131 -237 -416 -237q-229 0 -363.5 143t-134.5 379q0 258 142 404t382 146q294 0 402 -235h4q119 235 385 235q196 0 305 -131.5t109 -357.5v-88zM1657 610
q-2 142 -69 221t-183 79q-120 0 -203.5 -85.5t-99.5 -214.5h555zM606 910q-158 0 -250 -108.5t-92 -299.5q0 -180 92 -284t248 -104q159 0 245.5 102.5t86.5 291.5q0 194 -86.5 298t-243.5 104z" />
    <glyph glyph-name="Scaron" unicode="&#x160;" horiz-adv-x="1088" 
d="M121 58v198q34 -30 81.5 -54t100 -40.5t105.5 -25.5t98 -9q155 0 231.5 57.5t76.5 165.5q0 58 -25.5 101t-70.5 78.5t-106.5 68t-132.5 68.5q-75 38 -140 77t-113 86t-75.5 106.5t-27.5 139.5q0 98 43 170.5t113 119.5t159.5 70t182.5 23q212 0 309 -51v-189
q-127 88 -326 88q-55 0 -110 -11.5t-98 -37.5t-70 -67t-27 -100q0 -55 20.5 -95t60.5 -73t97.5 -64t132.5 -68q77 -38 146 -80t121 -93t82.5 -113t30.5 -142q0 -106 -41.5 -179.5t-112 -119.5t-162.5 -66.5t-194 -20.5q-34 0 -84 5.5t-102 16t-98.5 26t-74.5 34.5zM826 1898
l-214 -330h-132l-216 330h115l164 -229l164 229h119z" />
    <glyph glyph-name="scaron" unicode="&#x161;" horiz-adv-x="869" 
d="M104 37v176q134 -99 295 -99q216 0 216 144q0 41 -18.5 69.5t-50 50.5t-74 39.5t-91.5 36.5q-68 27 -119.5 54.5t-86 62t-52 78.5t-17.5 103q0 72 33 127.5t88 93t125.5 56.5t145.5 19q133 0 238 -46v-166q-113 74 -260 74q-46 0 -83 -10.5t-63.5 -29.5t-41 -45.5
t-14.5 -58.5q0 -40 14.5 -67t42.5 -48t68 -38t91 -37q68 -26 122 -53.5t92 -62t58.5 -79.5t20.5 -107q0 -76 -33.5 -132t-89.5 -93t-129 -55t-153 -18q-158 0 -274 61zM682 1548l-214 -330h-132l-216 330h115l164 -229l164 229h119z" />
    <glyph glyph-name="Ydieresis" unicode="&#x178;" horiz-adv-x="1132" 
d="M1120 1434l-473 -904v-530h-168v526l-461 908h191l321 -648q6 -12 35 -88h3q10 34 38 88l336 648h178zM759 1565q-40 0 -69 28t-29 71q0 42 28 70t68 28q42 0 71 -28.5t29 -69.5t-28 -70t-70 -29zM375 1565q-42 0 -71.5 29.5t-29.5 69.5q0 42 28.5 70t69.5 28t71 -28.5
t30 -69.5t-29 -70t-69 -29z" />
    <glyph glyph-name="Zcaron" unicode="&#x17d;" horiz-adv-x="1168" 
d="M1124 1394l-840 -1242h820v-152h-1071v47l833 1235h-766v152h1024v-40zM900 1895l-214 -330h-132l-216 330h115l164 -229l164 229h119z" />
    <glyph glyph-name="zcaron" unicode="&#x17e;" horiz-adv-x="926" 
d="M880 977l-606 -837h600v-140h-841v51l606 833h-549v140h790v-47zM782 1548l-214 -330h-132l-216 330h115l164 -229l164 229h119z" />
    <glyph glyph-name="florin" unicode="&#x192;" horiz-adv-x="1104" 
d="M952 1266q-48 28 -108 28q-146 0 -170 -160l-31 -208h166v-138h-187l-90 -648q-58 -418 -348 -418q-31 0 -90 16v143q36 -21 86 -21q150 0 190 292l91 636h-103v138h124l28 219q17 131 104.5 210t221.5 79q64 0 116 -19v-149z" />
    <glyph glyph-name="quoteright" unicode="&#x2019;" horiz-adv-x="469" 
d="M368 1458l-140 -446h-118l111 446h147z" />
    <glyph glyph-name="quoteright" unicode="&#x2bc;" horiz-adv-x="469" 
d="M368 1458l-140 -446h-118l111 446h147z" />
    <glyph glyph-name="circumflex" unicode="&#x2c6;" horiz-adv-x="760" 
d="M656 1218h-122l-164 230l-165 -230h-113l215 332h133z" />
    <glyph glyph-name="caron" unicode="&#x2c7;" horiz-adv-x="760" 
d="M664 1548l-214 -330h-132l-216 330h115l164 -229l164 229h119z" />
    <glyph glyph-name="breve" unicode="&#x2d8;" horiz-adv-x="622" 
d="M586 1470q-10 -113 -88.5 -182.5t-190.5 -69.5q-117 0 -191 69t-79 183h100q12 -155 172 -155q68 0 116.5 42t58.5 113h102z" />
    <glyph glyph-name="ring" unicode="&#x2da;" horiz-adv-x="574" 
d="M284 1176q-87 0 -144.5 52.5t-57.5 137.5q0 90 59 144t150 54q89 0 146 -54t57 -138t-61 -140t-149 -56zM284 1483q-48 0 -80 -32.5t-32 -80.5q0 -112 112 -112q50 0 83 32t33 80q0 49 -33 81t-83 32z" />
    <glyph glyph-name="tilde" unicode="&#x2dc;" horiz-adv-x="690" 
d="M676 1458q0 -105 -48 -171.5t-130 -66.5q-71 0 -162 52q-77 43 -119 43q-88 0 -88 -113h-94q0 107 48 171.5t134 64.5q65 0 149 -52q74 -44 128 -44q84 0 84 116h98z" />
    <glyph glyph-name="uni0900" unicode="&#x900;" 
d="M-326 1745q0 54 32 89t83 35q26 0 48 -9.5t38.5 -26.5t25.5 -40t9 -51q0 -26 -8.5 -48.5t-24.5 -39t-37.5 -25.5t-46.5 -9q-26 0 -47.5 9.5t-37.5 26t-25 39.5t-9 50zM108 1700q-18 51 -41.5 108t-59.5 104t-88 78t-127 31q-48 0 -93 -14.5t-84.5 -51t-71.5 -98.5
t-53 -157l-148 41q27 97 68 177t97.5 137t129.5 88.5t165 31.5q169 0 282 -106.5t171 -327.5z" />
    <glyph glyph-name="uni0901" unicode="&#x901;" 
d="M-313 2066q0 54 32 89t83 35q26 0 48 -9.5t38.5 -26.5t25.5 -40t9 -51q0 -26 -8.5 -48.5t-24.5 -39t-37.5 -25.5t-46.5 -9q-26 0 -47.5 9.5t-37.5 26t-25 39.5t-9 50zM-511 2110q18 -51 41.5 -108t59.5 -104t88 -78t127 -31q48 0 93 14.5t84.5 51t71.5 98.5t53 157
l148 -41q-27 -97 -68 -177t-97.5 -137t-130 -88.5t-164.5 -31.5q-169 0 -282 106.5t-171 327.5z" />
    <glyph glyph-name="uni0902" unicode="&#x902;" 
d="M-323 1796q0 57 33.5 92.5t87.5 35.5q25 0 47.5 -10t39.5 -27.5t26.5 -41t9.5 -51.5q0 -57 -33.5 -92t-87.5 -35q-26 0 -48.5 9.5t-39 27t-26 41t-9.5 51.5z" />
    <glyph glyph-name="uni0903" unicode="&#x903;" horiz-adv-x="531" 
d="M118 987q0 58 35 94.5t92 36.5q27 0 50.5 -10t41.5 -28t28 -42.5t10 -52.5q0 -58 -35 -94t-92 -36q-28 0 -51.5 10t-41 27.5t-27.5 41.5t-10 53zM118 382q0 58 35 94.5t92 36.5q27 0 50.5 -10t41.5 -28t28 -42.5t10 -52.5q0 -58 -35 -94t-92 -36q-28 0 -51.5 10t-41 27.5
t-27.5 41.5t-10 53z" />
    <glyph glyph-name="uni0904" unicode="&#x904;" horiz-adv-x="1680" 
d="M233 884q15 -47 35 -102.5t47.5 -112t62 -109.5t79 -94t98.5 -65.5t120 -24.5q65 0 110 19t73 51t40.5 75t12.5 90q0 103 -74.5 161t-215.5 58q-17 0 -34 -1t-34 -3v152q8 -1 14.5 -1h7.5q70 0 124.5 17.5t91.5 47.5t56 70t19 84q0 40 -14 71t-38 52t-57 31.5t-72 10.5
q-27 0 -52 -3.5t-53 -11t-59.5 -19.5t-71.5 -30l-57 137q78 38 150 57.5t147 19.5q72 0 133.5 -23t106 -63.5t69.5 -96.5t25 -121q0 -179 -171 -288v-4q67 -28 112 -69q29 -5 61.5 -8t59.5 -3q28 0 59 4t63.5 15t66 31t67.5 52v554h374v-147h-210v-1344h-164v760l-4 1
q-57 -38 -107 -50t-103 -12q-17 0 -35 1.5t-37 3.5l-1 -4q16 -41 16 -101q0 -81 -27 -150t-77.5 -119.5t-122 -78.5t-160.5 -28q-95 0 -171.5 33.5t-138 86.5t-107.5 119.5t-79 133.5t-54 127.5t-31 100.5zM1367 1464q-5 67 -19.5 114.5t-36.5 79t-50 49.5t-60.5 27.5
t-68.5 12.5t-73 4q-43 1 -86 3.5t-83.5 13t-78 31.5t-69 59.5t-56 97t-39.5 143.5l122 29q17 -85 49.5 -130.5t76.5 -66.5t97 -24.5t110 -4.5q48 -1 93.5 -4.5t86.5 -17.5t76.5 -41.5t63 -75.5t46.5 -121t27 -178h-128z" />
    <glyph glyph-name="uni0905" unicode="&#x905;" horiz-adv-x="1680" 
d="M233 884q15 -47 35 -102.5t47.5 -112t62 -109.5t79 -94t98.5 -65.5t120 -24.5q65 0 110 19t73 51t40.5 75t12.5 90q0 103 -74.5 161t-215.5 58q-17 0 -34 -1t-34 -3v152q8 -1 14.5 -1h7.5q70 0 124.5 17.5t91.5 47.5t56 70t19 84q0 40 -14 71t-38 52t-57 31.5t-72 10.5
q-27 0 -52 -3.5t-53 -11t-59.5 -19.5t-71.5 -30l-57 137q78 38 150 57.5t147 19.5q72 0 133.5 -23t106 -63.5t69.5 -96.5t25 -121q0 -179 -171 -288v-4q67 -28 112 -69q29 -5 61.5 -8t59.5 -3q28 0 59 4t63.5 15t66 31t67.5 52v554h374v-147h-210v-1344h-164v760l-4 1
q-57 -38 -107 -50t-103 -12q-17 0 -35 1.5t-37 3.5l-1 -4q16 -41 16 -101q0 -81 -27 -150t-77.5 -119.5t-122 -78.5t-160.5 -28q-95 0 -171.5 33.5t-138 86.5t-107.5 119.5t-79 133.5t-54 127.5t-31 100.5z" />
    <glyph glyph-name="uni0906" unicode="&#x906;" horiz-adv-x="2212" 
d="M233 884q15 -47 35 -102.5t47.5 -112t62 -109.5t79 -94t98.5 -65.5t120 -24.5q65 0 110 19t73 51t40.5 75t12.5 90q0 103 -74.5 161t-215.5 58q-17 0 -34 -1t-34 -3v152q8 -1 14.5 -1h7.5q70 0 124.5 17.5t91.5 47.5t56 70t19 84q0 40 -14 71t-38 52t-57 31.5t-72 10.5
q-27 0 -52 -3.5t-53 -11t-59.5 -19.5t-71.5 -30l-57 137q78 38 150 57.5t147 19.5q72 0 133.5 -23t106 -63.5t69.5 -96.5t25 -121q0 -179 -171 -288v-4q67 -28 112 -69q29 -5 61.5 -8t59.5 -3q28 0 59 4t63.5 15t66 31t67.5 52v554h374v-147h-210v-1344h-164v760l-4 1
q-57 -38 -107 -50t-103 -12q-17 0 -35 1.5t-37 3.5l-1 -4q16 -41 16 -101q0 -81 -27 -150t-77.5 -119.5t-122 -78.5t-160.5 -28q-95 0 -171.5 33.5t-138 86.5t-107.5 119.5t-79 133.5t-54 127.5t-31 100.5zM2247 1344h-210v-1344h-164v1344h-228v147h602v-147z" />
    <glyph glyph-name="uni0907" unicode="&#x907;" horiz-adv-x="1160" 
d="M670 80v-5q46 -50 97 -91.5t98.5 -73.5t88 -54t66.5 -33l-71 -125q-63 33 -125.5 77t-121 92t-110 98t-92.5 95q-86 8 -145.5 31t-97 55t-54.5 69t-17 72q0 25 8.5 48t25 40t41 27t56.5 10q34 0 72.5 -12t75.5 -36t71 -60.5t60 -85.5q125 21 189 84.5t64 166.5
q0 40 -10.5 65t-31.5 39t-52.5 18.5t-73.5 4.5h-275q-74 0 -128 31.5t-89.5 80t-52.5 107t-17 112.5q0 59 19 98.5t52 63t78.5 33.5t98.5 10h349v212h-752v147h1231v-147h-315v-359h-471q-75 0 -103 -21t-28 -68q0 -22 6 -47.5t22 -47t43.5 -36t70.5 -14.5h279q86 0 145 -21
t95 -58.5t52 -89.5t16 -113q0 -71 -20 -133t-61 -112.5t-104.5 -87t-151.5 -56.5z" />
    <glyph glyph-name="uni0908" unicode="&#x908;" horiz-adv-x="1160" 
d="M670 80v-5q46 -50 97 -91.5t98.5 -73.5t88 -54t66.5 -33l-71 -125q-63 33 -125.5 77t-121 92t-110 98t-92.5 95q-86 8 -145.5 31t-97 55t-54.5 69t-17 72q0 25 8.5 48t25 40t41 27t56.5 10q34 0 72.5 -12t75.5 -36t71 -60.5t60 -85.5q125 21 189 84.5t64 166.5
q0 40 -10.5 65t-31.5 39t-52.5 18.5t-73.5 4.5h-275q-74 0 -128 31.5t-89.5 80t-52.5 107t-17 112.5q0 59 19 98.5t52 63t78.5 33.5t98.5 10h349v212h-752v147h1231v-147h-315v-359h-471q-75 0 -103 -21t-28 -68q0 -22 6 -47.5t22 -47t43.5 -36t70.5 -14.5h279q86 0 145 -21
t95 -58.5t52 -89.5t16 -113q0 -71 -20 -133t-61 -112.5t-104.5 -87t-151.5 -56.5zM1063 1928q-44 50 -82 73t-89 23q-78 0 -125 -53.5t-47 -150.5q0 -40 9 -83.5t26 -87.5t42 -87t57 -82h-166q-60 85 -90 174.5t-30 174.5q0 82 26.5 147t70.5 109t102.5 67.5t123.5 23.5
q87 0 155.5 -34.5t128.5 -110.5z" />
    <glyph glyph-name="uni0909" unicode="&#x909;" horiz-adv-x="1443" 
d="M1478 1344h-326q29 -55 44.5 -112t15.5 -114q0 -48 -12 -94t-35 -87t-58 -75t-81 -58v-6q104 -61 165.5 -161t61.5 -238q0 -81 -24 -157.5t-74.5 -135.5t-129.5 -94.5t-188 -35.5q-119 0 -216.5 42t-175 111t-136.5 158t-100.5 183.5t-67.5 186.5t-38 167l131 60
q14 -84 41.5 -173t67 -173t90.5 -159t112.5 -131t133 -88.5t151.5 -32.5q48 0 95 13.5t83.5 46t59.5 86.5t23 134q0 159 -92.5 239.5t-274.5 80.5q-17 0 -38 -1t-43 -3v152q8 0 22.5 -1t39.5 -1q94 0 160 20t107.5 55.5t60.5 82.5t19 101q0 60 -19.5 113t-51.5 99h-1016v147
h1513v-147z" />
    <glyph glyph-name="uni090A" unicode="&#x90a;" horiz-adv-x="1955" 
d="M1990 1344h-838q29 -55 44.5 -112t15.5 -114q0 -48 -12 -94t-35 -87t-58 -75t-81 -58v-6q45 -27 82.5 -60.5t66.5 -75.5q54 72 125 117t167 45q76 0 138 -31t105.5 -82.5t67.5 -118.5t24 -140q0 -72 -22.5 -139t-60.5 -126t-88.5 -109.5t-105.5 -89.5l-97 123
q52 44 92.5 83.5t68 79.5t41.5 83.5t14 97.5q0 102 -49 158t-128 56q-41 0 -75 -14.5t-62 -36.5t-50.5 -48.5t-40.5 -51.5q7 -29 10.5 -58.5t3.5 -60.5q0 -81 -24 -157.5t-74.5 -135.5t-129.5 -94.5t-188 -35.5q-119 0 -216.5 42t-175 111t-136.5 158t-100.5 183.5
t-67.5 186.5t-38 167l131 60q14 -84 41.5 -173t67 -173t90.5 -159t112.5 -131t133 -88.5t151.5 -32.5q48 0 95 13.5t83.5 46t59.5 86.5t23 134q0 320 -367 320q-17 0 -38 -1t-43 -3v152q8 0 22.5 -1t39.5 -1q94 0 160 20t107.5 55.5t60.5 82.5t19 101q0 60 -19.5 113
t-51.5 99h-1016v147h2025v-147z" />
    <glyph glyph-name="uni090B" unicode="&#x90b;" horiz-adv-x="1865" 
d="M108 1106q27 3 67.5 6.5t81.5 6t77.5 4.5t54.5 2q48 0 96.5 -19.5t98 -51.5t100.5 -73t104 -85l4 2v446h-827v147h1935v-147h-945v-559q39 1 74.5 9.5t66 20.5t54.5 27t41 30q-10 23 -14.5 48t-4.5 50q0 42 12.5 82t36 71t56 50t72.5 19q33 0 57.5 -13t41 -35.5
t24.5 -52.5t8 -64q0 -27 -5.5 -54t-15.5 -52.5t-22.5 -47t-27.5 -37.5v-5q83 -58 139 -110t89.5 -101.5t48 -98.5t14.5 -101q0 -86 -37.5 -155.5t-104 -124.5t-157.5 -95.5t-197 -68.5l-38 156q14 3 47 12.5t75 25.5t86.5 39t81.5 54t61 70t24 86q0 49 -23 96t-60.5 89
t-84 77.5t-93.5 62.5q-38 -21 -74.5 -38t-75 -30t-81.5 -20.5t-94 -9.5v-647h-163v579l-2 1l-534 -427l-101 126l629 468v4q-48 41 -95.5 79t-95 67.5t-96 47t-98.5 17.5q-18 0 -54.5 -2t-79.5 -5.5t-85.5 -8t-71.5 -8.5v169z" />
    <glyph glyph-name="uni090C" unicode="&#x90c;" horiz-adv-x="1537" 
d="M692 637q-5 52 -14.5 106.5t-29 99t-53 72.5t-85.5 28q-36 0 -69.5 -14.5t-59 -45t-41 -77t-15.5 -109.5q0 -103 39 -189.5t100 -159.5t134 -133.5t141 -110.5l-90 -128q-28 18 -75 52t-101.5 83t-109.5 111.5t-100 137.5t-73.5 161t-28.5 181q0 90 26.5 163.5t72 126
t108 81.5t134.5 29q55 0 97.5 -15.5t74 -39.5t53.5 -53t36 -56l5 1q47 101 143 135v270h-945v147h1606v-147h-497v-258q72 -12 124 -48.5t85 -86t48.5 -105t15.5 -104.5q0 -56 -17 -102t-42.5 -84t-55 -68.5t-54.5 -54.5q-40 -38 -68 -73.5t-28 -77.5q0 -24 9.5 -43
t25.5 -32.5t36.5 -20.5t42.5 -7q32 0 65.5 14t65 35.5t59.5 48t49 51.5l106 -119q-29 -32 -65 -63.5t-79 -56t-91 -40t-101 -15.5q-60 0 -110.5 20t-87 55t-57 82t-20.5 100q0 42 12 76.5t31 64.5t43.5 56.5t49.5 51.5q28 28 51 52.5t39 49.5t25 52.5t9 61.5q0 45 -14 81
t-38.5 62t-57.5 40t-71 14q-47 0 -79 -20.5t-51.5 -55t-28.5 -80t-9 -95.5q0 -15 1 -32t3 -33h-154z" />
    <glyph glyph-name="uni090D" unicode="&#x90d;" horiz-adv-x="1168" 
d="M829 1344h-475v-716q0 -73 18.5 -121.5t59.5 -86t105.5 -72t156.5 -80.5q85 -42 158.5 -81t127.5 -82t85 -93t31 -114q0 -49 -20 -98.5t-58 -94.5l-135 82q15 24 28.5 51t13.5 56q0 39 -26.5 72.5t-70.5 64t-101 59.5t-119 59q-105 51 -183 92t-130.5 89.5t-78.5 113.5
t-26 163v737h-225v147h1238v-147h-210v-634q0 -77 -21.5 -127.5t-55 -79.5t-74 -40.5t-78.5 -11.5t-75 8.5t-70 22.5v163q22 -13 54 -22.5t64 -9.5q30 0 48 10t28 30t13 49t3 67v575zM290 2110q13 -51 35.5 -108t58.5 -104t88 -78t124 -31q47 0 92 14.5t84 51t69 98.5
t47 157l148 -41q-23 -97 -62.5 -177t-95.5 -137t-129 -88.5t-163 -31.5q-165 0 -279.5 106.5t-163.5 327.5z" />
    <glyph glyph-name="uni090E" unicode="&#x90e;" horiz-adv-x="1168" 
d="M829 1344h-475v-716q0 -73 18.5 -121.5t59.5 -86t105.5 -72t156.5 -80.5q85 -42 158.5 -81t127.5 -82t85 -93t31 -114q0 -49 -20 -98.5t-58 -94.5l-135 82q15 24 28.5 51t13.5 56q0 39 -26.5 72.5t-70.5 64t-101 59.5t-119 59q-105 51 -183 92t-130.5 89.5t-78.5 113.5
t-26 163v737h-225v147h1238v-147h-210v-634q0 -77 -21.5 -127.5t-55 -79.5t-74 -40.5t-78.5 -11.5t-75 8.5t-70 22.5v163q22 -13 54 -22.5t64 -9.5q30 0 48 10t28 30t13 49t3 67v575zM849 1464q-5 67 -19.5 114.5t-36.5 79t-50 49.5t-60.5 27.5t-68.5 12.5t-73 4
q-43 1 -86 3.5t-83.5 13t-78 31.5t-69 59.5t-56 97t-39.5 143.5l122 29q17 -85 49.5 -130.5t76.5 -66.5t97 -24.5t110 -4.5q48 -1 93.5 -4.5t86.5 -17.5t76.5 -41.5t63 -75.5t46.5 -121t27 -178h-128z" />
    <glyph glyph-name="uni090F" unicode="&#x90f;" horiz-adv-x="1168" 
d="M829 1344h-475v-716q0 -73 18.5 -121.5t59.5 -86t105.5 -72t156.5 -80.5q85 -42 158.5 -81t127.5 -82t85 -93t31 -114q0 -49 -20 -98.5t-58 -94.5l-135 82q15 24 28.5 51t13.5 56q0 39 -26.5 72.5t-70.5 64t-101 59.5t-119 59q-105 51 -183 92t-130.5 89.5t-78.5 113.5
t-26 163v737h-225v147h1238v-147h-210v-634q0 -77 -21.5 -127.5t-55 -79.5t-74 -40.5t-78.5 -11.5t-75 8.5t-70 22.5v163q22 -13 54 -22.5t64 -9.5q30 0 48 10t28 30t13 49t3 67v575z" />
    <glyph glyph-name="uni0910" unicode="&#x910;" horiz-adv-x="1168" 
d="M829 1344h-475v-716q0 -73 18.5 -121.5t59.5 -86t105.5 -72t156.5 -80.5q85 -42 158.5 -81t127.5 -82t85 -93t31 -114q0 -49 -20 -98.5t-58 -94.5l-135 82q15 24 28.5 51t13.5 56q0 39 -26.5 72.5t-70.5 64t-101 59.5t-119 59q-105 51 -183 92t-130.5 89.5t-78.5 113.5
t-26 163v737h-225v147h1238v-147h-210v-634q0 -77 -21.5 -127.5t-55 -79.5t-74 -40.5t-78.5 -11.5t-75 8.5t-70 22.5v163q22 -13 54 -22.5t64 -9.5q30 0 48 10t28 30t13 49t3 67v575zM979 1463h-145l-91 171q-58 109 -105.5 173t-90 97.5t-83.5 43t-86 9.5h-194v162h183
q58 0 105 -9.5t89.5 -34t83 -68t86.5 -112t100.5 -164t124.5 -225.5z" />
    <glyph glyph-name="uni0911" unicode="&#x911;" horiz-adv-x="2212" 
d="M233 884q15 -47 35 -102.5t47.5 -112t62 -109.5t79 -94t98.5 -65.5t120 -24.5q65 0 110 19t73 51t40.5 75t12.5 90q0 103 -74.5 161t-215.5 58q-17 0 -34 -1t-34 -3v152q8 -1 14.5 -1h7.5q70 0 124.5 17.5t91.5 47.5t56 70t19 84q0 40 -14 71t-38 52t-57 31.5t-72 10.5
q-27 0 -52 -3.5t-53 -11t-59.5 -19.5t-71.5 -30l-57 137q78 38 150 57.5t147 19.5q72 0 133.5 -23t106 -63.5t69.5 -96.5t25 -121q0 -179 -171 -288v-4q67 -28 112 -69q29 -5 61.5 -8t59.5 -3q28 0 59 4t63.5 15t66 31t67.5 52v554h374v-147h-210v-1344h-164v760l-4 1
q-57 -38 -107 -50t-103 -12q-17 0 -35 1.5t-37 3.5l-1 -4q16 -41 16 -101q0 -81 -27 -150t-77.5 -119.5t-122 -78.5t-160.5 -28q-95 0 -171.5 33.5t-138 86.5t-107.5 119.5t-79 133.5t-54 127.5t-31 100.5zM2247 1344h-210v-1344h-164v1344h-228v147h602v-147zM1653 2110
q13 -51 35.5 -108t58.5 -104t88 -78t124 -31q47 0 92 14.5t84 51t69 98.5t47 157l148 -41q-23 -97 -62.5 -177t-95.5 -137t-129 -88.5t-163 -31.5q-165 0 -279.5 106.5t-163.5 327.5z" />
    <glyph glyph-name="uni0912" unicode="&#x912;" horiz-adv-x="2212" 
d="M233 884q15 -47 35 -102.5t47.5 -112t62 -109.5t79 -94t98.5 -65.5t120 -24.5q65 0 110 19t73 51t40.5 75t12.5 90q0 103 -74.5 161t-215.5 58q-17 0 -34 -1t-34 -3v152q8 -1 14.5 -1h7.5q70 0 124.5 17.5t91.5 47.5t56 70t19 84q0 40 -14 71t-38 52t-57 31.5t-72 10.5
q-27 0 -52 -3.5t-53 -11t-59.5 -19.5t-71.5 -30l-57 137q78 38 150 57.5t147 19.5q72 0 133.5 -23t106 -63.5t69.5 -96.5t25 -121q0 -179 -171 -288v-4q67 -28 112 -69q29 -5 61.5 -8t59.5 -3q28 0 59 4t63.5 15t66 31t67.5 52v554h374v-147h-210v-1344h-164v760l-4 1
q-57 -38 -107 -50t-103 -12q-17 0 -35 1.5t-37 3.5l-1 -4q16 -41 16 -101q0 -81 -27 -150t-77.5 -119.5t-122 -78.5t-160.5 -28q-95 0 -171.5 33.5t-138 86.5t-107.5 119.5t-79 133.5t-54 127.5t-31 100.5zM2247 1344h-210v-1344h-164v1344h-228v147h602v-147zM1892 1464
q-5 67 -19.5 114.5t-36.5 79t-50 49.5t-60.5 27.5t-68.5 12.5t-73 4q-43 1 -86 3.5t-83.5 13t-78 31.5t-69 59.5t-56 97t-39.5 143.5l122 29q17 -85 49.5 -130.5t76.5 -66.5t97 -24.5t110 -4.5q48 -1 93.5 -4.5t86.5 -17.5t76.5 -41.5t63 -75.5t46.5 -121t27 -178h-128z" />
    <glyph glyph-name="uni0913" unicode="&#x913;" horiz-adv-x="2212" 
d="M233 884q15 -47 35 -102.5t47.5 -112t62 -109.5t79 -94t98.5 -65.5t120 -24.5q65 0 110 19t73 51t40.5 75t12.5 90q0 103 -74.5 161t-215.5 58q-17 0 -34 -1t-34 -3v152q8 -1 14.5 -1h7.5q70 0 124.5 17.5t91.5 47.5t56 70t19 84q0 40 -14 71t-38 52t-57 31.5t-72 10.5
q-27 0 -52 -3.5t-53 -11t-59.5 -19.5t-71.5 -30l-57 137q78 38 150 57.5t147 19.5q72 0 133.5 -23t106 -63.5t69.5 -96.5t25 -121q0 -179 -171 -288v-4q67 -28 112 -69q29 -5 61.5 -8t59.5 -3q28 0 59 4t63.5 15t66 31t67.5 52v554h374v-147h-210v-1344h-164v760l-4 1
q-57 -38 -107 -50t-103 -12q-17 0 -35 1.5t-37 3.5l-1 -4q16 -41 16 -101q0 -81 -27 -150t-77.5 -119.5t-122 -78.5t-160.5 -28q-95 0 -171.5 33.5t-138 86.5t-107.5 119.5t-79 133.5t-54 127.5t-31 100.5zM2247 1344h-210v-1344h-164v1344h-228v147h602v-147zM2022 1463
h-145l-91 171q-58 109 -105.5 173t-90 97.5t-83.5 43t-86 9.5h-194v162h183q58 0 105 -9.5t89.5 -34t83 -68t86.5 -112t100.5 -164t124.5 -225.5z" />
    <glyph glyph-name="uni0914" unicode="&#x914;" horiz-adv-x="2212" 
d="M233 884q15 -47 35 -102.5t47.5 -112t62 -109.5t79 -94t98.5 -65.5t120 -24.5q65 0 110 19t73 51t40.5 75t12.5 90q0 103 -74.5 161t-215.5 58q-17 0 -34 -1t-34 -3v152q8 -1 14.5 -1h7.5q70 0 124.5 17.5t91.5 47.5t56 70t19 84q0 40 -14 71t-38 52t-57 31.5t-72 10.5
q-27 0 -52 -3.5t-53 -11t-59.5 -19.5t-71.5 -30l-57 137q78 38 150 57.5t147 19.5q72 0 133.5 -23t106 -63.5t69.5 -96.5t25 -121q0 -179 -171 -288v-4q67 -28 112 -69q29 -5 61.5 -8t59.5 -3q28 0 59 4t63.5 15t66 31t67.5 52v554h374v-147h-210v-1344h-164v760l-4 1
q-57 -38 -107 -50t-103 -12q-17 0 -35 1.5t-37 3.5l-1 -4q16 -41 16 -101q0 -81 -27 -150t-77.5 -119.5t-122 -78.5t-160.5 -28q-95 0 -171.5 33.5t-138 86.5t-107.5 119.5t-79 133.5t-54 127.5t-31 100.5zM2247 1344h-210v-1344h-164v1344h-228v147h602v-147zM2029 1463
h-133l-36 32q-78 69 -137.5 116.5t-105.5 78.5t-82 48t-67 25t-60 9.5t-61 1.5h-192v142h178q44 0 81 -5.5t71.5 -19t69.5 -35t76.5 -54.5t92 -78t115.5 -104l6 4q-58 95 -103 164.5t-82 118t-68 79.5t-60 48t-59 23t-65 6h-194v147h183q58 0 103.5 -11t87 -40t82.5 -79
t89.5 -128.5t108 -188t138.5 -257.5z" />
    <glyph glyph-name="uni0915" unicode="&#x915;" horiz-adv-x="1768" 
d="M1803 1344h-845v-394l5 -2q51 70 127 112.5t167 42.5q72 0 133.5 -29.5t106.5 -81t70.5 -121.5t25.5 -151q0 -92 -32 -169.5t-82 -140.5t-113 -111.5t-124 -82.5l-89 154q20 11 49 29t60.5 42t62 54.5t55 66.5t39.5 78t15 89q0 43 -13.5 82t-37.5 68t-57.5 46t-73.5 17
q-52 0 -101 -27t-89 -67.5t-67.5 -86.5t-36.5 -85v-676h-164v383l-4 2q-15 -13 -38 -31.5t-55.5 -35.5t-75 -29t-95.5 -12q-88 0 -162.5 34t-129 92.5t-85.5 137.5t-31 169q0 86 28.5 159t78 125.5t116 82t143.5 29.5q54 0 100.5 -13.5t85 -33t69 -42t51.5 -40.5l4 1v366
h-829v147h1838v-147zM508 950q-57 0 -100.5 -23.5t-72.5 -60t-43.5 -82t-14.5 -89.5q0 -48 17 -95.5t48.5 -85.5t75.5 -61.5t97 -23.5q45 0 94.5 18.5t91 57.5t68.5 99.5t27 144.5v49q-24 30 -56.5 57.5t-70 48.5t-78.5 33.5t-83 12.5z" />
    <glyph glyph-name="uni0916" unicode="&#x916;" horiz-adv-x="1732" 
d="M1269 22q-46 -17 -113 -29t-152 -12q-159 0 -284 55t-231.5 161t-203 262t-198.5 357l133 76q38 -72 71.5 -102.5t74.5 -30.5q34 0 59.5 19t42 49.5t25 69.5t8.5 78q0 45 -10 94t-27 97t-39.5 93.5t-47.5 83.5v1h-412v147h1802v-147h-210v-1344h-164v486l-4 1
q-55 -54 -122 -80t-133 -26q-82 0 -151 34t-119 90t-78 128t-28 149q0 73 25.5 141t71 120.5t108 83.5t137.5 31q43 0 82 -10t75 -28t69 -42.5t63 -52.5l4 1v318h-841q51 -97 80 -189.5t29 -186.5q0 -64 -16 -127t-49.5 -114t-85.5 -85t-124 -40v-5q69 -135 144.5 -222.5
t153.5 -138.5t156.5 -71t153.5 -20q85 0 153 17.5t122 39.5v-180zM1394 839q-18 23 -44.5 52.5t-60 55.5t-74 43.5t-87.5 17.5q-48 0 -86.5 -19.5t-66.5 -51.5t-43 -74.5t-15 -88.5q0 -48 16 -91.5t44.5 -76.5t68.5 -52.5t88 -19.5q37 0 82.5 14t85 46t66 85t26.5 131v29z
" />
    <glyph glyph-name="uni0917" unicode="&#x917;" horiz-adv-x="1277" 
d="M1312 1344h-210v-1344h-164v1344h-451v-776q0 -16 -2 -37t-9.5 -40.5t-21.5 -33t-39 -13.5q-27 0 -59.5 17.5t-66.5 46t-65.5 64.5t-56.5 74t-40 74t-15 64q0 25 12.5 40t35 23t55 10t71.5 2h35v485h-356v147h1347v-147z" />
    <glyph glyph-name="uni0918" unicode="&#x918;" horiz-adv-x="1315" 
d="M1350 1344h-210v-1344h-164v386l-4 1q-81 -88 -166 -124t-173 -36q-81 0 -150 26.5t-119.5 74t-79 113.5t-28.5 146q0 72 27.5 134t96.5 116l-1 4q-59 15 -105 46t-77.5 73.5t-48 93.5t-16.5 105q0 45 11.5 95.5t36.5 89.5h-215v147h1385v-147zM349 1344q-29 -36 -43 -83
t-14 -89q0 -44 15 -82.5t44.5 -67.5t72.5 -46t99 -17q43 0 82.5 7.5t65.5 14.5l27 -154q-16 -2 -43 -8t-58.5 -17.5t-64 -30t-58.5 -45.5t-42.5 -64t-16.5 -85q0 -46 15.5 -82.5t43.5 -62t66.5 -39t85.5 -13.5q67 0 123 25.5t100 63t76 81t51 78.5v716h-627z" />
    <glyph glyph-name="uni0919" unicode="&#x919;" horiz-adv-x="1728" 
d="M1359 846q0 57 33.5 92.5t87.5 35.5q25 0 47.5 -10t39.5 -27.5t26.5 -41t9.5 -51.5q0 -57 -33.5 -92t-87.5 -35q-26 0 -48.5 9.5t-39 27t-26 41t-9.5 51.5zM1763 1344h-561v-369h-501q-74 0 -102.5 -21t-28.5 -68q0 -24 6 -50t22 -48.5t43.5 -37t70.5 -14.5h283
q88 0 148.5 -24t97 -66t52.5 -99t16 -122q0 -89 -29.5 -170t-87.5 -143t-144.5 -99t-201.5 -37q-125 0 -239.5 46.5t-210 129.5t-168 197t-113.5 250l139 55q35 -103 93 -198t134.5 -168t168.5 -116.5t194 -43.5q72 0 128.5 21t96.5 60t61 93.5t21 122.5q0 48 -11 78.5
t-34.5 47.5t-59.5 23.5t-86 6.5h-262q-74 0 -128 32t-89.5 81t-52.5 108.5t-17 114.5q0 59 19 98.5t52 63t78.5 33.5t98.5 10h379v222h-1073v147h1798v-147z" />
    <glyph glyph-name="uni091A" unicode="&#x91a;" horiz-adv-x="1385" 
d="M1420 1344h-210v-1344h-166v421l-4 3q-55 -50 -107.5 -78.5t-98 -43t-82.5 -18.5t-61 -4q-92 0 -163 29t-119 76.5t-73 109t-25 127.5q0 69 28.5 137t89.5 122l-1 4h-317v147h804v-147h-103q-103 0 -169 -27t-104 -66t-52.5 -83.5t-14.5 -80.5q0 -30 10 -64.5t33.5 -63.5
t63 -48t99.5 -19q63 0 117.5 20.5t100.5 53.5t83.5 74.5t64.5 82.5v680h-1079v147h1455v-147z" />
    <glyph glyph-name="uni091B" unicode="&#x91b;" horiz-adv-x="1620" 
d="M812 860q0 60 14.5 108t39.5 84.5t59.5 61t75.5 37.5v193h-1036v147h1690v-147h-490v-187q59 -13 110.5 -48.5t89 -91t59 -130.5t21.5 -168q0 -99 -25 -192.5t-71 -176t-110.5 -151.5t-145 -118.5t-174 -77t-196.5 -27.5q-111 0 -192.5 30.5t-135.5 80t-80.5 113
t-26.5 128.5q0 49 15 99t46 92l-2 5q-76 28 -118.5 71t-63.5 87t-25.5 82.5t-4.5 57.5q0 72 24 126t65.5 90t96 54t114.5 18q48 0 95 -11.5t93 -36.5v-146q-40 18 -84.5 29.5t-86.5 11.5q-32 0 -61 -8t-50.5 -25.5t-34 -45t-12.5 -66.5q0 -45 16 -78.5t41.5 -56t57 -34
t61.5 -11.5q37 0 85 13t96 29l42 -141q-66 -13 -113 -35.5t-76 -51.5t-42.5 -62.5t-13.5 -68.5q0 -40 17.5 -74t50.5 -59t81.5 -39t110.5 -14q83 0 162.5 26t148.5 72.5t124.5 111t91.5 142.5q-102 1 -181 29t-133 78t-81.5 119.5t-27.5 152.5zM1287 717q0 64 -14 116
t-38 89t-57 57t-71 20q-29 0 -54 -11.5t-43.5 -32.5t-29 -50.5t-10.5 -65.5q0 -51 21.5 -89.5t62 -65t97.5 -40.5t129 -16q3 22 5 44t2 45z" />
    <glyph glyph-name="uni091C" unicode="&#x91c;" horiz-adv-x="1533" 
d="M1568 1344h-210v-1344h-164v868h-322l-1 -4q12 -14 36 -42.5t48 -70t42 -94t18 -113.5t-20.5 -120.5t-61 -107t-102.5 -76.5t-144 -29q-81 0 -148.5 28.5t-123 76.5t-99.5 111t-78.5 133.5t-60 143t-43.5 139t-29 122.5t-17 93l148 29q33 -180 80.5 -315.5t105.5 -226.5
t125 -136.5t140 -45.5q52 0 84 20.5t50 50t24.5 61t6.5 54.5q0 41 -16.5 87.5t-48 93t-78.5 89.5t-108 78v117h593v330h-1229v147h1603v-147z" />
    <glyph glyph-name="uni091D" unicode="&#x91d;" horiz-adv-x="1568" 
d="M671 80v-5q46 -50 97 -91.5t98.5 -73.5t88 -54t66.5 -33l-71 -125q-63 33 -125.5 77t-121 92t-110 98t-92.5 95q-86 8 -145.5 31t-97 55t-54.5 69t-17 72q0 25 8.5 48t25 40t41 27t56.5 10q34 0 72.5 -12t75.5 -36t71 -60.5t60 -85.5q125 21 189 84.5t64 166.5
q0 40 -10.5 65t-31.5 39t-52.5 18.5t-73.5 4.5h-275q-74 0 -128 31.5t-89.5 80t-52.5 107t-17 112.5q0 59 19 98.5t52 63t78.5 33.5t98.5 10h349v212h-752v147h1638v-147h-210v-1344h-164v600l-4 1q-29 -19 -55.5 -31t-53 -19t-54.5 -9.5t-60 -2.5q6 -33 6 -70
q0 -71 -20 -133t-61 -112.5t-104.5 -87t-151.5 -56.5zM881 985h-471q-75 0 -103 -21t-28 -68q0 -22 6 -47.5t22 -47t43.5 -36t70.5 -14.5h279q85 0 143.5 -20t94.5 -57q37 0 72 2.5t70 13t72 31t77 56.5v567h-348v-359z" />
    <glyph glyph-name="uni091E" unicode="&#x91e;" horiz-adv-x="1619" 
d="M508 799l-84 139q66 48 145 76.5t158 28.5q73 0 135 -25.5t107.5 -70.5t72.5 -105.5t31 -130.5q72 0 121.5 20t85.5 50v563h-1315v147h1689v-147h-210v-1344h-164v605l-5 1q-23 -14 -45.5 -23t-49 -14.5t-57.5 -8t-71 -2.5q-19 -53 -52.5 -95.5t-79 -73.5t-102 -47.5
t-121.5 -16.5q-101 0 -190.5 39t-166 102.5t-140 145t-112.5 165.5l123 86q50 -84 105.5 -154.5t115.5 -122.5t124.5 -81t132.5 -29q54 0 96 18t71 49t44.5 72t15.5 88q0 40 -12 74.5t-34.5 60t-55 39.5t-73.5 14q-35 0 -68 -9t-63 -22.5t-56 -29.5t-46 -31z" />
    <glyph glyph-name="uni091F" unicode="&#x91f;" horiz-adv-x="1210" 
d="M1057 165q-81 -48 -172 -72t-182 -24q-124 0 -224.5 41.5t-172 115t-110 172.5t-38.5 215q0 110 34.5 192t94.5 136.5t141.5 81.5t175.5 27h195v294h-834v147h1280v-147h-282v-440h-323q-72 0 -131.5 -20t-102 -59t-66 -96.5t-23.5 -133.5q0 -83 27.5 -151t77 -117
t118 -76t150.5 -27q49 0 99 10t97 27t90.5 39t80.5 47v-182z" />
    <glyph glyph-name="uni0920" unicode="&#x920;" horiz-adv-x="1391" 
d="M671 128q83 0 154 30t122.5 83t80.5 125.5t29 158.5q0 72 -19.5 126.5t-50 94.5t-67 67t-70.5 44t-60.5 25t-37.5 10q-26 -12 -64.5 -23.5t-81.5 -25.5q-50 -17 -101 -43t-92 -68t-66.5 -104t-25.5 -150q0 -77 26 -141.5t72.5 -111t110.5 -72t141 -25.5zM1426 1344h-487
v-162q0 -49 -16 -102t-47 -90q79 -28 141.5 -76.5t106 -112t67 -139.5t23.5 -159q0 -110 -40 -206t-111.5 -167.5t-170.5 -112.5t-217 -41q-125 0 -221 44.5t-161 118.5t-99 169t-34 197q0 107 31.5 187t86.5 138.5t130.5 97.5t164.5 64q41 12 78 24t64.5 34t43.5 57.5
t16 92.5v144h-810v147h1461v-147z" />
    <glyph glyph-name="uni0921" unicode="&#x921;" horiz-adv-x="1465" 
d="M1500 1344h-298v-369h-501q-74 0 -102.5 -21t-28.5 -68q0 -24 6 -50t22 -48.5t43.5 -37t70.5 -14.5h283q88 0 148.5 -24t97 -66t52.5 -99t16 -122q0 -89 -29.5 -170t-87.5 -143t-144.5 -99t-201.5 -37q-125 0 -239.5 46.5t-210 129.5t-168 197t-113.5 250l139 55
q35 -103 93 -198t134.5 -168t168.5 -116.5t194 -43.5q72 0 128.5 21t96.5 60t61 93.5t21 122.5q0 48 -11 78.5t-34.5 47.5t-59.5 23.5t-86 6.5h-262q-74 0 -128 32t-89.5 81t-52.5 108.5t-17 114.5q0 59 19 98.5t52 63t78.5 33.5t98.5 10h379v222h-1073v147h1535v-147z" />
    <glyph glyph-name="uni0922" unicode="&#x922;" horiz-adv-x="1313" 
d="M1348 1344h-359v-440h-333q-86 0 -149.5 -27.5t-105.5 -75.5t-63 -114t-21 -142q0 -150 72.5 -254.5t215.5 -152.5l2 4q-26 48 -38 96.5t-12 96.5q0 62 20.5 117.5t58.5 97.5t92.5 66.5t123.5 24.5t124.5 -25.5t95 -68t61 -99t21.5 -118.5t-23 -125t-71.5 -114
t-123.5 -83t-179 -32q-65 0 -134 14t-136 44t-126.5 77t-104.5 112.5t-71.5 150.5t-26.5 191q0 120 34.5 211t96 152t146 91.5t184.5 30.5h206v294h-860v147h1383v-147zM753 118q65 0 111 20t75 51t42.5 69.5t13.5 74.5t-11.5 65t-31.5 48.5t-46.5 30t-55.5 10.5
q-66 0 -107.5 -48t-41.5 -136q0 -91 52 -185z" />
    <glyph glyph-name="uni0923" unicode="&#x923;" horiz-adv-x="1518" 
d="M1553 1344h-210v-1344h-164v1344h-248v-619q0 -104 -28.5 -179t-78 -124t-115.5 -72.5t-142 -23.5q-85 0 -153.5 27t-116.5 80t-74 131.5t-26 180.5v599h-232v147h1588v-147zM363 1344v-630q0 -46 10.5 -88.5t34 -75.5t62 -53t94.5 -20q57 0 95.5 20t62.5 53t34.5 75.5
t10.5 88.5v630h-404z" />
    <glyph glyph-name="uni0924" unicode="&#x924;" horiz-adv-x="1253" 
d="M1288 1344h-210v-1344h-163v878h-325q-67 0 -121 -8.5t-92 -34t-58.5 -71t-20.5 -119.5q0 -96 31.5 -177t80.5 -148.5t108.5 -124.5t114.5 -105l-100 -114q-9 5 -42.5 29.5t-78 66.5t-94 102t-91 135.5t-69 166.5t-27.5 196q0 104 29.5 172.5t83.5 109t131 56.5t172 16
h368v318h-950v147h1323v-147z" />
    <glyph glyph-name="uni0925" unicode="&#x925;" horiz-adv-x="1305" 
d="M641 1186q0 -72 -18 -138t-54 -121.5t-89.5 -99t-125.5 -71.5q15 -68 42 -115.5t64 -78.5t82 -45t95 -14q100 0 185.5 46t143.5 127v815h374v-147h-210v-1344h-164v468l-4 1q-26 -22 -62 -43.5t-79.5 -38t-93.5 -27t-104 -10.5q-112 0 -191.5 43.5t-133 114.5t-84 161.5
t-43.5 185.5q88 18 147.5 52t95.5 78.5t51.5 96t15.5 104.5q0 88 -34.5 132.5t-86.5 44.5q-46 0 -74 -31t-28 -79q0 -9 2 -22t10 -29.5t24 -37t43 -43.5l-89 -109q-46 25 -75 55.5t-45 62.5t-22 62.5t-6 56.5q0 48 16.5 94.5t49.5 84t83 60.5t117 23t118 -24t86 -67
t53 -102.5t18 -131.5z" />
    <glyph glyph-name="uni0926" unicode="&#x926;" horiz-adv-x="1275" 
d="M1310 1344h-339v-439h-337q-157 0 -237 -77.5t-80 -222.5q0 -82 26.5 -145t73 -105.5t110.5 -64.5t139 -22q79 0 127 24q-4 25 -6 44t-2 38q0 42 10.5 86.5t32 81t55 59.5t80.5 23q29 0 55 -10t45.5 -30.5t31 -51.5t11.5 -72t-11 -75.5t-28.5 -64t-39.5 -55t-43 -46.5
q22 -48 46.5 -86t51 -68t53.5 -54t54 -45l-123 -129q-53 47 -90.5 93.5t-63 87.5t-41.5 74t-26 53q-69 -27 -170 -27q-130 0 -227 42.5t-161.5 114t-96.5 163.5t-32 191q0 103 33 181.5t92 132t140.5 81t178.5 27.5h205v293h-842v147h1345v-147z" />
    <glyph glyph-name="uni0927" unicode="&#x927;" horiz-adv-x="1298" 
d="M488 1153q11 16 20.5 40.5t9.5 55.5q0 28 -10 49t-25.5 34t-35.5 19.5t-40 6.5q-24 0 -47.5 -9.5t-42 -30.5t-30.5 -53.5t-12 -77.5q0 -49 14.5 -92.5t45 -76t77 -51.5t111.5 -19q45 0 83 7.5t66 14.5l27 -154q-16 -2 -43 -7.5t-58.5 -17t-64 -29.5t-58.5 -44.5
t-42.5 -62.5t-16.5 -84q0 -45 15 -80t42 -60t65 -38t83 -13q64 0 118 24t97 59.5t74 76.5t49 75v876h374v-147h-210v-1344h-164v374l-4 1q-37 -41 -78 -69t-83.5 -45.5t-85.5 -25.5t-83 -8q-79 0 -146.5 26t-116.5 73t-77 111.5t-28 142.5q0 72 27.5 132t96.5 114l-1 4
q-68 18 -117.5 55t-82 85t-48.5 104.5t-16 113.5q0 70 22.5 129t63 102t95.5 67.5t121 24.5q69 0 118.5 -24t81 -61t46.5 -81.5t15 -84.5q0 -28 -6 -55t-15 -51t-19.5 -44t-19.5 -34z" />
    <glyph glyph-name="uni0928" unicode="&#x928;" horiz-adv-x="1244" 
d="M1279 1344h-210v-1344h-165v771h-468q0 -66 -1.5 -113t-8.5 -77.5t-21 -44.5t-39 -14q-52 0 -98.5 34t-82 82t-56.5 100t-21 88q0 32 14 50t37 27t52.5 11t59.5 2h633v428h-939v147h1314v-147z" />
    <glyph glyph-name="uni0929" unicode="&#x929;" horiz-adv-x="1244" 
d="M1279 1344h-210v-1344h-165v771h-468q0 -66 -1.5 -113t-8.5 -77.5t-21 -44.5t-39 -14q-52 0 -98.5 34t-82 82t-56.5 100t-21 88q0 32 14 50t37 27t52.5 11t59.5 2h633v428h-939v147h1314v-147zM442 286q0 57 33.5 92.5t87.5 35.5q25 0 47.5 -10t39.5 -27.5t26.5 -41
t9.5 -51.5q0 -57 -33.5 -92t-87.5 -35q-26 0 -48.5 9.5t-39 27t-26 41t-9.5 51.5z" />
    <glyph glyph-name="uni092A" unicode="&#x92a;" horiz-adv-x="1233" 
d="M1268 1344h-210v-1344h-165v478l-4 1q-67 -60 -150 -85.5t-164 -25.5q-86 0 -157 25t-122 76.5t-79.5 130t-28.5 186.5v558h-223v147h1303v-147zM893 1344h-543v-549q0 -63 10.5 -113t36 -85t67.5 -53.5t105 -18.5q103 0 186 48.5t138 127.5v643z" />
    <glyph glyph-name="uni092B" unicode="&#x92b;" horiz-adv-x="1832" 
d="M1867 1344h-863v-384l5 -2q26 35 59.5 63.5t73 49t83 31.5t88.5 11q74 0 137 -29.5t109 -81t72 -121.5t26 -152q0 -92 -31.5 -169t-81 -140t-110.5 -111.5t-121 -82.5l-89 154q19 11 47 29t58.5 42t60.5 54.5t54 66.5t39 77t15 88q0 45 -14 84t-38.5 68t-59 46t-75.5 17
q-53 0 -104 -27t-93 -67.5t-71.5 -86.5t-38.5 -85v-686h-164v475l-3 1q-62 -57 -134 -82.5t-150 -25.5q-81 0 -148 25t-115 76.5t-75 130t-27 186.5v558h-223v147h1902v-147zM840 1344h-490v-549q0 -63 9.5 -113t33 -85t61.5 -53.5t95 -18.5q48 0 89.5 13.5t77.5 37t67 56.5
t57 72v640z" />
    <glyph glyph-name="uni092C" unicode="&#x92c;" horiz-adv-x="1276" 
d="M1311 1344h-210v-1344h-164v354l-4 1q-22 -19 -51.5 -39t-68 -37t-86.5 -28t-106 -11q-109 0 -199 38.5t-154.5 103t-100.5 148t-36 174.5q0 92 36 171t98.5 136.5t145.5 90.5t177 33q29 0 69 -4.5t85.5 -19.5t94.5 -42.5t96 -73.5l4 1v348h-972v147h1346v-147zM291 688
q0 -55 19 -108t57 -95t94 -67.5t131 -25.5q67 0 128 22l-330 496q-46 -38 -72.5 -96t-26.5 -126zM941 809q-36 39 -73.5 71t-79.5 55t-88.5 36t-99.5 13q-23 0 -44 -3t-43 -8l325 -488q49 44 76 97.5t27 104.5v122z" />
    <glyph glyph-name="uni092D" unicode="&#x92d;" horiz-adv-x="1468" 
d="M1503 1344h-210v-1344h-164v561h-525v-143q0 -15 -2.5 -32t-10 -31.5t-20 -24t-31.5 -9.5q-23 0 -54.5 14.5t-65 39t-66 56t-58 65.5t-41.5 68t-16 63q0 42 30 61t79 19h97v549q0 52 -25 79.5t-63 27.5q-42 0 -70.5 -31t-28.5 -79q0 -9 2 -22t10 -29.5t24 -37t43 -43.5
l-89 -109q-46 25 -75 55.5t-45 62.5t-22 62.5t-6 56.5q0 48 16.5 94.5t49.5 84t82.5 60.5t115.5 23q58 0 103 -19t75.5 -54.5t46 -85t15.5 -110.5v-535h525v784h374v-147z" />
    <glyph glyph-name="uni092E" unicode="&#x92e;" horiz-adv-x="1379" 
d="M1414 1344h-210v-1344h-164v561h-550v-119q0 -31 -2.5 -55t-11 -40t-24 -24.5t-41.5 -8.5t-58 15.5t-65 42t-64 60t-55.5 70t-39.5 72.5t-15 66q0 21 7.5 34.5t21 20.5t32.5 9.5t43 2.5h108v637h-361v147h1449v-147zM490 1344v-637h550v637h-550z" />
    <glyph glyph-name="uni092F" unicode="&#x92f;" horiz-adv-x="1274" 
d="M1309 1344h-210v-1344h-164v468l-4 1q-27 -22 -64.5 -43.5t-83.5 -38t-99 -27t-111 -10.5q-116 0 -198.5 42t-138 112.5t-87.5 161t-46 188.5q66 9 113 31t76 52.5t42.5 66.5t13.5 72q0 24 -4.5 54t-15.5 64.5t-29 72.5t-45 77h-289v147h1344v-147zM431 1344
q36 -61 56.5 -133.5t20.5 -142.5q0 -51 -13.5 -99t-41.5 -89.5t-69.5 -74t-96.5 -51.5q16 -67 44 -114.5t66 -78t85 -44.5t101 -14q52 0 102.5 12t96 34.5t84.5 54.5t69 72v668h-504z" />
    <glyph glyph-name="uni0930" unicode="&#x930;" horiz-adv-x="1001" 
d="M1036 1344h-377q51 -88 82.5 -179.5t31.5 -185.5q0 -71 -21.5 -136.5t-63 -117t-103 -84t-141.5 -36.5l-2 -5q90 -140 202 -264.5t259 -236.5l-107 -123q-85 63 -161.5 136.5t-144.5 152t-126.5 159t-107 157t-86.5 147t-65 128.5l137 74q36 -78 81.5 -122.5t105.5 -44.5
q43 0 77 22t57 56.5t35 76t12 81.5q0 47 -12 92.5t-31 89t-42.5 84.5t-45.5 79h-514v147h1071v-147z" />
    <glyph glyph-name="uni0931" unicode="&#x931;" horiz-adv-x="1001" 
d="M1036 1344h-377q51 -88 82.5 -179.5t31.5 -185.5q0 -71 -21.5 -136.5t-63 -117t-103 -84t-141.5 -36.5l-2 -5q90 -140 202 -264.5t259 -236.5l-107 -123q-85 63 -161.5 136.5t-144.5 152t-126.5 159t-107 157t-86.5 147t-65 128.5l137 74q36 -78 81.5 -122.5t105.5 -44.5
q43 0 77 22t57 56.5t35 76t12 81.5q0 47 -12 92.5t-31 89t-42.5 84.5t-45.5 79h-514v147h1071v-147zM121 156q0 57 33.5 92.5t87.5 35.5q25 0 47.5 -10t39.5 -27.5t26.5 -41t9.5 -51.5q0 -57 -33.5 -92t-87.5 -35q-26 0 -48.5 9.5t-39 27t-26 41t-9.5 51.5z" />
    <glyph glyph-name="uni0932" unicode="&#x932;" horiz-adv-x="1463" 
d="M1498 1344h-210v-1345h-164v937q-53 19 -100 19t-82 -17.5t-58.5 -46.5t-35.5 -68t-12 -82q0 -17 1.5 -34.5t3.5 -34.5h-153q-8 58 -18.5 111t-30 93t-50.5 63.5t-80 23.5q-47 0 -80.5 -19t-55.5 -53t-32.5 -79.5t-10.5 -98.5q0 -114 39 -204.5t105.5 -162.5t154 -128.5
t184.5 -103.5l-81 -138q-36 16 -92.5 48t-120 79t-127.5 110t-115.5 141t-83.5 172t-32 203q0 84 24 156.5t68.5 126t107.5 84t140 30.5q58 0 100 -16.5t72.5 -41t50.5 -53t35 -53.5l5 1q19 42 45.5 71t58 47t66.5 26.5t70 8.5q31 0 61.5 -5.5t58.5 -15.5v249h-1159v147
h1533v-147z" />
    <glyph glyph-name="uni0933" unicode="&#x933;" horiz-adv-x="1803" 
d="M516 226q-89 0 -162 33t-125.5 91.5t-81.5 138t-29 171.5q0 100 31 180.5t85.5 137.5t128 87.5t158.5 30.5q109 0 206 -51.5t194 -151.5q45 70 105 121.5t148 67.5v262h-1209v147h1873v-147h-501v-267q67 -16 121 -53t91.5 -89t58 -116.5t20.5 -135.5q0 -104 -35.5 -189
t-95 -146.5t-135.5 -95t-157 -33.5q-105 0 -196 49t-180 135q-26 -38 -57.5 -70.5t-69.5 -56t-84 -37t-102 -13.5zM537 950q-60 0 -107.5 -23.5t-81.5 -63t-52 -93t-18 -113.5q0 -52 15 -102t44.5 -89t73.5 -63t101 -24q70 0 119.5 35.5t88 92.5t70.5 128.5t67 143.5
q-76 88 -157.5 129.5t-162.5 41.5zM1181 372q58 0 110 18.5t91.5 56t63 94t23.5 133.5q0 49 -12.5 97t-38.5 86t-66.5 61.5t-95.5 23.5q-49 0 -88 -18.5t-71 -50t-58.5 -74t-50.5 -91t-47.5 -100t-49.5 -101.5q25 -25 56.5 -49t68 -43t78.5 -31t87 -12z" />
    <glyph glyph-name="uni0934" unicode="&#x934;" horiz-adv-x="1803" 
d="M516 226q-89 0 -162 33t-125.5 91.5t-81.5 138t-29 171.5q0 100 31 180.5t85.5 137.5t128 87.5t158.5 30.5q109 0 206 -51.5t194 -151.5q45 70 105 121.5t148 67.5v262h-1209v147h1873v-147h-501v-267q67 -16 121 -53t91.5 -89t58 -116.5t20.5 -135.5q0 -104 -35.5 -189
t-95 -146.5t-135.5 -95t-157 -33.5q-105 0 -196 49t-180 135q-26 -38 -57.5 -70.5t-69.5 -56t-84 -37t-102 -13.5zM537 950q-60 0 -107.5 -23.5t-81.5 -63t-52 -93t-18 -113.5q0 -52 15 -102t44.5 -89t73.5 -63t101 -24q70 0 119.5 35.5t88 92.5t70.5 128.5t67 143.5
q-76 88 -157.5 129.5t-162.5 41.5zM1181 372q58 0 110 18.5t91.5 56t63 94t23.5 133.5q0 49 -12.5 97t-38.5 86t-66.5 61.5t-95.5 23.5q-49 0 -88 -18.5t-71 -50t-58.5 -74t-50.5 -91t-47.5 -100t-49.5 -101.5q25 -25 56.5 -49t68 -43t78.5 -31t87 -12zM754 -54
q0 57 33.5 92.5t87.5 35.5q25 0 47.5 -10t39.5 -27.5t26.5 -41t9.5 -51.5q0 -57 -33.5 -92t-87.5 -35q-26 0 -48.5 9.5t-39 27t-26 41t-9.5 51.5z" />
    <glyph glyph-name="uni0935" unicode="&#x935;" horiz-adv-x="1204" 
d="M1239 1344h-210v-1344h-164v357l-4 1q-20 -19 -47 -39.5t-62 -37t-78.5 -27.5t-97.5 -11q-99 0 -180.5 38t-140.5 101.5t-91.5 146t-32.5 172.5t32.5 167.5t89.5 134.5t133 89.5t163 32.5q24 0 60.5 -4t78.5 -18t87 -40.5t86 -71.5l4 1v352h-900v147h1274v-147zM869 805
q-63 76 -137 122.5t-168 46.5q-74 0 -125.5 -28t-84.5 -70.5t-48 -94.5t-15 -100q0 -52 17 -103t50.5 -91.5t83.5 -66t117 -25.5q69 0 126 26.5t98 67.5t63.5 92t22.5 99v125z" />
    <glyph glyph-name="uni0936" unicode="&#x936;" horiz-adv-x="1602" 
d="M649 800q-18 -2 -34 -3.5t-33 -1.5q-81 0 -146.5 29t-112 78t-71.5 113.5t-25 135.5q0 51 14 99t44 90l-1 4h-319v147h1672v-147h-210v-1344h-164v1344h-377l-1 -4q26 -26 48 -62.5t37.5 -79.5t24.5 -90t9 -95q0 -78 -24.5 -151t-69 -138t-107 -120.5t-138.5 -98.5v-4
q50 -39 107 -93.5t113 -113.5t106 -117.5t86 -106.5l-113 -95q-31 39 -78 95.5t-105 118t-125.5 123t-140.5 111.5q-36 -17 -75.5 -25t-78.5 -8q-45 0 -86.5 11t-74 32t-51.5 51.5t-19 70.5q0 63 46.5 97.5t121.5 34.5q55 0 111.5 -19.5t110.5 -58.5q28 6 63 21.5t71.5 40
t71 58t61.5 76.5t43.5 94.5t16.5 111.5t-17.5 118t-51.5 103.5t-85 73.5t-118 28q-53 0 -88 -16.5t-57 -42.5t-31 -57.5t-9 -61.5q0 -39 14 -76.5t41.5 -67t68.5 -47.5t94 -18q17 0 41 3v-150z" />
    <glyph glyph-name="uni0937" unicode="&#x937;" horiz-adv-x="1242" 
d="M1277 1344h-210v-1344h-164v482l-4 1q-70 -60 -154.5 -87.5t-169.5 -27.5q-86 0 -157 25t-122 76.5t-79.5 130t-28.5 186.5v558h-223v147h1312v-147zM801 606l-447 628l-4 -1v-438q0 -63 10.5 -113t36 -85t67.5 -53.5t105 -18.5q69 0 126.5 20t106.5 56zM903 1344h-451
v-3l446 -646l5 7v642z" />
    <glyph glyph-name="uni0938" unicode="&#x938;" horiz-adv-x="1475" 
d="M1510 1491v-147h-210v-1344h-166v672h-579q-53 -35 -127 -42l-2 -5q97 -152 213 -283t264 -243l-107 -123q-85 63 -161.5 136t-144 151.5t-126.5 159t-108 158.5t-88 150.5t-68 134.5l137 74q19 -44 37.5 -73.5t37.5 -47t40 -25t45 -7.5q69 0 101.5 54t32.5 142
q0 52 -10 102.5t-25.5 97t-33.5 87.5t-34 74h-463v147h1545zM1134 1344h-533q42 -91 66 -183t24 -183q0 -42 -6.5 -82.5t-21.5 -76.5l2 -2h469v527z" />
    <glyph glyph-name="uni0939" unicode="&#x939;" horiz-adv-x="1233" 
d="M733 282q33 10 65.5 25t58 36.5t41.5 50.5t16 68q0 83 -69 129.5t-196 46.5q-51 0 -104.5 -10.5t-97.5 -38t-72 -75t-28 -120.5q0 -74 29 -137.5t75.5 -116.5t104.5 -96t115.5 -76t108.5 -55.5t85 -35.5l-66 -138q-70 30 -142.5 65.5t-140.5 78t-128 93.5t-104.5 113
t-70 136t-25.5 161q0 85 22.5 148.5t62.5 111.5q-55 63 -81 127t-26 139q0 43 10.5 81t38 66.5t76.5 45.5t127 17h453v222h-906v147h1303v-147h-233v-368h-575q-39 0 -65.5 -6.5t-42.5 -19.5t-22.5 -32.5t-6.5 -45.5q0 -35 12 -68t45 -74q58 30 127.5 44.5t145.5 14.5
q88 0 164.5 -20t133 -60.5t89 -103t32.5 -146.5q0 -81 -27.5 -137t-69 -94t-90.5 -61.5t-91 -38.5z" />
    <glyph glyph-name="uni093A" unicode="&#x93a;" 
d="M-118 1844v-381h-164v381h164z" />
    <glyph glyph-name="uni093B" unicode="&#x93b;" horiz-adv-x="532" 
d="M567 1344h-210v-1344h-164v1344h-228v147h602v-147zM357 1844v-381h-164v381h164z" />
    <glyph glyph-name="uni093C" unicode="&#x93c;" 
d="M-323 -264q0 57 33.5 92.5t87.5 35.5q25 0 47.5 -10t39.5 -27.5t26.5 -41t9.5 -51.5q0 -57 -33.5 -92t-87.5 -35q-26 0 -48.5 9.5t-39 27t-26 41t-9.5 51.5z" />
    <glyph glyph-name="uni093D" unicode="&#x93d;" horiz-adv-x="1208" 
d="M985 1344h-458q-44 0 -77.5 -4.5t-57 -19t-35.5 -40.5t-12 -69q0 -54 19.5 -94.5t55 -74.5t86 -65t113.5 -66q70 -39 143.5 -84.5t133.5 -104.5t98.5 -136t38.5 -180q0 -77 -24 -153.5t-74 -138t-128.5 -100t-187.5 -38.5q-92 0 -169 27t-139 67t-109 86.5t-79 85.5
l117 103q81 -106 174 -161.5t193 -55.5q61 0 110.5 21t84 57.5t53 86t18.5 105.5q0 72 -29 127t-76 99.5t-106.5 80.5t-120.5 71q-69 39 -133.5 79.5t-114 92t-79 118.5t-29.5 160q0 63 16.5 112.5t54 83t99.5 51.5t153 18h477v-147z" />
    <glyph glyph-name="uni093E" unicode="&#x93e;" horiz-adv-x="532" 
d="M567 1344h-210v-1344h-164v1344h-228v147h602v-147z" />
    <glyph glyph-name="uni093F" unicode="&#x93f;" horiz-adv-x="532" 
d="M567 1344h-210v-1344h-164v1344h-228v147h228q-55 132 -55 246q0 73 24 136t73.5 109t126.5 72t183 26q139 0 267.5 -45t251.5 -125t243.5 -190t243.5 -240h-174q-28 27 -74.5 70.5t-107.5 93t-135 100t-156 91.5t-170.5 66.5t-178.5 25.5q-73 0 -122.5 -17t-80 -47
t-43.5 -70.5t-13 -86.5q0 -90 49 -215h222v-147z" />
    <glyph glyph-name="uni0940" unicode="&#x940;" horiz-adv-x="532" 
d="M567 1344h-210v-1344h-164v1344h-228v147h244q-18 102 -46 174.5t-61 121t-69 76.5t-69.5 42t-63 18t-48.5 4q-62 0 -99.5 -19.5t-57.5 -46.5t-26.5 -56.5t-6.5 -50.5q0 -8 2.5 -32.5t16 -61.5t41.5 -83t79 -97h-170q-63 72 -94.5 149.5t-31.5 150.5q0 61 22 116t66 95.5
t110 64.5t153 24q120 0 207 -46.5t146.5 -126.5t94 -187.5t48.5 -228.5h215v-147z" />
    <glyph glyph-name="uni0941" unicode="&#x941;" 
d="M-478 -30q64 40 141.5 62t147.5 22q61 0 113.5 -17.5t91.5 -51t61 -81.5t22 -108q0 -64 -25.5 -120t-76.5 -98t-126 -66.5t-174 -24.5q-113 0 -202.5 30.5t-160.5 77t-125 102.5t-95 106l93 109q57 -62 109 -112t108 -85.5t120.5 -54.5t145.5 -19q69 0 117.5 13.5
t79.5 35t45 49t14 55.5q0 51 -38.5 81t-104.5 30q-43 0 -99.5 -15t-114.5 -50z" />
    <glyph glyph-name="uni0942" unicode="&#x942;" 
d="M292 -512q-51 84 -105 159.5t-115 131.5t-131.5 89t-154.5 33q-51 0 -90.5 -12t-66.5 -32t-41 -46.5t-14 -54.5q0 -54 43.5 -86t118.5 -32q70 0 145 28l35 -144q-43 -17 -87.5 -25.5t-87.5 -8.5q-64 0 -121.5 18t-101 52.5t-69 86t-25.5 117.5q0 73 30.5 127.5t80.5 90
t114 53t130 17.5q85 0 159.5 -26t138.5 -68.5t117 -96t95.5 -108.5t75 -107t54.5 -91z" />
    <glyph glyph-name="uni0943" unicode="&#x943;" 
d="M-118 -99h-109q-95 0 -141.5 -39.5t-46.5 -96.5q0 -61 49.5 -94t143.5 -33q45 0 89 8t93 24l35 -144q-51 -18 -101 -28t-107 -10q-77 0 -141.5 20t-111 57t-73 90.5t-26.5 121.5q0 71 28 122.5t74 85t105.5 49.5t123.5 16h116v-149z" />
    <glyph glyph-name="uni0944" unicode="&#x944;" 
d="M-118 245h-121q-96 0 -142 -34t-46 -85q0 -28 12 -48.5t34 -34.5t51.5 -21t64.5 -7t74 6.5t71 17.5l33 -137q-44 -7 -88.5 -16.5t-80.5 -25.5t-58.5 -41t-22.5 -63q0 -29 12.5 -48.5t33 -32.5t48 -18.5t57.5 -5.5q39 0 79.5 8.5t70.5 22.5l44 -136q-99 -41 -193 -41
q-62 0 -116.5 17t-96 50t-65.5 81.5t-24 110.5q0 46 14 83.5t40 69.5l-1 4q-72 38 -107.5 89.5t-35.5 124.5q0 67 28 116t74 80t105.5 46t123.5 15h128v-147z" />
    <glyph glyph-name="uni0945" unicode="&#x945;" 
d="M-501 2110q13 -51 35.5 -108t58.5 -104t88 -78t124 -31q47 0 92 14.5t84 51t69 98.5t47 157l148 -41q-23 -97 -62.5 -177t-95.5 -137t-129 -88.5t-163 -31.5q-165 0 -279.5 106.5t-163.5 327.5z" />
    <glyph glyph-name="uni0946" unicode="&#x946;" 
d="M-262 1464q-5 67 -19.5 114.5t-36.5 79t-50 49.5t-60.5 27.5t-68.5 12.5t-73 4q-43 1 -86 3.5t-83.5 13t-78 31.5t-69 59.5t-56 97t-39.5 143.5l122 29q17 -85 49.5 -130.5t76.5 -66.5t97 -24.5t110 -4.5q48 -1 93.5 -4.5t86.5 -17.5t76.5 -41.5t63 -75.5t46.5 -121
t27 -178h-128z" />
    <glyph glyph-name="uni0947" unicode="&#x947;" 
d="M-132 1463h-145l-91 171q-58 109 -105.5 173t-90 97.5t-83.5 43t-86 9.5h-194v162h183q58 0 105 -9.5t89.5 -34t83 -68t86.5 -112t100.5 -164t124.5 -225.5z" />
    <glyph glyph-name="uni0948" unicode="&#x948;" 
d="M-125 1463h-133l-36 32q-78 69 -137.5 116.5t-105.5 78.5t-82 48t-67 25t-60 9.5t-61 1.5h-192v142h178q44 0 81 -5.5t71.5 -19t69.5 -35t76.5 -54.5t92 -78t115.5 -104l6 4q-58 95 -103 164.5t-82 118t-68 79.5t-60 48t-59 23t-65 6h-194v147h183q58 0 103.5 -11t87 -40
t82.5 -79t89.5 -128.5t108 -188t138.5 -257.5z" />
    <glyph glyph-name="uni0949" unicode="&#x949;" horiz-adv-x="532" 
d="M567 1344h-210v-1344h-164v1344h-228v147h602v-147zM-26 2110q13 -51 35.5 -108t58.5 -104t88 -78t124 -31q47 0 92 14.5t84 51t69 98.5t47 157l148 -41q-23 -97 -62.5 -177t-95.5 -137t-129 -88.5t-163 -31.5q-165 0 -279.5 106.5t-163.5 327.5z" />
    <glyph glyph-name="uni094A" unicode="&#x94a;" horiz-adv-x="532" 
d="M567 1344h-210v-1344h-164v1344h-228v147h602v-147zM213 1464q-5 67 -19.5 114.5t-36.5 79t-50 49.5t-60.5 27.5t-68.5 12.5t-73 4q-43 1 -86 3.5t-83.5 13t-78 31.5t-69 59.5t-56 97t-39.5 143.5l122 29q17 -85 49.5 -130.5t76.5 -66.5t97 -24.5t110 -4.5
q48 -1 93.5 -4.5t86.5 -17.5t76.5 -41.5t63 -75.5t46.5 -121t27 -178h-128z" />
    <glyph glyph-name="uni094B" unicode="&#x94b;" horiz-adv-x="532" 
d="M567 1344h-210v-1344h-164v1344h-228v147h602v-147zM343 1463h-145l-91 171q-58 109 -105.5 173t-90 97.5t-83.5 43t-86 9.5h-194v162h183q58 0 105 -9.5t89.5 -34t83 -68t86.5 -112t100.5 -164t124.5 -225.5z" />
    <glyph glyph-name="uni094C" unicode="&#x94c;" horiz-adv-x="532" 
d="M567 1344h-210v-1344h-164v1344h-228v147h602v-147zM350 1463h-133l-36 32q-78 69 -137.5 116.5t-105.5 78.5t-82 48t-67 25t-60 9.5t-61 1.5h-192v142h178q44 0 81 -5.5t71.5 -19t69.5 -35t76.5 -54.5t92 -78t115.5 -104l6 4q-58 95 -103 164.5t-82 118t-68 79.5t-60 48
t-59 23t-65 6h-194v147h183q58 0 103.5 -11t87 -40t82.5 -79t89.5 -128.5t108 -188t138.5 -257.5z" />
    <glyph glyph-name="uni094D" unicode="&#x94d;" 
d="M80 -513l-398 371l98 110l401 -368z" />
    <glyph glyph-name="uni094E" unicode="&#x94e;" horiz-adv-x="542" 
d="M577 1344h-210v-1344h-164v1491h374v-147z" />
    <glyph glyph-name="uni094F" unicode="&#x94f;" horiz-adv-x="532" 
d="M264 1553q3 23 4 39.5t1 27.5q0 60 -21 100t-55.5 68t-78.5 47.5t-90.5 39t-90.5 42.5t-78.5 58t-55.5 86t-21 126q0 26 3 53.5t8 59.5l109 -16q-2 -14 -3 -26.5t-1 -23.5q0 -62 20.5 -102.5t54.5 -68.5t77.5 -47t88.5 -37.5t88.5 -40.5t77.5 -55t54.5 -81.5t20.5 -120.5
q0 -79 -30 -190h221v-147h-210v-1344h-164v1344h-228v147h222q-25 42 -50 71t-51 46t-53 24.5t-56 7.5q-40 0 -76.5 -10.5t-73.5 -23.5t-77 -23.5t-88 -10.5q-35 0 -71 8t-72 28.5t-73 56t-73 91.5l88 64q47 -63 91 -88t95 -25q41 0 78.5 11t76 24.5t78.5 25t86 11.5
q36 0 73.5 -9.5t75 -35t74 -69.5t71.5 -113z" />
    <glyph glyph-name="uni0950" unicode="&#x950;" horiz-adv-x="2183" 
d="M1573 333q34 -6 66 -6q63 0 112 22t82.5 62t51.5 95.5t18 123.5q0 57 -12 96.5t-31.5 65t-45.5 37t-54 11.5t-53.5 -11.5t-49.5 -30.5t-47.5 -43.5t-46.5 -50.5q-26 -29 -53 -56t-56.5 -48t-63 -33.5t-71.5 -12.5q-22 0 -44 2t-48 10l-2 -2q14 -42 21 -84.5t7 -82.5
q0 -80 -24 -156t-74.5 -135t-129.5 -94.5t-188 -35.5q-119 0 -216.5 42t-175 111t-136.5 158t-100.5 183.5t-67.5 186.5t-38 167l131 60q14 -84 41.5 -173t67 -173t90.5 -159t112.5 -131t133.5 -88.5t152 -32.5q48 0 94.5 13.5t83 46t59.5 86.5t23 134q0 320 -367 320
q-17 0 -38 -1t-43 -3v152q8 0 22.5 -1t39.5 -1q94 0 160 20t107.5 55.5t60.5 82.5t19 101q0 103 -58.5 156t-155.5 53q-49 0 -102 -15.5t-127 -48.5l-57 137q152 77 292 77q83 0 151 -27t116 -76t74.5 -116t26.5 -147q0 -106 -46 -189t-140 -132v-6q33 -20 58.5 -40.5
t38.5 -32.5q26 -24 59 -35.5t65 -11.5q35 0 63.5 8t56 25t57 45t66.5 68q33 36 64 67t64 53.5t69 35.5t80 13q64 0 118.5 -28.5t94.5 -79.5t62.5 -120t22.5 -150q0 -96 -30 -177t-84 -140.5t-129 -93t-166 -33.5q-49 0 -84 7zM1398 1895q0 54 32 89t83 35q26 0 48 -9.5
t38.5 -26.5t25.5 -40t9 -51q0 -26 -8.5 -48.5t-24.5 -39t-37.5 -25.5t-46.5 -9q-26 0 -47.5 9.5t-37.5 26t-25 39.5t-9 50zM1200 1939q18 -51 41.5 -108t59.5 -104t88 -78t127 -31q48 0 93 14.5t84.5 51t71.5 98.5t53 157l148 -41q-27 -97 -68 -177t-97.5 -137t-130 -88.5
t-164.5 -31.5q-169 0 -282 106.5t-171 327.5z" />
    <glyph glyph-name="uni0951" unicode="&#x951;" 
d="M-276 1654v482h150v-482h-150z" />
    <glyph glyph-name="uni0952" unicode="&#x952;" 
d="M-840 -171h742v-150h-742v150z" />
    <glyph glyph-name="uni0953" unicode="&#x953;" 
d="M-185 1657l-398 371l98 110l401 -368z" />
    <glyph glyph-name="uni0954" unicode="&#x954;" 
d="M-318 1770l401 368l98 -110l-398 -371z" />
    <glyph glyph-name="uni0955" unicode="&#x955;" 
d="M-575 1748h742v-147h-742v147zM-501 2330q13 -51 35.5 -108t58.5 -104t88 -78t124 -31q47 0 92 14.5t84 51t69 98.5t47 157l148 -41q-23 -97 -62.5 -177t-95.5 -137t-129 -88.5t-163 -31.5q-165 0 -279.5 106.5t-163.5 327.5z" />
    <glyph glyph-name="uni0956" unicode="&#x956;" 
d="M-98 -248q-62 -21 -116 -36t-106.5 -24t-107.5 -13.5t-121 -4.5t-123 4.5t-111.5 13.5t-109.5 24t-117 36v142q62 -21 115.5 -36t106 -24t108 -13.5t121.5 -4.5t122.5 4.5t111 13.5t109.5 24t118 36v-142z" />
    <glyph glyph-name="uni0957" unicode="&#x957;" 
d="M-98 -248q-62 -21 -116 -36t-106.5 -24t-107.5 -13.5t-121 -4.5t-123 4.5t-111.5 13.5t-109.5 24t-117 36v142q62 -21 115.5 -36t106 -24t108 -13.5t121.5 -4.5t122.5 4.5t111 13.5t109.5 24t118 36v-142zM-98 -518q-62 -21 -116 -36t-106.5 -24t-107.5 -13.5t-121 -4.5
t-123 4.5t-111.5 13.5t-109.5 24t-117 36v142q62 -21 115.5 -36t106 -24t108 -13.5t121.5 -4.5t122.5 4.5t111 13.5t109.5 24t118 36v-142z" />
    <glyph glyph-name="uni0958" unicode="&#x958;" horiz-adv-x="1768" 
d="M1803 1344h-845v-394l5 -2q51 70 127 112.5t167 42.5q72 0 133.5 -29.5t106.5 -81t70.5 -121.5t25.5 -151q0 -92 -32 -169.5t-82 -140.5t-113 -111.5t-124 -82.5l-89 154q20 11 49 29t60.5 42t62 54.5t55 66.5t39.5 78t15 89q0 43 -13.5 82t-37.5 68t-57.5 46t-73.5 17
q-52 0 -101 -27t-89 -67.5t-67.5 -86.5t-36.5 -85v-676h-164v383l-4 2q-15 -13 -38 -31.5t-55.5 -35.5t-75 -29t-95.5 -12q-88 0 -162.5 34t-129 92.5t-85.5 137.5t-31 169q0 86 28.5 159t78 125.5t116 82t143.5 29.5q54 0 100.5 -13.5t85 -33t69 -42t51.5 -40.5l4 1v366
h-829v147h1838v-147zM508 950q-57 0 -100.5 -23.5t-72.5 -60t-43.5 -82t-14.5 -89.5q0 -48 17 -95.5t48.5 -85.5t75.5 -61.5t97 -23.5q45 0 94.5 18.5t91 57.5t68.5 99.5t27 144.5v49q-24 30 -56.5 57.5t-70 48.5t-78.5 33.5t-83 12.5zM350 16q0 57 33.5 92.5t87.5 35.5
q25 0 47.5 -10t39.5 -27.5t26.5 -41t9.5 -51.5q0 -57 -33.5 -92t-87.5 -35q-26 0 -48.5 9.5t-39 27t-26 41t-9.5 51.5z" />
    <glyph glyph-name="uni0959" unicode="&#x959;" horiz-adv-x="1732" 
d="M1269 22q-46 -17 -113 -29t-152 -12q-159 0 -284 55t-231.5 161t-203 262t-198.5 357l133 76q38 -72 71.5 -102.5t74.5 -30.5q34 0 59.5 19t42 49.5t25 69.5t8.5 78q0 45 -10 94t-27 97t-39.5 93.5t-47.5 83.5v1h-412v147h1802v-147h-210v-1344h-164v486l-4 1
q-55 -54 -122 -80t-133 -26q-82 0 -151 34t-119 90t-78 128t-28 149q0 73 25.5 141t71 120.5t108 83.5t137.5 31q43 0 82 -10t75 -28t69 -42.5t63 -52.5l4 1v318h-841q51 -97 80 -189.5t29 -186.5q0 -64 -16 -127t-49.5 -114t-85.5 -85t-124 -40v-5q69 -135 144.5 -222.5
t153.5 -138.5t156.5 -71t153.5 -20q85 0 153 17.5t122 39.5v-180zM1394 839q-18 23 -44.5 52.5t-60 55.5t-74 43.5t-87.5 17.5q-48 0 -86.5 -19.5t-66.5 -51.5t-43 -74.5t-15 -88.5q0 -48 16 -91.5t44.5 -76.5t68.5 -52.5t88 -19.5q37 0 82.5 14t85 46t66 85t26.5 131v29z
M150 -4q0 57 33.5 92.5t87.5 35.5q25 0 47.5 -10t39.5 -27.5t26.5 -41t9.5 -51.5q0 -57 -33.5 -92t-87.5 -35q-26 0 -48.5 9.5t-39 27t-26 41t-9.5 51.5z" />
    <glyph glyph-name="uni095A" unicode="&#x95a;" horiz-adv-x="1277" 
d="M1312 1344h-210v-1344h-164v1344h-451v-776q0 -16 -2 -37t-9.5 -40.5t-21.5 -33t-39 -13.5q-27 0 -59.5 17.5t-66.5 46t-65.5 64.5t-56.5 74t-40 74t-15 64q0 25 12.5 40t35 23t55 10t71.5 2h35v485h-356v147h1347v-147zM468 156q0 57 33.5 92.5t87.5 35.5q25 0 47.5 -10
t39.5 -27.5t26.5 -41t9.5 -51.5q0 -57 -33.5 -92t-87.5 -35q-26 0 -48.5 9.5t-39 27t-26 41t-9.5 51.5z" />
    <glyph glyph-name="uni095B" unicode="&#x95b;" horiz-adv-x="1533" 
d="M1568 1344h-210v-1344h-164v868h-322l-1 -4q12 -14 36 -42.5t48 -70t42 -94t18 -113.5t-20.5 -120.5t-61 -107t-102.5 -76.5t-144 -29q-81 0 -148.5 28.5t-123 76.5t-99.5 111t-78.5 133.5t-60 143t-43.5 139t-29 122.5t-17 93l148 29q33 -180 80.5 -315.5t105.5 -226.5
t125 -136.5t140 -45.5q52 0 84 20.5t50 50t24.5 61t6.5 54.5q0 41 -16.5 87.5t-48 93t-78.5 89.5t-108 78v117h593v330h-1229v147h1603v-147zM505 -54q0 57 33.5 92.5t87.5 35.5q25 0 47.5 -10t39.5 -27.5t26.5 -41t9.5 -51.5q0 -57 -33.5 -92t-87.5 -35q-26 0 -48.5 9.5
t-39 27t-26 41t-9.5 51.5z" />
    <glyph glyph-name="uni095C" unicode="&#x95c;" horiz-adv-x="1465" 
d="M1500 1344h-298v-369h-501q-74 0 -102.5 -21t-28.5 -68q0 -24 6 -50t22 -48.5t43.5 -37t70.5 -14.5h283q88 0 148.5 -24t97 -66t52.5 -99t16 -122q0 -89 -29.5 -170t-87.5 -143t-144.5 -99t-201.5 -37q-125 0 -239.5 46.5t-210 129.5t-168 197t-113.5 250l139 55
q35 -103 93 -198t134.5 -168t168.5 -116.5t194 -43.5q72 0 128.5 21t96.5 60t61 93.5t21 122.5q0 48 -11 78.5t-34.5 47.5t-59.5 23.5t-86 6.5h-262q-74 0 -128 32t-89.5 81t-52.5 108.5t-17 114.5q0 59 19 98.5t52 63t78.5 33.5t98.5 10h379v222h-1073v147h1535v-147z
M732 -264q0 57 33.5 92.5t87.5 35.5q25 0 47.5 -10t39.5 -27.5t26.5 -41t9.5 -51.5q0 -57 -33.5 -92t-87.5 -35q-26 0 -48.5 9.5t-39 27t-26 41t-9.5 51.5z" />
    <glyph glyph-name="uni095D" unicode="&#x95d;" horiz-adv-x="1313" 
d="M1348 1344h-359v-440h-333q-86 0 -149.5 -27.5t-105.5 -75.5t-63 -114t-21 -142q0 -150 72.5 -254.5t215.5 -152.5l2 4q-26 48 -38 96.5t-12 96.5q0 62 20.5 117.5t58.5 97.5t92.5 66.5t123.5 24.5t124.5 -25.5t95 -68t61 -99t21.5 -118.5t-23 -125t-71.5 -114
t-123.5 -83t-179 -32q-65 0 -134 14t-136 44t-126.5 77t-104.5 112.5t-71.5 150.5t-26.5 191q0 120 34.5 211t96 152t146 91.5t184.5 30.5h206v294h-860v147h1383v-147zM753 118q65 0 111 20t75 51t42.5 69.5t13.5 74.5t-11.5 65t-31.5 48.5t-46.5 30t-55.5 10.5
q-66 0 -107.5 -48t-41.5 -136q0 -91 52 -185zM641 -264q0 57 33.5 92.5t87.5 35.5q25 0 47.5 -10t39.5 -27.5t26.5 -41t9.5 -51.5q0 -57 -33.5 -92t-87.5 -35q-26 0 -48.5 9.5t-39 27t-26 41t-9.5 51.5z" />
    <glyph glyph-name="uni095E" unicode="&#x95e;" horiz-adv-x="1832" 
d="M1867 1344h-863v-384l5 -2q26 35 59.5 63.5t73 49t83 31.5t88.5 11q74 0 137 -29.5t109 -81t72 -121.5t26 -152q0 -92 -31.5 -169t-81 -140t-110.5 -111.5t-121 -82.5l-89 154q19 11 47 29t58.5 42t60.5 54.5t54 66.5t39 77t15 88q0 45 -14 84t-38.5 68t-59 46t-75.5 17
q-53 0 -104 -27t-93 -67.5t-71.5 -86.5t-38.5 -85v-686h-164v475l-3 1q-62 -57 -134 -82.5t-150 -25.5q-81 0 -148 25t-115 76.5t-75 130t-27 186.5v558h-223v147h1902v-147zM840 1344h-490v-549q0 -63 9.5 -113t33 -85t61.5 -53.5t95 -18.5q48 0 89.5 13.5t77.5 37t67 56.5
t57 72v640zM409 16q0 57 33.5 92.5t87.5 35.5q25 0 47.5 -10t39.5 -27.5t26.5 -41t9.5 -51.5q0 -57 -33.5 -92t-87.5 -35q-26 0 -48.5 9.5t-39 27t-26 41t-9.5 51.5z" />
    <glyph glyph-name="uni095F" unicode="&#x95f;" horiz-adv-x="1284" 
d="M1309 1344h-210v-1344h-164v468l-4 1q-27 -22 -64.5 -43.5t-83.5 -38t-99 -27t-111 -10.5q-116 0 -198.5 42t-138 112.5t-87.5 161t-46 188.5q66 9 113 31t76 52.5t42.5 66.5t13.5 72q0 24 -4.5 54t-15.5 64.5t-29 72.5t-45 77h-289v147h1344v-147zM431 1344
q36 -61 56.5 -133.5t20.5 -142.5q0 -51 -13.5 -99t-41.5 -89.5t-69.5 -74t-96.5 -51.5q16 -67 44 -114.5t66 -78t85 -44.5t101 -14q52 0 102.5 12t96 34.5t84.5 54.5t69 72v668h-504zM434 104q0 57 33.5 92.5t87.5 35.5q25 0 47.5 -10t39.5 -27.5t26.5 -41t9.5 -51.5
q0 -57 -33.5 -92t-87.5 -35q-26 0 -48.5 9.5t-39 27t-26 41t-9.5 51.5z" />
    <glyph glyph-name="uni0960" unicode="&#x960;" horiz-adv-x="1865" 
d="M955 810q57 -18 108 -18q42 0 83.5 15t94.5 54q-18 51 -18 100q0 45 13.5 85t37 70.5t56 48t70.5 17.5q36 0 60.5 -15t40 -38.5t22.5 -53t7 -57.5q0 -21 -4 -48.5t-14.5 -57.5t-29 -60t-46.5 -55l168 -238q-94 -71 -152.5 -121.5t-91.5 -90t-45 -72t-12 -66.5
q0 -41 13.5 -73t37 -54t55.5 -34t69 -12q69 0 140 41t146 116l106 -119q-52 -53 -99 -89t-92.5 -58.5t-91 -32t-94.5 -9.5q-71 0 -134 23.5t-110.5 66.5t-75.5 103.5t-28 134.5q0 63 20.5 114t55.5 95.5t81.5 84.5t98.5 80l-93 133q-38 -20 -70.5 -33t-61 -20.5t-54 -10.5
t-50.5 -3q-27 0 -57 3t-60 10v-667h-163v579l-2 1l-534 -427l-101 126l629 468v4q-48 41 -95.5 79t-95 67.5t-96 47t-98.5 17.5q-18 0 -54.5 -2t-79.5 -5.5t-85.5 -8t-71.5 -8.5v169q27 3 67.5 6.5t81.5 6t77.5 4.5t54.5 2q48 0 96.5 -19.5t98 -51.5t100.5 -73t104 -85l4 2
v446h-827v147h1935v-147h-945v-534z" />
    <glyph glyph-name="uni0961" unicode="&#x961;" horiz-adv-x="1537" 
d="M739 104l-90 -128q-28 18 -75 52t-101.5 83t-109.5 111.5t-100 137.5t-73.5 161t-28.5 181q0 90 26 163.5t72 126t108.5 81.5t135.5 29q55 0 97 -15.5t73.5 -39.5t53.5 -53t36 -56l5 1q47 101 143 135v270h-945v147h1606v-147h-497v-258q71 -12 122.5 -48t85 -85
t49.5 -105t16 -108q0 -61 -19.5 -109t-48 -87t-62.5 -71t-62.5 -61.5t-48 -59t-19.5 -63.5q0 -27 13 -46t34.5 -30.5t50 -16.5t59.5 -5q38 0 76.5 6.5t74.5 16.5l32 -145q-37 -6 -80.5 -14.5t-81 -24.5t-62.5 -42t-25 -67q0 -29 13 -48.5t33.5 -31.5t46.5 -17t52 -5
q38 0 78.5 9t75.5 24l47 -143q-48 -20 -98.5 -31t-96.5 -11q-59 0 -113.5 18t-96.5 52t-67 82.5t-25 110.5q0 43 13.5 82.5t40.5 71.5l-1 4q-69 35 -106.5 88t-37.5 128q0 55 19 96t47 75t61 63.5t61 62t47 71t19 89.5q0 44 -15 79.5t-40 60.5t-58 38.5t-69 13.5
q-46 0 -78 -20.5t-51.5 -55t-28.5 -80t-9 -95.5q0 -15 1 -32t3 -33h-154q-5 52 -14.5 106.5t-29 99t-53 72.5t-85.5 28q-36 0 -69.5 -14.5t-59 -45t-41 -77t-15.5 -109.5q0 -103 39 -189.5t100 -159.5t134 -133.5t141 -110.5z" />
    <glyph glyph-name="uni0962" unicode="&#x962;" 
d="M-450 -512q-32 19 -75 54.5t-81.5 82.5t-65.5 104.5t-27 120.5q0 48 15 85.5t41 63.5t62.5 40t78.5 14q48 0 87 -21.5t62 -60.5h2q27 43 66 62t82 19q47 0 83.5 -17t62 -43.5t38.5 -59.5t13 -64q0 -51 -19 -86t-42 -61t-42 -47t-19 -44t16 -38.5t36 -15.5q19 0 36.5 8
t33.5 21t30 28.5t26 30.5l79 -80q-17 -20 -36.5 -40t-43 -36t-53 -25.5t-67.5 -9.5t-68.5 14t-52.5 37t-34 53t-12 62q0 29 8 50.5t20 38.5t26.5 31.5t26.5 30.5t20 34.5t8 43.5q0 36 -23 53.5t-52 17.5q-24 0 -41 -10t-28 -27.5t-16 -39.5t-5 -46q0 -21 3 -39h-110
q-3 30 -8 58.5t-15 51t-27 36t-45 13.5q-34 0 -56.5 -21.5t-22.5 -73.5q0 -42 16 -78.5t43 -68t61.5 -58.5t71.5 -51z" />
    <glyph glyph-name="uni0963" unicode="&#x963;" 
d="M130 -461q-30 -12 -64 -19t-66 -7q-37 0 -69.5 9.5t-56.5 27.5t-38 43t-14 56q0 25 9.5 50t27.5 42v1q-45 23 -64 51.5t-19 65.5q0 38 15.5 62.5t34 44t34 38t15.5 45.5q0 24 -21.5 42.5t-56.5 18.5q-24 0 -41.5 -10t-28.5 -27t-16 -39.5t-5 -47.5q0 -20 3 -38h-110
q-3 30 -8 59t-15 51t-27.5 35.5t-45.5 13.5q-33 0 -55.5 -21.5t-22.5 -73.5q0 -42 16 -78.5t43 -68t61.5 -58.5t71.5 -51l-67 -97q-32 19 -75 54t-81.5 82.5t-65.5 105t-27 122.5q0 46 15 83.5t41 63.5t62 40t77 14q51 0 89 -21t62 -61h2q27 43 65.5 62t84.5 19
q45 0 81.5 -16.5t62 -42.5t39.5 -58t14 -63q0 -41 -18 -66.5t-40 -46t-40 -39t-18 -44.5q0 -16 13.5 -29t55.5 -13q31 0 60 6.5t49 11.5l20 -95q-27 -3 -55.5 -7.5t-51.5 -13t-38 -20.5t-15 -30q0 -23 24 -32.5t54 -9.5q27 0 51.5 5.5t52.5 15.5z" />
    <glyph glyph-name="uni0964" unicode="&#x964;" horiz-adv-x="885" 
d="M636 0h-164v1491h164v-1491z" />
    <glyph glyph-name="uni0965" unicode="&#x965;" horiz-adv-x="1298" 
d="M636 0h-164v1491h164v-1491zM1049 0h-164v1491h164v-1491z" />
    <glyph glyph-name="uni0966" unicode="&#x966;" horiz-adv-x="1062" 
d="M532 1047q-56 0 -102.5 -22t-80 -60.5t-52 -90t-18.5 -111.5t20 -112.5t54.5 -91.5t80.5 -61t98 -22t98 22t80 61t53.5 91.5t19.5 112.5t-18.5 111.5t-51.5 90t-79.5 60.5t-101.5 22zM532 1201q89 0 164.5 -34.5t130.5 -94.5t86 -140t31 -170q0 -91 -32.5 -171
t-88.5 -140t-131 -94.5t-160 -34.5t-160 34.5t-131.5 94.5t-89.5 140t-33 171q0 90 31.5 170t87 140t131 94.5t164.5 34.5z" />
    <glyph glyph-name="uni0967" unicode="&#x967;" horiz-adv-x="944" 
d="M367 834q-48 30 -89.5 66t-72.5 80.5t-49 97t-18 114.5q0 73 25 132.5t68 100.5t100 63.5t120 22.5q64 0 124 -23.5t105.5 -69t73 -112t27.5 -151.5q0 -89 -30 -171t-80 -160.5t-115.5 -154.5t-136.5 -152q113 -99 190 -173t124.5 -133t68.5 -108.5t21 -99.5
q0 -55 -22 -107t-64 -103l-135 82q28 39 42 68.5t14 64.5q0 20 -4 39.5t-18.5 44.5t-43.5 59t-79 84t-124.5 118.5t-180.5 162.5q122 122 201.5 214t125.5 165.5t64 134t18 120.5q0 58 -13.5 97.5t-36 64t-50.5 35t-58 10.5q-34 0 -63 -12.5t-50 -35t-33 -53.5t-12 -68
q0 -39 13 -74t34 -64.5t48 -54t56 -42.5z" />
    <glyph glyph-name="uni0968" unicode="&#x968;" horiz-adv-x="1121" 
d="M825 -218q-120 172 -217 346.5t-175 359.5q-59 2 -106 25.5t-79.5 59t-49.5 78.5t-17 83q0 31 10.5 56t28.5 42t42.5 26t52.5 9t54.5 -10.5t52 -34.5t50 -64.5t47.5 -100.5q47 15 96 42t88.5 68.5t64.5 100t25 136.5q0 77 -25.5 142.5t-71.5 113t-110.5 74t-141.5 26.5
q-60 0 -134 -17.5t-152 -55.5l-49 148q56 24 106.5 39t94 23t79 11t61.5 3q116 0 210 -41.5t160 -110.5t102 -159.5t36 -188.5q0 -87 -27 -163.5t-76.5 -139.5t-119.5 -111.5t-155 -78.5l-1 -3q42 -87 82 -166t83.5 -156t94.5 -155t114 -163z" />
    <glyph glyph-name="uni0969" unicode="&#x969;" horiz-adv-x="1074" 
d="M758 -215q-50 77 -86 129t-67 92t-60 73.5t-65 72.5q-77 3 -131 21.5t-88.5 45.5t-50.5 60t-16 66q0 25 9 48.5t26.5 41t42 28t55.5 10.5q39 0 75 -16.5t68 -41t58.5 -54.5t45.5 -57q23 6 56 20.5t63 43t51.5 74.5t21.5 115t-22 117t-60.5 78.5t-90.5 44.5t-112 14h-254
v151h195q75 0 125.5 17.5t81 45t43 62t12.5 69.5q0 40 -14 73.5t-45.5 58.5t-81.5 39t-123 14h-302v150h297q114 0 195.5 -27t134.5 -73t78 -107t25 -128q0 -76 -32.5 -140.5t-99.5 -113.5v-6q52 -23 92 -60.5t67 -83.5t41 -98.5t14 -104.5q0 -65 -19.5 -124.5t-55.5 -108.5
t-87 -85t-114 -54v-4q19 -20 48 -54.5t62 -76t66.5 -86.5t60.5 -85z" />
    <glyph glyph-name="uni096A" unicode="&#x96a;" horiz-adv-x="1204" 
d="M1089 1491q4 -21 5.5 -42t1.5 -41q0 -98 -34 -183.5t-88.5 -161.5t-122.5 -144t-136 -131q47 -43 89 -88.5t73.5 -96t50 -105.5t18.5 -118q0 -77 -27.5 -136t-73 -99.5t-104.5 -61.5t-122 -21q-81 0 -146 24.5t-111 67.5t-70.5 102t-24.5 128q0 60 18 113.5t49 102.5
t73 95t89 90q-69 59 -138.5 122.5t-125 134.5t-90 152t-34.5 175q0 45 3.5 75t6.5 47h166q-7 -31 -10.5 -58.5t-3.5 -53.5q0 -78 28.5 -145.5t75.5 -127.5t107 -115t123 -109q62 56 121.5 114.5t106 124.5t75 140.5t28.5 161.5q0 17 -1 33.5t-3 34.5h158zM417 377
q0 -51 19.5 -83t48 -50.5t61 -25t58.5 -6.5q39 0 74 12.5t61.5 36t41.5 55.5t15 71q0 41 -14.5 79.5t-39.5 76t-59.5 73.5t-74.5 72q-41 -39 -76 -77.5t-60.5 -77t-40 -77.5t-14.5 -79z" />
    <glyph glyph-name="uni096B" unicode="&#x96b;" horiz-adv-x="1250" 
d="M397 1491q-21 -81 -36.5 -149.5t-25.5 -129.5t-15 -116t-5 -108q0 -112 21 -190.5t58 -128t86 -72.5t105 -23q39 0 70.5 10.5t55.5 25t40 30t25 26.5q-35 51 -50.5 104t-15.5 99q0 36 9 67t26 54t42 36t57 13q37 0 68 -17t53 -46.5t34 -68.5t12 -83q0 -95 -58 -186
q32 -100 69 -201t81.5 -198.5t96.5 -189.5t114 -174l-128 -93q-36 49 -72.5 112t-70.5 132t-64.5 140.5t-56 137t-44 122t-28.5 95.5v1q-40 -34 -80.5 -54t-75.5 -30t-62 -13t-40 -3q-107 0 -189 46.5t-138 124.5t-85 179t-29 211q0 39 3.5 92.5t12.5 118.5t24 140t38 157
h168z" />
    <glyph glyph-name="uni096C" unicode="&#x96c;" horiz-adv-x="1255" 
d="M865 811h-237q-67 0 -112.5 -18.5t-73.5 -49.5t-40.5 -72t-12.5 -86q0 -60 19.5 -112.5t56 -91.5t88.5 -61.5t117 -22.5q29 0 62 4.5t62 14.5q-22 45 -32 85t-10 75q0 63 30 99.5t87 36.5q43 0 79 -20t62 -53t41 -75t15 -85q0 -40 -15.5 -75.5t-53.5 -64.5
q43 -85 103 -178t130 -184l-125 -92q-33 36 -65.5 82t-62.5 97.5t-57 105t-49 104.5q-48 -14 -96 -21t-90 -7q-101 0 -185.5 35t-145.5 95.5t-95 142t-34 175.5q0 81 30 148.5t105 127.5v6q-50 19 -89.5 50t-68 72t-43.5 90.5t-15 104.5q0 73 25.5 123.5t66 84t91.5 51.5
t102.5 27t98 10.5t77.5 1.5h224v-150h-202q-65 0 -123 -5.5t-101.5 -23.5t-69 -51.5t-25.5 -90.5q0 -56 24 -95t62.5 -64.5t88 -37t100.5 -11.5h282v-151z" />
    <glyph glyph-name="uni096D" unicode="&#x96d;" horiz-adv-x="1344" 
d="M980 543q-22 -5 -51 -5q-105 0 -179 34.5t-120.5 89t-68 121t-21.5 130.5q0 67 21.5 124.5t60.5 99.5t94.5 66t123.5 24q91 0 162.5 -42.5t121 -116t76 -173.5t26.5 -215q0 -144 -37.5 -257.5t-103.5 -192.5t-156.5 -121t-196.5 -42q-94 0 -170.5 32.5t-137.5 91
t-107.5 141t-79.5 183.5q-33 100 -55.5 216.5t-37 241.5t-20.5 256t-6 262h159q0 -183 10.5 -348.5t33 -306.5t58 -255.5t86.5 -194.5t117.5 -123.5t151.5 -43.5q76 0 138 35.5t105.5 98t67 148t23.5 185.5q0 92 -20 164t-52.5 122t-74 76t-84.5 26q-22 0 -46.5 -8
t-45 -26.5t-34 -50.5t-13.5 -80q0 -65 25 -109t63 -70.5t82.5 -37.5t83.5 -11q7 0 13.5 0.5t12.5 1.5z" />
    <glyph glyph-name="uni096E" unicode="&#x96e;" horiz-adv-x="1187" 
d="M919 1412q-157 -215 -265.5 -370t-179 -263.5t-109.5 -178t-57 -113.5q-25 -60 -25 -119q0 -63 23.5 -108t61 -74t85 -43t94.5 -14q67 0 123 24t104 66t90.5 100t84.5 127l137 -87q-51 -79 -108 -148t-122.5 -120.5t-141.5 -81t-165 -29.5q-87 0 -163.5 28t-133.5 79.5
t-90.5 124t-33.5 162.5q0 54 12 104t33 98q25 56 70 135t117.5 190t176 259.5t245.5 344.5z" />
    <glyph glyph-name="uni096F" unicode="&#x96f;" horiz-adv-x="1159" 
d="M497 893q42 18 78.5 41.5t62.5 54.5t41 69t15 85q0 42 -12.5 81t-38 68.5t-63 47t-86.5 17.5q-50 0 -89.5 -18t-67.5 -49.5t-43 -73.5t-15 -90q0 -57 22 -112.5t70 -121t122.5 -147.5t179.5 -193q96 -102 168.5 -181t121 -143t72.5 -117t24 -104q0 -45 -20 -101t-66 -113
l-135 82q18 26 36 60t18 70q0 32 -16.5 67t-53 81.5t-94.5 109.5t-141 151q-117 124 -205 222t-146.5 182t-88 161.5t-29.5 160.5t27.5 151.5t76.5 117t117 75.5t148 27q86 0 155 -30t117 -81t74 -119t26 -143q0 -57 -16.5 -112.5t-52 -105t-92 -91.5t-136.5 -72z" />
    <glyph glyph-name="uni0970" unicode="&#x970;" horiz-adv-x="912" 
d="M457 1375q-39 0 -70.5 -15t-54 -40.5t-35 -61t-12.5 -75.5q0 -42 13.5 -77.5t37 -61.5t54.5 -41t67 -15q35 0 66 15t54 41t36.5 61.5t13.5 77.5q0 40 -12.5 75.5t-35 61t-54 40.5t-68.5 15zM457 1511q66 0 122.5 -26t97.5 -70.5t64 -104.5t23 -127q0 -68 -24 -127.5
t-66 -104t-98 -70.5t-119 -26t-119.5 26t-98.5 70.5t-66.5 104t-24.5 127.5q0 67 23.5 127t65 104.5t98 70.5t122.5 26z" />
    <glyph glyph-name="uni0971" unicode="&#x971;" horiz-adv-x="504" 
d="M130 1417q0 57 33.5 92.5t87.5 35.5q25 0 47.5 -10t39.5 -27.5t26.5 -41t9.5 -51.5q0 -57 -33.5 -92t-87.5 -35q-26 0 -48.5 9.5t-39 27t-26 41t-9.5 51.5z" />
    <glyph glyph-name="uni0972" unicode="&#x972;" horiz-adv-x="1680" 
d="M233 884q15 -47 35 -102.5t47.5 -112t62 -109.5t79 -94t98.5 -65.5t120 -24.5q65 0 110 19t73 51t40.5 75t12.5 90q0 103 -74.5 161t-215.5 58q-17 0 -34 -1t-34 -3v152q8 -1 14.5 -1h7.5q70 0 124.5 17.5t91.5 47.5t56 70t19 84q0 40 -14 71t-38 52t-57 31.5t-72 10.5
q-27 0 -52 -3.5t-53 -11t-59.5 -19.5t-71.5 -30l-57 137q78 38 150 57.5t147 19.5q72 0 133.5 -23t106 -63.5t69.5 -96.5t25 -121q0 -179 -171 -288v-4q67 -28 112 -69q29 -5 61.5 -8t59.5 -3q28 0 59 4t63.5 15t66 31t67.5 52v554h374v-147h-210v-1344h-164v760l-4 1
q-57 -38 -107 -50t-103 -12q-17 0 -35 1.5t-37 3.5l-1 -4q16 -41 16 -101q0 -81 -27 -150t-77.5 -119.5t-122 -78.5t-160.5 -28q-95 0 -171.5 33.5t-138 86.5t-107.5 119.5t-79 133.5t-54 127.5t-31 100.5zM1128 2110q13 -51 35.5 -108t58.5 -104t88 -78t124 -31
q47 0 92 14.5t84 51t69 98.5t47 157l148 -41q-23 -97 -62.5 -177t-95.5 -137t-129 -88.5t-163 -31.5q-165 0 -279.5 106.5t-163.5 327.5z" />
    <glyph glyph-name="uni0973" unicode="&#x973;" horiz-adv-x="1680" 
d="M233 884q15 -47 35 -102.5t47.5 -112t62 -109.5t79 -94t98.5 -65.5t120 -24.5q65 0 110 19t73 51t40.5 75t12.5 90q0 103 -74.5 161t-215.5 58q-17 0 -34 -1t-34 -3v152q8 -1 14.5 -1h7.5q70 0 124.5 17.5t91.5 47.5t56 70t19 84q0 40 -14 71t-38 52t-57 31.5t-72 10.5
q-27 0 -52 -3.5t-53 -11t-59.5 -19.5t-71.5 -30l-57 137q78 38 150 57.5t147 19.5q72 0 133.5 -23t106 -63.5t69.5 -96.5t25 -121q0 -179 -171 -288v-4q67 -28 112 -69q29 -5 61.5 -8t59.5 -3q28 0 59 4t63.5 15t66 31t67.5 52v554h374v-147h-210v-1344h-164v760l-4 1
q-57 -38 -107 -50t-103 -12q-17 0 -35 1.5t-37 3.5l-1 -4q16 -41 16 -101q0 -81 -27 -150t-77.5 -119.5t-122 -78.5t-160.5 -28q-95 0 -171.5 33.5t-138 86.5t-107.5 119.5t-79 133.5t-54 127.5t-31 100.5zM1505 1844v-381h-164v381h164z" />
    <glyph glyph-name="uni0974" unicode="&#x974;" horiz-adv-x="2212" 
d="M2037 1844v-381h-164v381h164zM233 884q15 -47 35 -102.5t47.5 -112t62 -109.5t79 -94t98.5 -65.5t120 -24.5q65 0 110 19t73 51t40.5 75t12.5 90q0 103 -74.5 161t-215.5 58q-17 0 -34 -1t-34 -3v152q8 -1 14.5 -1h7.5q70 0 124.5 17.5t91.5 47.5t56 70t19 84
q0 40 -14 71t-38 52t-57 31.5t-72 10.5q-27 0 -52 -3.5t-53 -11t-59.5 -19.5t-71.5 -30l-57 137q78 38 150 57.5t147 19.5q72 0 133.5 -23t106 -63.5t69.5 -96.5t25 -121q0 -179 -171 -288v-4q67 -28 112 -69q29 -5 61.5 -8t59.5 -3q28 0 59 4t63.5 15t66 31t67.5 52v554
h374v-147h-210v-1344h-164v760l-4 1q-57 -38 -107 -50t-103 -12q-17 0 -35 1.5t-37 3.5l-1 -4q16 -41 16 -101q0 -81 -27 -150t-77.5 -119.5t-122 -78.5t-160.5 -28q-95 0 -171.5 33.5t-138 86.5t-107.5 119.5t-79 133.5t-54 127.5t-31 100.5zM2247 1344h-210v-1344h-164
v1344h-228v147h602v-147z" />
    <glyph glyph-name="uni0975" unicode="&#x975;" horiz-adv-x="2212" 
d="M1944 1553q3 23 4 39.5t1 27.5q0 60 -21 100t-55.5 68t-78.5 47.5t-90.5 39t-90.5 42.5t-78.5 58t-55.5 86t-21 126q0 26 3 53.5t8 59.5l109 -16q-2 -14 -3 -26.5t-1 -23.5q0 -62 20.5 -102.5t54.5 -68.5t77.5 -47t88.5 -37.5t88.5 -40.5t77.5 -55t54.5 -81.5
t20.5 -120.5q0 -79 -30 -190h221v-147h-210v-1344h-164v1344h-228v147h222q-25 42 -50 71t-51 46t-53 24.5t-56 7.5q-40 0 -76.5 -10.5t-73.5 -23.5t-77 -23.5t-88 -10.5q-35 0 -71 8t-72 28.5t-73 56t-73 91.5l88 64q47 -63 91 -88t95 -25q41 0 78.5 11t76 24.5t78.5 25
t86 11.5q36 0 73.5 -9.5t75 -35t74 -69.5t71.5 -113zM233 884q15 -47 35 -102.5t47.5 -112t62 -109.5t79 -94t98.5 -65.5t120 -24.5q65 0 110 19t73 51t40.5 75t12.5 90q0 103 -74.5 161t-215.5 58q-17 0 -34 -1t-34 -3v152q8 -1 14.5 -1h7.5q70 0 124.5 17.5t91.5 47.5
t56 70t19 84q0 40 -14 71t-38 52t-57 31.5t-72 10.5q-27 0 -52 -3.5t-53 -11t-59.5 -19.5t-71.5 -30l-57 137q78 38 150 57.5t147 19.5q72 0 133.5 -23t106 -63.5t69.5 -96.5t25 -121q0 -179 -171 -288v-4q67 -28 112 -69q29 -5 61.5 -8t59.5 -3q28 0 59 4t63.5 15t66 31
t67.5 52v554h374v-147h-210v-1344h-164v760l-4 1q-57 -38 -107 -50t-103 -12q-17 0 -35 1.5t-37 3.5l-1 -4q16 -41 16 -101q0 -81 -27 -150t-77.5 -119.5t-122 -78.5t-160.5 -28q-95 0 -171.5 33.5t-138 86.5t-107.5 119.5t-79 133.5t-54 127.5t-31 100.5z" />
    <glyph glyph-name="uni0976" unicode="&#x976;" horiz-adv-x="1680" 
d="M233 884q15 -47 35 -102.5t47.5 -112t62 -109.5t79 -94t98.5 -65.5t120 -24.5q65 0 110 19t73 51t40.5 75t12.5 90q0 103 -74.5 161t-215.5 58q-17 0 -34 -1t-34 -3v152q8 -1 14.5 -1h7.5q70 0 124.5 17.5t91.5 47.5t56 70t19 84q0 40 -14 71t-38 52t-57 31.5t-72 10.5
q-27 0 -52 -3.5t-53 -11t-59.5 -19.5t-71.5 -30l-57 137q78 38 150 57.5t147 19.5q72 0 133.5 -23t106 -63.5t69.5 -96.5t25 -121q0 -179 -171 -288v-4q67 -28 112 -69q29 -5 61.5 -8t59.5 -3q28 0 59 4t63.5 15t66 31t67.5 52v554h374v-147h-210v-1344h-164v760l-4 1
q-57 -38 -107 -50t-103 -12q-17 0 -35 1.5t-37 3.5l-1 -4q16 -41 16 -101q0 -81 -27 -150t-77.5 -119.5t-122 -78.5t-160.5 -28q-95 0 -171.5 33.5t-138 86.5t-107.5 119.5t-79 133.5t-54 127.5t-31 100.5zM1525 -248q-62 -21 -116 -36t-106.5 -24t-107.5 -13.5t-121 -4.5
t-123 4.5t-111.5 13.5t-109.5 24t-117 36v142q62 -21 115.5 -36t106 -24t108 -13.5t121.5 -4.5t122.5 4.5t111 13.5t109.5 24t118 36v-142z" />
    <glyph glyph-name="uni0977" unicode="&#x977;" horiz-adv-x="1680" 
d="M233 884q15 -47 35 -102.5t47.5 -112t62 -109.5t79 -94t98.5 -65.5t120 -24.5q65 0 110 19t73 51t40.5 75t12.5 90q0 103 -74.5 161t-215.5 58q-17 0 -34 -1t-34 -3v152q8 -1 14.5 -1h7.5q70 0 124.5 17.5t91.5 47.5t56 70t19 84q0 40 -14 71t-38 52t-57 31.5t-72 10.5
q-27 0 -52 -3.5t-53 -11t-59.5 -19.5t-71.5 -30l-57 137q78 38 150 57.5t147 19.5q72 0 133.5 -23t106 -63.5t69.5 -96.5t25 -121q0 -179 -171 -288v-4q67 -28 112 -69q29 -5 61.5 -8t59.5 -3q28 0 59 4t63.5 15t66 31t67.5 52v554h374v-147h-210v-1344h-164v760l-4 1
q-57 -38 -107 -50t-103 -12q-17 0 -35 1.5t-37 3.5l-1 -4q16 -41 16 -101q0 -81 -27 -150t-77.5 -119.5t-122 -78.5t-160.5 -28q-95 0 -171.5 33.5t-138 86.5t-107.5 119.5t-79 133.5t-54 127.5t-31 100.5zM1525 -248q-62 -21 -116 -36t-106.5 -24t-107.5 -13.5t-121 -4.5
t-123 4.5t-111.5 13.5t-109.5 24t-117 36v142q62 -21 115.5 -36t106 -24t108 -13.5t121.5 -4.5t122.5 4.5t111 13.5t109.5 24t118 36v-142zM1525 -518q-62 -21 -116 -36t-106.5 -24t-107.5 -13.5t-121 -4.5t-123 4.5t-111.5 13.5t-109.5 24t-117 36v142q62 -21 115.5 -36
t106 -24t108 -13.5t121.5 -4.5t122.5 4.5t111 13.5t109.5 24t118 36v-142z" />
    <glyph glyph-name="uni0978" unicode="&#x978;" horiz-adv-x="1262" 
d="M485 845v-165q0 -59 -13.5 -93.5t-56.5 -34.5q-28 0 -61 14.5t-65.5 39t-63 56t-54 65.5t-37.5 67.5t-14 62.5q0 20 7.5 34t20.5 22q19 12 64.5 27.5t108.5 29.5v374h-356v147h1332v-147h-812v-346q45 6 89.5 9.5t87.5 3.5q124 0 207.5 -29.5t134 -80.5t72 -119.5
t21.5 -146.5q0 -72 -16 -147t-46 -149.5t-73.5 -147.5t-97.5 -141l-144 96q41 47 80.5 106.5t70.5 125t50 134t19 133.5q0 59 -18 100t-52 67t-84 38t-114 12q-42 0 -88 -4.5t-99 -12.5z" />
    <glyph glyph-name="uni0979" unicode="&#x979;" horiz-adv-x="1533" 
d="M1568 1344h-210v-1344h-164v868h-322l-1 -4q12 -14 36 -43t48 -70t42 -93.5t18 -113.5t-21.5 -119t-63.5 -103.5t-105 -73t-145 -27.5q-81 0 -148 28t-122 75t-98.5 109.5t-77.5 132t-58.5 141t-42 137.5t-28.5 121.5t-17 92.5l148 29q33 -180 79 -314t103 -223t123 -133
t139 -44q52 0 85 19t52.5 46.5t27 57.5t7.5 53q0 41 -16.5 87.5t-48 93t-78.5 89.5t-108 78v117h593v330h-1229v147h1603v-147zM559 -181q0 49 30 80.5t78 31.5q47 0 79.5 -31.5t32.5 -83.5q0 -49 -31 -79.5t-79 -30.5q-23 0 -43 8.5t-35 23.5t-23.5 35.5t-8.5 45.5zM329 49
q0 49 30 80.5t78 31.5q47 0 79.5 -31.5t32.5 -83.5q0 -49 -31 -79.5t-79 -30.5q-23 0 -43 8.5t-35 23.5t-23.5 35.5t-8.5 45.5zM789 49q0 49 30 80.5t78 31.5q47 0 79.5 -31.5t32.5 -83.5q0 -49 -31 -79.5t-79 -30.5q-23 0 -43 8.5t-35 23.5t-23.5 35.5t-8.5 45.5z" />
    <glyph glyph-name="uni097A" unicode="&#x97a;" horiz-adv-x="1274" 
d="M1309 1344h-210v-1344h-164v468l-4 1q-27 -22 -64.5 -43.5t-83.5 -38t-99 -27t-111 -10.5q-116 0 -198.5 42t-138 112.5t-87.5 161t-46 188.5q66 9 113 31t76 52.5t42.5 66.5t13.5 72q0 24 -4.5 54t-15.5 64.5t-29 72.5t-45 77h-289v147h1344v-147zM431 1344
q40 -71 57 -135l447 -484v619h-504zM287 754q16 -67 44 -114.5t66 -78t85 -44.5t101 -14q76 0 148.5 24.5t137.5 77.5l-368 388l-3 -1q-16 -83 -70 -145t-141 -93z" />
    <glyph glyph-name="uni097B" unicode="&#x97b;" horiz-adv-x="1277" 
d="M1102 -24h-929v147h765v1221h-451v-776q0 -16 -2 -37t-9.5 -40.5t-21.5 -33t-39 -13.5q-27 0 -59.5 17.5t-66.5 46t-65.5 64.5t-56.5 74t-40 74t-15 64q0 25 12.5 40t35 23t55 10t71.5 2h35v485h-356v147h1347v-147h-210v-1368z" />
    <glyph glyph-name="uni097C" unicode="&#x97c;" horiz-adv-x="1533" 
d="M1358 -24h-1185v147h1021v745h-322l-1 -4q12 -14 36 -42.5t48 -70t42 -94t18 -113.5t-20.5 -120.5t-61 -107t-102.5 -76.5t-144 -29q-81 0 -148.5 28.5t-123 76.5t-99.5 111t-78.5 133.5t-60 143t-43.5 139t-29 122.5t-17 93l148 29q33 -180 80.5 -315.5t105.5 -226.5
t125 -136.5t140 -45.5q52 0 84 20.5t50 50t24.5 61t6.5 54.5q0 41 -16.5 87.5t-48 93t-78.5 89.5t-108 78v117h593v330h-1229v147h1603v-147h-210v-1368z" />
    <glyph glyph-name="uni097D" unicode="&#x97d;" horiz-adv-x="1111" 
d="M159 1429q78 33 162.5 57.5t172.5 24.5q93 0 173.5 -31t140.5 -86.5t94 -132.5t34 -169q0 -94 -35 -168t-93.5 -128.5t-134 -91t-155.5 -55.5v-649h-164v762q78 16 154 40t136 63t97 97.5t37 142.5q0 62 -23 109t-62 78.5t-90.5 47.5t-109.5 16q-44 0 -88.5 -8.5t-87 -23
t-83 -33.5t-75.5 -40v178z" />
    <glyph glyph-name="uni097E" unicode="&#x97e;" horiz-adv-x="1465" 
d="M1500 1344h-298v-369h-501q-74 0 -102.5 -17.5t-28.5 -57.5q0 -20 6 -42t22 -41t43.5 -31t70.5 -12h283q88 0 148.5 -20t97 -55.5t52.5 -83t16 -101.5q0 -74 -29.5 -142t-87.5 -119.5t-144.5 -82.5t-201.5 -31q-127 0 -243 43t-213 120t-170.5 183t-115.5 231l139 55
q36 -95 95.5 -181.5t137 -153t171 -106t197.5 -39.5q72 0 128.5 15t96.5 43t61 67.5t21 89.5q0 34 -11 56t-34.5 35t-59.5 17.5t-86 4.5h-262q-74 0 -128 29.5t-89.5 75.5t-52.5 101.5t-17 106.5q0 54 19 90.5t52 58.5t78.5 31.5t98.5 9.5h379v222h-1073v147h1535v-147z
M1309 -171h-1136v147h1136v-147z" />
    <glyph glyph-name="uni097F" unicode="&#x97f;" horiz-adv-x="1231" 
d="M1056 -24h-868v147h704v265l-4 1q-21 -19 -49 -39.5t-64.5 -37.5t-82 -28t-101.5 -11q-98 0 -182 35.5t-146 96.5t-97 142t-35 172t35 167.5t95 131.5t138.5 85.5t165.5 30.5q25 0 62 -4t80 -19t89.5 -43.5t91.5 -76.5l4 1v352h-929v147h1303v-147h-210v-1368zM291 696
q0 -46 17.5 -94t53 -87.5t87.5 -64.5t121 -25q66 0 119 22l-309 465q-25 -24 -42 -52.5t-27.5 -57.5t-15 -56.5t-4.5 -49.5zM896 805q-34 40 -69 73t-74 56t-83 36t-95 13q-35 0 -72 -8l300 -453q45 45 69 98.5t24 105.5v79z" />
    <glyph glyph-name="uni0980" unicode="&#x980;" horiz-adv-x="1304" 
d="M846 905q0 117 -20.5 197t-48 129.5t-56.5 71.5t-46 22q-75 0 -142.5 -39.5t-118.5 -107.5t-81 -159t-30 -193l7 -10q72 -19 137.5 -28t137.5 -9q71 0 136 8v-157q-59 -6 -124 -6q-83 0 -157.5 8.5t-148.5 25.5l-145 123q-11 25 -11 65q0 48 14.5 114t44.5 137t76 140
t109 123.5t143.5 88t178.5 33.5q14 0 42.5 -10.5t62.5 -36.5t70.5 -68.5t66 -107t48.5 -152t19 -202.5v-515v-75.5t1 -75.5l6 -1q26 17 55 17q21 0 41 -9t36 -24t25.5 -35.5t9.5 -44.5q0 -23 -9.5 -47.5t-29 -45.5t-48 -34.5t-66.5 -13.5q-52 0 -87.5 26t-57 68t-31 95
t-9.5 107v608z" />
    <glyph glyph-name="uni0981" unicode="&#x981;" 
d="M-536 1958q0 28 10.5 52t28.5 42t42 28.5t52 10.5t52 -10.5t42 -28.5t28.5 -42t10.5 -52t-10.5 -52t-28.5 -42t-42 -28.5t-52 -10.5t-52 10.5t-42 28.5t-28.5 42t-10.5 52zM0 1923q-19 -77 -60 -138.5t-96.5 -104.5t-122.5 -65.5t-138 -22.5q-65 0 -126.5 20t-114.5 61.5
t-94.5 103.5t-64.5 146l140 40q18 -59 46.5 -103t64.5 -73t77.5 -43.5t83.5 -14.5q43 0 85 15t79 44t67 73t49 102z" />
    <glyph glyph-name="uni0982" unicode="&#x982;" horiz-adv-x="954" 
d="M475 769q-58 0 -108.5 23t-87.5 61.5t-58 89t-21 106.5q0 58 22.5 107.5t60.5 86.5t88 58t106 21q57 0 107.5 -22t88 -59.5t59.5 -88t22 -106.5q0 -58 -22.5 -108.5t-61 -88t-89 -59t-106.5 -21.5zM476 1189q-30 0 -55.5 -11.5t-44.5 -31t-30 -45t-11 -54.5t11 -55.5
t30 -46.5t44.5 -31.5t55.5 -11.5t56 12t45.5 32.5t30.5 47t11 55.5t-11.5 54.5t-31 44.5t-45.5 30t-55 11zM681 -120q-28 93 -84.5 192t-131 189.5t-160 166t-172.5 120.5v12l116 86q99 -56 189 -133t164.5 -167.5t129 -189.5t81.5 -197l-120 -79h-12z" />
    <glyph glyph-name="uni0983" unicode="&#x983;" horiz-adv-x="954" 
d="M477 769q-59 0 -109.5 23t-88 61t-58.5 88.5t-21 106.5q0 58 22.5 108t60.5 87t87.5 58t104.5 21q58 0 109 -22t88.5 -59.5t59.5 -87.5t22 -105q0 -59 -22.5 -109.5t-60.5 -88.5t-88 -59.5t-106 -21.5zM477 1189q-30 0 -56 -11.5t-45 -31t-30 -45t-11 -53.5
q0 -30 11 -56.5t30 -46.5t44.5 -31.5t54.5 -11.5q30 0 56.5 12t46 32.5t30.5 46.5t11 55q0 30 -11.5 55.5t-31 44.5t-45.5 30t-54 11zM477 22q-59 0 -109.5 23t-88 61t-58.5 88.5t-21 106.5q0 58 22.5 108t60.5 87t87.5 58t104.5 21q58 0 109 -22t88.5 -59.5t59.5 -87.5
t22 -105q0 -59 -22.5 -109.5t-60.5 -88.5t-88 -59.5t-106 -21.5zM477 442q-30 0 -56 -11.5t-45 -31t-30 -45t-11 -53.5q0 -30 11 -56.5t30 -46.5t44.5 -31.5t54.5 -11.5q30 0 56.5 12t46 32.5t30.5 46.5t11 55q0 30 -11.5 55.5t-31 44.5t-45.5 30t-54 11z" />
    <glyph glyph-name="uni0985" unicode="&#x985;" horiz-adv-x="2020" 
d="M2053 1344h-243v-1384h-98q-26 63 -64 123t-85.5 116t-102.5 107t-114 95q-65 -84 -171 -136t-254 -52q-101 0 -188.5 30t-163 81.5t-139.5 120.5t-116.5 148t-94.5 163.5t-74 166.5t-54.5 157t-35.5 136l124 91h6q54 -203 126 -374t161.5 -295.5t197.5 -194.5t234 -70
q91 0 164 31.5t124.5 84t79 120.5t27.5 141q0 60 -19 119.5t-55 107.5t-87.5 80.5t-116.5 38.5l-9 -14q18 -22 30.5 -53.5t12.5 -67.5q0 -40 -16 -76t-43.5 -63.5t-64 -43.5t-77.5 -16q-42 0 -79 16.5t-65 46.5t-44.5 72t-16.5 93q0 63 25.5 112.5t70.5 84.5
q-16 19 -36.5 41t-43.5 44t-46.5 41t-44.5 31h-609v147h2088v-147zM808 1344q20 -14 44.5 -40t43.5 -51q42 9 88 9q114 0 202.5 -45t148.5 -118.5t91 -167.5t31 -192q0 -104 -35 -201q57 -43 111 -93t107 -107h6v1006h-838z" />
    <glyph glyph-name="uni0986" unicode="&#x986;" horiz-adv-x="2474" 
d="M2135 1192q0 31 -12.5 58.5t-34.5 48.5t-52.5 33t-66.5 12h-159v-1384h-98q-26 63 -64 123t-85.5 116t-102.5 107t-114 95q-65 -84 -171 -136t-254 -52q-101 0 -188.5 30t-163 81.5t-139.5 120.5t-116.5 148t-94.5 163.5t-74 166.5t-54.5 157t-35.5 136l124 91h6
q54 -203 126 -374t161.5 -295.5t197.5 -194.5t234 -70q91 0 164 31.5t124.5 84t79 120.5t27.5 141q0 60 -19 119.5t-55 107.5t-87.5 80.5t-116.5 38.5l-9 -14q18 -22 30.5 -53.5t12.5 -67.5q0 -40 -16 -76t-43.5 -63.5t-64 -43.5t-77.5 -16q-42 0 -79 16.5t-65 46.5
t-44.5 72t-16.5 93q0 63 25.5 112.5t70.5 84.5q-16 19 -36.5 41t-43.5 44t-46.5 41t-44.5 31h-609v147h2004q24 0 55.5 -4.5t65.5 -16t67.5 -30t61.5 -45.5v8q0 38 17.5 63t45.5 25h227v-147h-41q-36 0 -66.5 -12t-53.5 -33t-36 -48.5t-13 -58.5v-1192h-164v1192zM808 1344
q20 -14 44.5 -40t43.5 -51q42 9 88 9q114 0 202.5 -45t148.5 -118.5t91 -167.5t31 -192q0 -104 -35 -201q57 -43 111 -93t107 -107h6v1006h-838z" />
    <glyph glyph-name="uni0987" unicode="&#x987;" horiz-adv-x="1215" 
d="M1171 -28q-32 47 -86 102t-127 111t-162 109.5t-191.5 97.5t-215.5 75t-234 42l16 165q18 -1 40.5 -4t47 -6.5t49 -8.5t45.5 -9q20 -2 38.5 -4t44.5 -2q47 0 100.5 6.5t106.5 19.5t101.5 32.5t86 46.5t60 61t22.5 75q0 42 -22.5 74.5t-57 54t-75 32.5t-75.5 11h-7t-8 -1
q-15 -47 -44 -83t-64.5 -60.5t-74 -37t-72.5 -12.5q-33 0 -58.5 11t-42.5 30t-25.5 43.5t-8.5 51.5q0 38 16 71t43 59.5t62.5 46t74.5 30.5q-3 10 -9.5 29.5t-14 41t-15 41t-13.5 30.5h-457v147h991q-12 62 -35.5 101t-55 60.5t-69.5 29t-78 7.5q-46 0 -82.5 -6.5t-73 -15
t-78 -15t-97.5 -6.5q-116 0 -195.5 32.5t-129 87.5t-72 127.5t-25.5 153.5h164q9 -74 30.5 -121.5t53 -75.5t71 -38.5t83.5 -10.5q43 0 89 7t91.5 16t90 16t84.5 7q105 0 177 -29t118 -78t70 -113.5t33 -135.5h126v-147h-647q3 -6 8 -22t11 -35t11 -37t8 -27q87 -3 167 -29
t141.5 -70t98.5 -105.5t37 -134.5q0 -71 -34 -130t-89.5 -105.5t-126 -80t-142.5 -53.5v-6q88 -33 172.5 -77.5t160.5 -99.5t140.5 -119.5t112.5 -135.5z" />
    <glyph glyph-name="uni0988" unicode="&#x988;" horiz-adv-x="1725" 
d="M399 1344q20 -14 44.5 -40t43.5 -51q42 9 88 9q101 0 177.5 -31.5t130.5 -85t85.5 -123.5t41.5 -147q52 52 111.5 98.5t120.5 84t119 64t107 38.5l143 -111q-45 -59 -88.5 -128t-78 -144t-56 -154.5t-21.5 -158.5q0 -138 32.5 -265.5t97.5 -226.5l-108 -116
q-45 55 -79.5 124t-57.5 147.5t-35 163.5t-12 171q0 69 18 136.5t46 132t62 124t66 112.5q-57 -27 -113 -68t-109.5 -90t-102 -103t-90.5 -107q-23 -66 -60 -123t-89 -100t-117.5 -67.5t-143.5 -24.5q-82 0 -165 35.5t-160 113.5l110 110q51 -53 104 -76t104 -23
q67 0 121.5 34t93 88.5t59.5 122t21 134.5q0 53 -14 101.5t-44 86t-77 60.5t-113 25l-9 -14q18 -26 26.5 -54t8.5 -57q0 -38 -14 -73t-39.5 -62t-61 -43t-79.5 -16q-49 0 -85.5 18t-61 47.5t-37 67.5t-12.5 79q0 55 22 107.5t66 90.5q-16 19 -36.5 41t-43.5 44t-46.5 41
t-44.5 31h-200v147h1451q-10 59 -33.5 97.5t-54 61t-65 31t-67.5 8.5q-60 0 -138 -6.5t-158.5 -15t-156.5 -15t-133 -6.5q-120 0 -200.5 33.5t-129 89t-70.5 128t-25 150.5h164q3 -85 29 -133.5t63 -73t79.5 -30.5t79.5 -6q60 0 138 6.5t158.5 15t156.5 15t133 6.5
q106 0 177.5 -30.5t117 -80.5t68.5 -114t31 -131h180v-147h-1361z" />
    <glyph glyph-name="uni0989" unicode="&#x989;" horiz-adv-x="1605" 
d="M649 1646q-120 0 -200.5 33.5t-129 89t-70.5 128t-25 150.5h164q3 -85 29 -133.5t63 -73t79.5 -30.5t79.5 -6q60 0 112.5 6.5t102.5 15t100.5 15t107.5 6.5q106 0 177.5 -30.5t117 -80.5t68.5 -114t31 -131h184v-147h-763v-402q0 -45 0.5 -81t4 -61.5t10.5 -39t21 -13.5
q53 0 102.5 18.5t98 56.5t97 96.5t99.5 139.5h14q55 -48 96 -107.5t68 -124.5t40 -134.5t13 -138.5q0 -110 -33 -214t-102 -184.5t-175.5 -129.5t-252.5 -49t-258 49.5t-198 134.5t-149 199.5t-109 244.5t-80 268.5t-61 272.5l115 89h6q31 -134 66.5 -267.5t80 -255.5
t100 -227.5t127 -183t161.5 -121.5t202 -44q102 0 177 37t124.5 97.5t74 138.5t24.5 159q0 60 -13 117.5t-39 110.5q-32 -43 -72.5 -80.5t-87.5 -65.5t-99.5 -44t-107.5 -16q-69 0 -116.5 23.5t-77 61.5t-42.5 84.5t-13 93.5v492h-748v147h1327q-10 59 -33.5 97.5t-54 61
t-65 31t-67.5 8.5q-60 0 -112.5 -6.5t-102.5 -15t-100.5 -15t-107.5 -6.5z" />
    <glyph glyph-name="uni098A" unicode="&#x98a;" horiz-adv-x="1720" 
d="M755 182q-72 77 -127 172.5t-97.5 213t-76 261t-61.5 316.5l115 89h6q19 -117 47.5 -244t67 -249t88.5 -232t111.5 -192.5t136 -131.5t162.5 -49q68 0 134 30t118.5 86t85 136t32.5 179q0 60 -13 117.5t-39 110.5q-32 -43 -72.5 -80.5t-87.5 -65.5t-99.5 -44t-107.5 -16
q-69 0 -116.5 23.5t-77 61.5t-42.5 84.5t-13 93.5v492h-864v147h1442q-12 62 -35.5 101t-55 60.5t-69.5 29t-78 7.5q-46 0 -94.5 -6.5t-99.5 -15t-104.5 -15t-109.5 -6.5q-116 0 -195.5 32.5t-129 87.5t-72 127.5t-25.5 153.5h164q3 -85 29 -133.5t63 -73t80 -30.5t80 -6
q59 0 111.5 6.5t103 15t100.5 15t103 6.5q105 0 177 -29t118 -78t70 -113.5t33 -135.5h184v-147h-762v-402q0 -45 0.5 -81t4 -61.5t10.5 -39t21 -13.5q53 0 102.5 18.5t98 56.5t97 96.5t99.5 139.5h14q57 -50 98 -110t67.5 -125.5t39 -134.5t12.5 -138q0 -116 -35.5 -220.5
t-111.5 -183.5t-194.5 -125.5t-284.5 -46.5t-289.5 47t-215 129.5t-155.5 195t-110 242.5t-78.5 272t-62.5 285l115 89h6q26 -112 53.5 -223.5t59.5 -217t70.5 -202t86.5 -176.5t107 -141t133 -97z" />
    <glyph glyph-name="uni098B" unicode="&#x98b;" horiz-adv-x="1739" 
d="M1068 -40q-34 85 -96.5 163.5t-141.5 147.5t-167.5 127.5t-174.5 103.5t-163 75t-131 44v215q53 35 122 75.5t148 80.5t163.5 77t169.5 66q-6 32 -22.5 66t-45.5 60q-22 -32 -56 -61.5t-77 -51.5t-93.5 -35t-105.5 -13q-49 0 -96 13t-84 38.5t-59.5 64t-22.5 88.5
q0 40 13 72t34.5 54.5t51 35t62.5 12.5q35 0 65 -13.5t51.5 -36t34 -51.5t12.5 -61q0 -29 -12 -59l3 -6q40 0 75 12.5t65 41t55 74.5t46 112h13q104 -72 161.5 -154.5t74.5 -159.5l62 12v302h164v-911q60 -43 117 -93.5t111 -108.5h6v1113h374v-147h-210v-1344h-98
q-43 107 -122.5 204.5t-177.5 179.5v-424h-98zM1002 338v686q-41 -5 -98 -23t-121 -44t-130 -56.5t-124.5 -59.5t-104.5 -55t-70 -42v-22q74 -26 159.5 -63.5t171.5 -85.5t166.5 -107t144.5 -128h6z" />
    <glyph glyph-name="uni098C" unicode="&#x98c;" horiz-adv-x="1454" 
d="M844 4q11 32 15.5 67t4.5 77q0 96 -22.5 170t-61 124.5t-89 76t-106.5 25.5q-48 0 -98 -19t-90.5 -58t-66.5 -98t-26 -140q0 -29 3.5 -46t10.5 -35l11 2q0 22 9 48t27.5 47.5t47 36t68.5 14.5q36 0 65.5 -12.5t50.5 -34t32.5 -51t11.5 -62.5q0 -42 -18 -75t-48.5 -55.5
t-71.5 -34t-86 -11.5t-91 13t-82.5 45.5t-59.5 87.5t-23 139q0 104 36 189t96 145t138 93t162 33q81 0 158 -32.5t136 -98.5t95 -166.5t36 -236.5v-24t-1 -27q63 61 105 114.5t66.5 100t35 87t10.5 76.5q0 67 -31 116t-84 86t-123.5 67t-150 59t-163.5 61.5t-163.5 75
t-150 99t-123.5 134t-84 180t-31 236.5h164q0 -117 31.5 -203t84.5 -149t123.5 -107.5t150 -78.5t163.5 -62t163.5 -58t150 -66t123.5 -86.5t84 -119.5t31 -165q0 -94 -30 -175.5t-85 -155t-131 -141.5t-167 -134l-29 -21z" />
    <glyph glyph-name="uni098F" unicode="&#x98f;" horiz-adv-x="1531" 
d="M127 557l124 -96v-6q-14 -27 -20.5 -51t-6.5 -45q0 -43 23 -73.5t59 -50t79.5 -29t85.5 -9.5q63 0 126 17t129 37.5t136 37.5t146 17q39 0 71.5 -5.5t62.5 -17.5t59 -31t61 -46h5v1121q-104 -14 -206.5 -55t-184.5 -103t-133 -141t-51 -170q0 -38 10 -79.5t30 -84.5l11 2
q0 23 9 48.5t27.5 47.5t47 36t67.5 14q36 0 66 -13t51 -34.5t32.5 -49.5t11.5 -58q0 -25 -9.5 -56t-33.5 -58.5t-64.5 -46.5t-102.5 -19q-73 0 -131 27t-98.5 73.5t-62 107t-21.5 128.5q0 83 31.5 163.5t87 152.5t131 133t163 105t183 69t191.5 25q28 0 56 -2.5t56 -7.5
v-1585h-101q-14 40 -44 83t-73 78.5t-98 58.5t-118 23q-57 0 -121.5 -17t-134.5 -37.5t-144.5 -37.5t-150.5 -17q-91 0 -162.5 26.5t-121 72t-76 105.5t-26.5 126q0 48 14.5 98t46.5 99h6z" />
    <glyph glyph-name="uni0990" unicode="&#x990;" horiz-adv-x="1961" 
d="M127 557l124 -96v-6q-14 -27 -20.5 -51t-6.5 -45q0 -43 23 -73.5t59 -50t79.5 -29t85.5 -9.5q63 0 126 17t129 37.5t136 37.5t146 17q39 0 71.5 -5.5t62.5 -17.5t59 -31t61 -46h5v1121q-104 -14 -206.5 -55t-184.5 -103t-133 -141t-51 -170q0 -38 10 -79.5t30 -84.5l11 2
q0 23 9 48.5t27.5 47.5t47 36t67.5 14q36 0 66 -13t51 -34.5t32.5 -49.5t11.5 -58q0 -25 -9.5 -56t-33.5 -58.5t-64.5 -46.5t-102.5 -19q-73 0 -131 27t-98.5 73.5t-62 107t-21.5 128.5q0 83 31.5 163.5t87 152.5t131 133t163 105t183 69t191.5 25q28 0 56 -2.5t56 -7.5
v-405q63 17 113.5 51t86 81.5t54 106.5t18.5 126q0 48 -11 92.5t-38.5 79t-74 55.5t-117.5 21q-42 0 -89.5 -6.5t-99 -15t-106 -15t-109.5 -6.5q-119 0 -198.5 34t-128 90t-70 128t-24.5 149h164q3 -85 29 -133.5t63 -73t79.5 -30.5t79.5 -6q59 0 112 6.5t103.5 15t100 15
t101.5 6.5q99 0 173 -28.5t122.5 -82t72.5 -129.5t24 -171q0 -92 -26.5 -176.5t-80.5 -152.5t-134.5 -116t-188.5 -66v-1029h-101q-14 40 -44 83t-73 78.5t-98 58.5t-118 23q-57 0 -121.5 -17t-134.5 -37.5t-144.5 -37.5t-150.5 -17q-91 0 -162.5 26.5t-121 72t-76 105.5
t-26.5 126q0 48 14.5 98t46.5 99h6z" />
    <glyph glyph-name="uni0993" unicode="&#x993;" horiz-adv-x="1438" 
d="M1016 895q30 39 39.5 86.5t9.5 96.5q0 58 -17 112.5t-49 96.5t-78.5 67.5t-105.5 25.5q-34 0 -69 -6.5t-67 -20t-60 -34.5t-48 -49l6 -11q6 1 12 1h13q33 0 64.5 -13.5t55.5 -37.5t38.5 -56t14.5 -69q0 -34 -13 -66t-36.5 -56.5t-56.5 -39t-73 -14.5q-43 0 -82.5 17
t-70 48.5t-49 76t-18.5 98.5q0 76 36.5 145t98 121.5t143 84t171.5 31.5q98 0 172.5 -35.5t124.5 -95t75.5 -137t25.5 -160.5q0 -64 -15 -128t-46 -124q48 -33 85.5 -79t63 -99.5t39 -112t13.5 -116.5q0 -93 -33.5 -178t-95.5 -149t-150.5 -102t-198.5 -38q-93 0 -173.5 27
t-150 73t-128 108.5t-107 133t-87 146t-67.5 149t-49.5 140.5t-32.5 121l122 86h5q49 -183 118 -336t152.5 -262.5t179.5 -170.5t201 -61q79 0 142 26.5t107.5 71.5t68.5 104t24 124q0 37 -7.5 73.5t-21 70t-33 62t-43.5 48.5q-11 -42 -37.5 -75.5t-62 -57t-76 -36.5
t-79.5 -13q-27 0 -54.5 9t-49 27.5t-35.5 48t-14 70.5q0 62 31 102.5t78.5 64.5t103.5 34t106 11z" />
    <glyph glyph-name="uni0994" unicode="&#x994;" horiz-adv-x="1737" 
d="M1016 895q30 39 39.5 86.5t9.5 96.5q0 58 -17 112.5t-49 96.5t-78.5 67.5t-105.5 25.5q-34 0 -69 -6.5t-67 -20t-60 -34.5t-48 -49l6 -11q6 1 12 1h13q33 0 64.5 -13.5t55.5 -37.5t38.5 -56t14.5 -69q0 -34 -13 -66t-36.5 -56.5t-56.5 -39t-73 -14.5q-43 0 -82.5 17
t-70 48.5t-49 76t-18.5 98.5q0 76 36.5 145t98 121.5t143 84t171.5 31.5q98 0 172.5 -35.5t124.5 -95t75.5 -137t25.5 -160.5q0 -96 -33 -187q87 36 143.5 78t89 86.5t45 90.5t12.5 89q0 82 -35 139.5t-92 97.5t-131 66t-151.5 45t-153.5 34t-137 33q-68 20 -126 49.5
t-101 72t-69.5 98.5t-30.5 129h156q0 -58 29 -98t78 -68t115 -47t140 -35.5t152 -33.5t152 -40.5t140 -57.5t115 -83.5t78 -118.5t29 -164q0 -74 -20.5 -143.5t-68 -132.5t-124.5 -117.5t-190 -97.5q31 -35 55 -75.5t40.5 -84.5t25 -90.5t8.5 -92.5q0 -93 -33.5 -178
t-95.5 -149t-150.5 -102t-198.5 -38q-93 0 -173.5 27t-150 73t-128 108.5t-107 133t-87 146t-67.5 149t-49.5 140.5t-32.5 121l122 86h5q49 -183 118 -336t152.5 -262.5t179.5 -170.5t201 -61q79 0 142 26.5t107.5 71.5t68.5 104t24 124q0 37 -7.5 73.5t-21 70t-33 62
t-43.5 48.5q-11 -42 -37.5 -75.5t-62 -57t-76 -36.5t-79.5 -13q-27 0 -54.5 9t-49 27.5t-35.5 48t-14 70.5q0 62 31 102.5t78.5 64.5t103.5 34t106 11z" />
    <glyph glyph-name="uni0995" unicode="&#x995;" horiz-adv-x="1799" 
d="M907 1344h-942v147h1869v-147h-763v-155q126 -3 242 -36t205 -94.5t142.5 -150t53.5 -202.5q0 -83 -28 -146.5t-73.5 -106.5t-104.5 -65t-121 -22q-61 0 -100.5 18.5t-63 45.5t-32.5 58t-9 55q0 30 11.5 57.5t32 48.5t49.5 33.5t65 12.5q38 0 66 -14t46 -35.5t27 -46.5
t9 -47l11 -2q29 16 43 51.5t14 82.5q0 60 -26 118.5t-84 106t-150.5 79t-224.5 36.5v-1064h-98q-33 81 -87.5 157.5t-123 145t-146.5 127t-156.5 105t-153 79t-136.5 47.5v215q70 46 155 100.5t180.5 105t197 90.5t204.5 57v155zM907 338v686q-47 -6 -101.5 -25
t-110.5 -44.5t-111 -55.5t-103.5 -59t-87.5 -54.5t-63 -41.5v-22q149 -53 295.5 -148.5t275.5 -235.5h6z" />
    <glyph glyph-name="uni0996" unicode="&#x996;" horiz-adv-x="1413" 
d="M100 1290q0 37 13.5 69.5t36.5 56.5t54 37.5t66 13.5q36 0 68 -13.5t55 -36.5t36.5 -53.5t13.5 -64.5q0 -17 -3 -33t-10 -29l10 -10q41 9 87 26.5t88.5 49t77.5 78.5t56 113h13q38 -27 67.5 -60t49 -69t29.5 -74t10 -74q0 -59 -18 -117.5t-50.5 -111.5t-77.5 -99.5
t-100 -82t-117.5 -59t-129.5 -30.5v-15q76 -23 162 -57t171.5 -79t165.5 -102t144 -126h6v1153h374v-147h-210v-1384h-98q-33 81 -93 156t-136.5 141t-163.5 122.5t-173.5 100.5t-166.5 75t-142 46v229q48 10 103 27.5t109 42.5t103.5 56t87.5 67.5t60.5 77.5t22.5 85
q0 26 -9 53q-22 -32 -61.5 -61.5t-90 -52t-107 -36t-113.5 -13.5q-54 0 -102.5 11.5t-86 37t-59.5 66t-22 99.5z" />
    <glyph glyph-name="uni0997" unicode="&#x997;" horiz-adv-x="1471" 
d="M1132 1491h374v-147h-210v-1344h-164v818q-56 123 -108 225.5t-109 176t-124 114.5t-154 41q-69 0 -125 -24t-99.5 -61.5t-75.5 -82t-52 -85.5q45 21 96.5 31.5t105.5 10.5q70 0 138 -19t121 -58.5t85.5 -99.5t32.5 -142q0 -49 -20 -104t-53.5 -111t-77 -111t-89.5 -105
t-91.5 -92t-83.5 -72l-102 99q31 26 70 62.5t78 78t76.5 86.5t66.5 89.5t46.5 86.5t17.5 77q0 52 -17 87t-46 56.5t-67.5 30.5t-80.5 9q-39 0 -79 -6.5t-77.5 -17t-70.5 -23.5t-57 -27l-87 125q5 55 26 112.5t55.5 111t81 100.5t102.5 82t119.5 55.5t132.5 20.5
q97 0 174 -36t137 -92t105 -124t79 -133v331z" />
    <glyph glyph-name="uni0998" unicode="&#x998;" horiz-adv-x="1348" 
d="M273 760q29 19 68.5 44t87.5 54q-118 36 -181 120.5t-63 215.5q0 35 4.5 71.5t15.5 78.5h-240v147h1418v-147h-210v-1384h-98q-33 81 -87.5 152t-123 130.5t-146 109t-156 87t-153 64.5t-136.5 42v215zM433 646q76 -23 150.5 -48t146.5 -59.5t140.5 -83t132.5 -117.5h6
v1006h-639q-11 -42 -16 -77t-5 -69q0 -106 53 -162.5t140 -56.5q37 0 70.5 5.5t62 12.5t50.5 14.5t37 11.5l89 -123q-61 -26 -124 -58t-119.5 -64t-102 -60.5t-72.5 -46.5v-25z" />
    <glyph glyph-name="uni0999" unicode="&#x999;" horiz-adv-x="1596" 
d="M1089 1695q67 0 118.5 -20t86.5 -55.5t53 -84t18 -106.5q0 -91 -41 -156t-104.5 -106t-140 -60.5t-148.5 -19.5q-75 0 -142 18q4 -107 33 -181t66.5 -120t75.5 -66t60 -20q26 0 57 24t62 61t60 80t52 80.5t37.5 64.5t17.5 30h14q59 -33 100.5 -90.5t67.5 -125
t37.5 -137.5t11.5 -128q0 -74 -17 -147t-50.5 -139.5t-81.5 -124t-110 -100t-137 -66.5t-162 -24q-100 0 -187 31.5t-162 86t-139 127.5t-116.5 156t-94.5 171t-74 172.5t-54.5 161.5t-35.5 137l115 89h6q37 -136 81.5 -261.5t97.5 -234t114 -197.5t130.5 -152.5t147.5 -98
t165 -34.5q96 0 172.5 40t129.5 105.5t81.5 148t28.5 167.5q0 56 -13 109.5t-39 101.5q-20 -39 -60 -82t-87 -78t-95.5 -58t-84.5 -23q-22 0 -59.5 10.5t-80.5 36.5t-86.5 68.5t-79 107t-58 152t-22.5 202.5v36q-56 33 -105 75.5t-90.5 91.5t-73.5 102.5t-53 107.5l131 98h6
q10 -28 28 -64t43 -74.5t57 -77.5t71 -72q19 64 61.5 124t102 106.5t133 75t154.5 28.5zM901 1255q24 0 56 3.5t65.5 12t66 22t58.5 33t41.5 46t15.5 60.5q0 49 -33 72.5t-94 23.5q-41 0 -83 -12t-80 -41.5t-69.5 -79t-50.5 -124.5q25 -8 51.5 -12t55.5 -4z" />
    <glyph glyph-name="uni099A" unicode="&#x99a;" horiz-adv-x="1236" 
d="M1131 737q0 -70 -19.5 -154t-56 -168.5t-90.5 -163.5t-122.5 -140t-151 -98t-177.5 -37q-14 0 -42.5 10.5t-62.5 36.5t-70.5 68.5t-66 107t-48.5 152t-19 202.5v791h-240v147h1306v-147h-902v-171q60 -71 123.5 -120t138.5 -79t165.5 -43.5t205.5 -13.5q40 -11 65 -28
t39 -40t19.5 -51t5.5 -61zM963 755q-23 -2 -44 -3t-37 -1q-68 0 -136.5 13t-134.5 37t-127.5 59t-114.5 79v-386q0 -93 14.5 -170t40.5 -132.5t61.5 -86.5t78.5 -31q38 0 83.5 25t91 68t88 101.5t75 125.5t52 140t19.5 144z" />
    <glyph glyph-name="uni099B" unicode="&#x99b;" horiz-adv-x="1392" 
d="M337 1232q60 -48 124 -73.5t132 -25.5q32 0 69 7t75.5 15.5t76.5 15.5t72 7q81 0 158 -27.5t137 -78.5t96.5 -122.5t36.5 -159.5q0 -86 -36 -171t-96.5 -160.5t-141 -136t-170.5 -96.5q178 -67 333.5 -179t280.5 -276l-127 -88q-91 99 -202 188.5t-246 157.5
t-295.5 108.5t-350.5 40.5l6 155q67 0 133.5 -5t132.5 -15q67 0 138 18t138.5 49.5t128 75.5t105.5 96.5t71.5 111.5t26.5 120q0 60 -24 105.5t-64 76t-91 46t-105 15.5h-6q1 -9 1.5 -18.5t0.5 -19.5q0 -78 -18.5 -146t-50 -125t-72 -101.5t-84 -75.5t-88 -47.5t-82.5 -16.5
q-43 0 -93 21.5t-92.5 67t-71 116.5t-28.5 170v492h-210v147h1464v-147h-1092v-112zM707 1006q-26 -5 -56.5 -11t-67.5 -6q-49 0 -109.5 17t-136.5 67v-252q0 -47 11 -86t29 -67t41.5 -44t47.5 -16q32 0 74 28.5t79 81t62.5 126t25.5 162.5z" />
    <glyph glyph-name="uni099C" unicode="&#x99c;" horiz-adv-x="1961" 
d="M1788 1078l102 -111q-160 -284 -160 -556q0 -128 34 -253.5t102 -256.5l-108 -116q-97 134 -145 295.5t-48 330.5q0 140 32 274t96 252q-50 2 -107.5 11t-116.5 27.5t-116 49t-106 75t-86 105t-55 139.5h-105q-60 -39 -107 -90t-80 -107.5t-50.5 -116t-17.5 -115.5
q0 -41 9 -76.5t27.5 -61.5t46 -41.5t63.5 -15.5q40 0 78.5 16.5t74 42t66.5 56t55 59t39.5 50.5t20.5 31h14q51 -36 90.5 -87.5t66 -112t40 -127t13.5 -132.5q0 -109 -36.5 -207t-105.5 -172t-168.5 -117.5t-225.5 -43.5q-130 0 -232 47t-182.5 129.5t-141.5 194.5t-108 242
t-83 272t-66 284l115 89h6q35 -146 74 -284t85 -260t100.5 -224t120.5 -175.5t145 -114.5t173 -41q74 0 142.5 25.5t120.5 73t83 115t31 150.5q0 51 -12.5 107t-39.5 110q-80 -94 -168.5 -134.5t-171.5 -40.5q-69 0 -126.5 29.5t-99.5 81.5t-65.5 123.5t-23.5 154.5
q0 116 44.5 222.5t124.5 191.5h-794v147h2031v-147h-719q17 -65 56 -110t89 -74.5t105.5 -46t106.5 -24.5t92 -9.5t62 -1.5z" />
    <glyph glyph-name="uni099D" unicode="&#x99d;" horiz-adv-x="1645" 
d="M907 1344h-942v147h1106v-912q60 -43 117 -93.5t111 -108.5h6v1114h375v-147h-211v-1344h-98q-43 107 -122.5 203.5t-177.5 178.5v-422h-98q-33 81 -87.5 157.5t-123 145t-146.5 127t-156.5 105t-153 79t-136.5 47.5v215q70 46 155 100.5t180.5 105t197 90.5t204.5 57
v155zM907 338v686q-41 -5 -93 -23t-108 -44t-112.5 -56.5t-107 -59.5t-91.5 -55t-65 -42v-22q149 -53 295.5 -148.5t275.5 -235.5h6z" />
    <glyph glyph-name="uni099E" unicode="&#x99e;" horiz-adv-x="2245" 
d="M1277 1327q-104 -14 -206.5 -55t-184.5 -103t-133 -141t-51 -170q0 -38 10 -79.5t30 -84.5l11 2q0 23 9 48.5t27.5 47.5t47 36t67.5 14q36 0 66 -13t51 -34.5t32.5 -49.5t11.5 -58q0 -25 -9.5 -56t-33.5 -58.5t-64.5 -46.5t-102.5 -19q-73 0 -131 27t-98.5 73.5t-62 107
t-21.5 128.5q0 83 31.5 163.5t87 152.5t131 133t163 105t183 69t191.5 25q28 0 56 -2.5t56 -7.5v-378q37 35 81.5 69t94.5 60.5t105 43t112 16.5q74 0 132 -30t97.5 -79t60.5 -111.5t21 -127.5q0 -60 -18 -117t-56 -105q38 -48 55.5 -104.5t17.5 -116.5q0 -65 -21 -127.5
t-60.5 -111.5t-97.5 -79t-131 -30q-57 0 -112 16.5t-105 43t-94.5 60.5t-81.5 69v-446h-101q-14 40 -44 83t-73 78.5t-98 58.5t-118 23q-57 0 -121.5 -17t-134.5 -37.5t-144.5 -37.5t-150.5 -17q-91 0 -162.5 26.5t-121 72t-76 105.5t-26.5 126q0 48 14.5 98t46.5 99h6
l124 -96v-6q-14 -27 -20.5 -51t-6.5 -45q0 -43 23 -73.5t59 -50t79.5 -29t85.5 -9.5q63 0 126 17t129 37.5t136 37.5t146 17q39 0 71.5 -5.5t62.5 -17.5t59 -31t61 -46h5v1121zM1441 550q37 -45 82 -87t94 -75t98.5 -52.5t96.5 -19.5q37 0 70 16t58 42.5t39.5 60.5t14.5 69
q0 26 -9 51.5t-29 48.5q-28 -17 -60.5 -26.5t-65.5 -9.5q-42 0 -74.5 14t-54 36.5t-33 51t-11.5 57.5q0 28 10 54t31 46t52.5 32.5t73.5 12.5q34 0 68 -8.5t64 -24.5q20 23 29 48.5t9 51.5q0 36 -14.5 70t-39.5 60.5t-58 43t-70 16.5q-47 0 -96.5 -19.5t-98.5 -52.5t-94 -75
t-82 -87v-345z" />
    <glyph glyph-name="uni099F" unicode="&#x99f;" horiz-adv-x="1275" 
d="M-35 1344v147h1042q-12 62 -35.5 101t-55 60.5t-69.5 29t-78 7.5q-46 0 -94.5 -6.5t-99.5 -15t-104.5 -15t-109.5 -6.5q-116 0 -195.5 32.5t-129 87.5t-72 127.5t-25.5 153.5h164q3 -85 29 -133.5t63 -73t80 -30.5t80 -6q59 0 111.5 6.5t103 15t100.5 15t103 6.5
q105 0 177 -29t118 -78t70 -113.5t33 -135.5h139v-147h-941v-791q0 -78 13.5 -139t35 -108t47.5 -79.5t51 -53.5t46 -30.5t32 -9.5q45 0 93.5 17.5t95 50t89 78.5t74 102t50.5 121t19 136q0 50 -9.5 99.5t-30.5 97.5l-11 -2q0 -22 -9 -47.5t-27.5 -47.5t-47 -36.5
t-67.5 -14.5q-36 0 -66 12.5t-51 34t-32.5 50t-11.5 59.5q0 25 9 56t33 58.5t65.5 46t106.5 18.5q83 0 141 -32t94.5 -84t53 -117.5t16.5 -132.5q0 -80 -19.5 -161.5t-56 -157t-89.5 -141.5t-120 -115t-147 -77t-171 -28q-14 0 -46.5 10.5t-72.5 36.5t-83.5 68.5t-79 107
t-58.5 152t-23 202.5v791h-240z" />
    <glyph glyph-name="uni09A0" unicode="&#x9a0;" horiz-adv-x="1304" 
d="M681 1883q-60 -5 -92 -35t-32 -84q0 -38 15.5 -77.5t39.5 -75.5t52 -67t54 -53h621v-147h-496q72 -99 135.5 -198.5t111 -198t75 -196t27.5 -192.5q0 -85 -22 -161t-60.5 -141t-91 -117t-114 -88.5t-129.5 -56t-136 -19.5q-87 0 -168 32t-143 93.5t-99.5 151.5t-37.5 207
q0 46 6 96q56 7 113.5 30.5t110.5 61.5t99 90t80.5 115.5t54 137.5t19.5 156q0 45 -6 95.5t-23 101.5h-680v147h583q-24 33 -48.5 68t-43.5 72.5t-31 78t-12 84.5q0 42 13 82t44.5 71.5t83.5 51.5t130 23zM651 135q70 0 137.5 30t119.5 85.5t84 134t32 174.5
q0 47 -8.5 102.5t-30 120t-58.5 137t-93 153.5h-6q-1 -112 -30.5 -200.5t-75.5 -156.5t-102.5 -117t-111.5 -82t-102.5 -50.5t-75.5 -22.5q5 -75 34.5 -132.5t74.5 -96.5t100 -59t112 -20z" />
    <glyph glyph-name="uni09A1" unicode="&#x9a1;" horiz-adv-x="1635" 
d="M222 1234h6q31 -134 66.5 -267.5t80 -255.5t100 -227.5t127 -183t161.5 -121.5t202 -44q102 0 177 37t124.5 97.5t74 138.5t24.5 159q0 60 -13 117.5t-39 110.5q-32 -43 -72.5 -80.5t-87.5 -65.5t-99.5 -44t-107.5 -16q-69 0 -116.5 23.5t-77 61.5t-42.5 84.5t-13 93.5
v492h-733v147h1706v-147h-809v-402q0 -45 0.5 -81t4 -61.5t10.5 -39t21 -13.5q53 0 102.5 18.5t98 56.5t97 96.5t99.5 139.5h14q55 -48 96 -107.5t68 -124.5t40 -134.5t13 -138.5q0 -110 -33 -214t-102 -184.5t-175.5 -129.5t-252.5 -49t-258.5 49.5t-198 134.5
t-148.5 199.5t-109 244.5t-80 268.5t-61 272.5z" />
    <glyph glyph-name="uni09A2" unicode="&#x9a2;" horiz-adv-x="1275" 
d="M-35 1344v147h1345v-147h-941v-791q0 -78 13.5 -139t35 -108t47.5 -79.5t51 -53.5t46 -30.5t32 -9.5q45 0 93.5 17.5t95 50t89 78.5t74 102t50.5 121t19 136q0 50 -9.5 99.5t-30.5 97.5l-11 -2q0 -22 -9 -47.5t-27.5 -47.5t-47 -36.5t-67.5 -14.5q-36 0 -66 12.5t-51 34
t-32.5 50t-11.5 59.5q0 25 9 56t33 58.5t65.5 46t106.5 18.5q83 0 141 -32t94.5 -84t53 -117.5t16.5 -132.5q0 -80 -19.5 -161.5t-56 -157t-89.5 -141.5t-120 -115t-147 -77t-171 -28q-14 0 -46.5 10.5t-72.5 36.5t-83.5 68.5t-79 107t-58.5 152t-23 202.5v791h-240z" />
    <glyph glyph-name="uni09A3" unicode="&#x9a3;" horiz-adv-x="1297" 
d="M958 1491h374v-147h-210v-1344h-164v801q-43 124 -86 231t-94 185.5t-114.5 123t-145.5 44.5q-65 0 -113.5 -27t-81 -71t-49 -99.5t-16.5 -111.5q0 -54 14 -87t40 -47l11 2q0 23 9 48.5t27.5 47.5t47 36t67.5 14q36 0 66 -13t51 -34.5t32.5 -49.5t11.5 -58
q0 -25 -9.5 -56.5t-33.5 -59t-64.5 -46t-102.5 -18.5q-63 0 -121.5 22t-104 66t-72.5 110t-27 155q0 105 38 186.5t99.5 137t139 84.5t157.5 29q83 0 148 -31.5t115.5 -82.5t88.5 -115t66 -128h6v303z" />
    <glyph glyph-name="uni09A4" unicode="&#x9a4;" horiz-adv-x="1578" 
d="M1613 1491v-147h-1648v147h1648zM193 1234q37 -138 83 -263.5t100.5 -234.5t117 -197.5t133.5 -151.5t150.5 -97t166.5 -34t159 38.5t124.5 100t81.5 137.5t29 152q0 55 -17 112.5t-51.5 105.5t-87.5 81t-125 39l-9 -14q20 -25 34 -60t14 -74q0 -45 -19 -85.5t-51 -70.5
t-74 -48t-88 -18t-87.5 18.5t-72.5 52t-49.5 80.5t-18.5 103q0 72 30 125t81 88.5t118.5 52.5t142.5 17q124 0 215.5 -43t151.5 -112.5t89 -157.5t29 -179q0 -108 -36.5 -214.5t-106.5 -191t-172.5 -137t-235.5 -52.5q-98 0 -184 31.5t-161.5 86.5t-140.5 128t-119 156
t-97 171t-76.5 172.5t-56 161t-35.5 136.5l115 89h6z" />
    <glyph glyph-name="uni09A5" unicode="&#x9a5;" horiz-adv-x="1339" 
d="M1000 338v1153h374v-147h-210v-1384h-98q-33 81 -93 156t-136.5 141t-163.5 122.5t-173.5 100.5t-166.5 75t-142 46v229q50 6 107.5 21t114 38t109 54t92 69.5t63.5 84.5t24 100q0 50 -20.5 87t-54 61t-75.5 36t-85 12q-46 0 -89 -13.5t-74 -39.5l5 -10q22 0 48.5 -9
t50 -28.5t39 -50t15.5 -72.5q0 -39 -14 -71t-37 -54.5t-53 -35t-63 -12.5q-27 0 -60.5 10t-63.5 35.5t-50 69.5t-20 111q0 80 30 138.5t79.5 97t113 57t131.5 18.5q75 0 147.5 -22t130.5 -65t93.5 -106.5t35.5 -146.5q0 -94 -45 -174t-118 -141.5t-164 -102.5t-183 -59v-15
q76 -23 162 -57t171.5 -79t165.5 -102t144 -126h6z" />
    <glyph glyph-name="uni09A6" unicode="&#x9a6;" horiz-adv-x="1319" 
d="M350 387l-85 111v846h-300v147h1389v-147h-925v-609h6q63 66 143 134t165 127t169 103t156 62l116 -118q-32 -56 -57 -119t-41.5 -130t-25 -135t-8.5 -134q0 -85 9.5 -154.5t27.5 -130.5t43.5 -118t57.5 -116l-108 -116q-38 48 -73.5 114t-62.5 143t-43 161t-16 167
q0 122 19.5 249t63.5 237q-86 -36 -172 -104t-166.5 -150t-151 -166.5t-124.5 -153.5h-6z" />
    <glyph glyph-name="uni09A7" unicode="&#x9a7;" horiz-adv-x="1206" 
d="M867 1491h374v-147h-210v-1384h-98q-33 81 -87.5 157.5t-123 145t-146.5 127t-156.5 105t-153 79t-136.5 47.5v215q41 27 86.5 57t96.5 61q-33 23 -63 51t-52.5 62.5t-35.5 77.5t-13 96q0 72 25 131.5t67 101.5t97 65t115 23q52 0 90.5 -16t64 -41.5t38.5 -57t13 -62.5
q0 -32 -12.5 -59.5t-34 -47.5t-50.5 -32t-62 -12q-36 0 -61.5 13t-42.5 31.5t-26 39.5t-10 38l-11 7q-32 -25 -45.5 -58.5t-13.5 -65.5t12 -63t32.5 -58.5t48.5 -50.5t60 -38q100 55 207 98.5t217 61.5v302zM867 338v686q-41 -5 -93 -23t-108 -44t-112.5 -56.5t-107 -59.5
t-91.5 -55t-65 -42v-22q149 -53 295.5 -148.5t275.5 -235.5h6z" />
    <glyph glyph-name="uni09A8" unicode="&#x9a8;" horiz-adv-x="1411" 
d="M1066 551h6v793h-1107v147h1481v-147h-210v-1383h-98q-23 65 -53 146t-67 169t-80.5 176t-95 167t-111 143t-126.5 102l-9 -14q20 -26 34.5 -62t14.5 -77q0 -46 -19.5 -87.5t-52.5 -72.5t-76 -49.5t-90 -18.5q-49 0 -92 20t-75 54.5t-50.5 82t-18.5 102.5q0 73 31.5 128
t80.5 91.5t108.5 54.5t115.5 18q95 0 180.5 -40.5t157.5 -107.5t128 -154t93 -181z" />
    <glyph glyph-name="uni09AA" unicode="&#x9aa;" horiz-adv-x="1648" 
d="M1309 658q-14 37 -34.5 83t-45 93.5t-52.5 94.5t-56 86q-64 -4 -125 -29.5t-116.5 -63.5t-104 -83.5t-87 -88.5t-65.5 -80t-39 -57l-111 87q6 21 24 50q7 18 10.5 37.5t3.5 42.5q0 34 -8.5 69t-27 63.5t-48.5 46.5t-73 18q-13 0 -33.5 -2t-43 -7t-44 -13t-36.5 -21
l-87 125q5 55 29.5 108.5t65 101.5t93.5 88.5t113.5 69.5t127 45.5t133.5 16.5q87 0 161.5 -27t138 -70.5t115.5 -99t93.5 -113t72.5 -112.5t52 -97l4 1v470h374v-147h-210v-1344h-164v658zM676 1369q-69 0 -131.5 -18t-114.5 -48.5t-92.5 -70.5t-66.5 -84q34 11 72.5 18.5
t74.5 7.5q60 0 100.5 -21t67 -55.5t39.5 -79t17 -91.5q39 37 83.5 73t93.5 66t101.5 53t106.5 34q-40 52 -77 92t-78 67.5t-88.5 42t-107.5 14.5z" />
    <glyph glyph-name="uni09AB" unicode="&#x9ab;" horiz-adv-x="1866" 
d="M1140 1034v-1074h-98q-33 81 -87.5 154t-123 136.5t-146.5 116.5t-156.5 94.5t-153 70.5t-136.5 44v215q72 48 158.5 98t184.5 95q-45 55 -103 94t-117 65.5t-113.5 42.5t-93.5 27v131h-190v147h1936v-147h-1601q75 -21 155 -65t152 -103t129.5 -128.5t87.5 -141.5
q-50 -17 -113 -45t-124 -58t-112 -58t-76 -46v-22q74 -26 148.5 -56.5t147 -70t142 -91.5t133.5 -121h6v856h164q163 0 285 -30.5t203.5 -86.5t122.5 -135t41 -177q0 -57 -20.5 -113.5t-62 -101t-103.5 -72.5t-145 -28q-62 0 -102.5 18.5t-64 46.5t-33 59t-9.5 57
q0 30 11.5 57.5t32.5 49t50.5 34.5t65.5 13q40 0 68.5 -14.5t47 -36t27.5 -47.5t9 -48l11 -2q12 9 22.5 24t18 32t12 35t4.5 35q0 68 -33 119t-96 84.5t-154.5 50.5t-208.5 17z" />
    <glyph glyph-name="uni09AC" unicode="&#x9ac;" horiz-adv-x="1246" 
d="M907 1344h-942v147h1316v-147h-210v-1384h-98q-33 81 -87.5 157.5t-123 145t-146.5 127t-156.5 105t-153 79t-136.5 47.5v215q70 46 155 100.5t180.5 105t197 90.5t204.5 57v155zM907 338v686q-41 -5 -93 -23t-108 -44t-112.5 -56.5t-107 -59.5t-91.5 -55t-65 -42v-22
q149 -53 295.5 -148.5t275.5 -235.5h6z" />
    <glyph glyph-name="uni09AD" unicode="&#x9ad;" horiz-adv-x="1630" 
d="M-35 1344v147h1700v-147h-1700zM1324 1058q59 -33 100.5 -90.5t67.5 -125t37.5 -137.5t11.5 -128q0 -74 -17 -147t-50.5 -139.5t-81.5 -124t-110 -100t-137 -66.5t-162 -24q-100 0 -187 31.5t-162 86t-139 127.5t-116.5 156t-94.5 171t-74 172.5t-54.5 161.5t-35.5 137
l115 89h6q37 -136 81.5 -261.5t97.5 -234t114 -197.5t130.5 -152.5t147.5 -98t165 -34.5q96 0 172.5 40t129.5 105.5t81.5 148t28.5 167.5q0 56 -13 109.5t-39 101.5q-26 -56 -72 -99t-104 -72t-124.5 -43.5t-132.5 -14.5q-71 0 -136.5 17t-116 52.5t-81 89t-30.5 125.5
q0 56 18.5 103t49.5 80.5t72.5 52t87.5 18.5t88 -18t74 -48t51 -70.5t19 -85.5q0 -39 -14 -74t-34 -60l9 -14q68 7 120 37.5t93 75.5t73.5 98.5t62.5 105.5h14z" />
    <glyph glyph-name="uni09AE" unicode="&#x9ae;" horiz-adv-x="1488" 
d="M555 299q-54 0 -95 16t-69 42t-42 59.5t-14 68.5q0 39 16.5 77t48.5 68t78.5 48.5t106.5 18.5q25 0 46 -3.5t50 -13.5q-2 103 -25.5 179.5t-60.5 132t-84 93t-96.5 62.5t-97.5 40t-87 26v131h-265v147h1558v-147h-210v-1384h-98q-27 68 -72 134.5t-100.5 127.5
t-118 114.5t-125.5 95.5q-34 -62 -99.5 -97.5t-144.5 -35.5zM1149 338v1006h-774q133 -55 222.5 -133t143.5 -174.5t77 -209t23 -237.5q80 -51 156 -114t146 -138h6z" />
    <glyph glyph-name="uni09AF" unicode="&#x9af;" horiz-adv-x="1315" 
d="M1042 -40q-33 81 -87.5 154t-123 136.5t-146.5 116.5t-156.5 94.5t-153 70.5t-136.5 44v215q72 48 158.5 98t184.5 95q-45 55 -103 94t-117 65.5t-113.5 42.5t-93.5 27v131h-190v147h1385v-147h-210v-1384h-98zM824 906q-50 -17 -113 -45t-124 -58t-112 -58t-76 -46v-22
q74 -26 148.5 -56.5t147 -70t142 -91.5t133.5 -121h6v1006h-676q75 -21 155 -65t152 -103t129.5 -128.5t87.5 -141.5z" />
    <glyph glyph-name="uni09B0" unicode="&#x9b0;" horiz-adv-x="1246" 
d="M290 198q0 27 10 50t27 40t40 27t50 10t50 -10t40 -27t27 -40t10 -50t-10 -50t-27 -40t-40 -27t-50 -10t-50 10t-40 27t-27 40t-10 50zM907 1344h-942v147h1316v-147h-210v-1384h-98q-33 81 -87.5 157.5t-123 145t-146.5 127t-156.5 105t-153 79t-136.5 47.5v215
q70 46 155 100.5t180.5 105t197 90.5t204.5 57v155zM907 338v686q-41 -5 -93 -23t-108 -44t-112.5 -56.5t-107 -59.5t-91.5 -55t-65 -42v-22q149 -53 295.5 -148.5t275.5 -235.5h6z" />
    <glyph glyph-name="uni09B2" unicode="&#x9b2;" horiz-adv-x="1477" 
d="M715 751q-42 119 -108 173t-141 54q-54 0 -96 -21.5t-71.5 -57t-44.5 -81.5t-15 -95q0 -38 8.5 -74t25.5 -66l11 2q0 25 10 53.5t30.5 52.5t52 39.5t74.5 15.5q40 0 72.5 -14t56 -37.5t36 -54.5t12.5 -64q0 -28 -10.5 -62.5t-36.5 -65t-71.5 -51t-115.5 -20.5
q-81 0 -140 29t-97.5 77t-57 111t-18.5 131q0 79 26 154t75.5 132.5t119.5 92.5t159 35q76 0 141 -30.5t116 -84.5h6q48 60 114.5 88t137.5 28q88 0 162 -41v245h-1173v147h1547v-147h-210v-1344h-164v891q-29 42 -74 65t-93 23q-44 0 -90 -20t-85 -61q13 -14 24 -33t20 -39
l-119 -75h-6z" />
    <glyph glyph-name="uni09B6" unicode="&#x9b6;" horiz-adv-x="1502" 
d="M481 814q-20 -45 -47.5 -74.5t-57.5 -47t-59 -25t-52 -7.5q-37 0 -73 15.5t-64 43.5t-45 66.5t-17 84.5q0 61 30 111t73.5 92t92.5 78.5t88 69.5q-15 12 -43 33t-64.5 41t-80 34.5t-89.5 14.5h-98v147h96q59 0 112.5 -15t103 -39.5t95.5 -56t91 -63.5q34 31 75.5 67
t86.5 67t91 51.5t90 20.5q54 0 102.5 -32.5t92 -83.5t82 -115t72.5 -127v326h372v-147h-208v-1344h-164v821q-52 108 -104 205t-101 170t-92.5 116t-77.5 43q-21 0 -46.5 -14.5t-50.5 -35.5t-48 -43.5t-38 -38.5q58 -41 111.5 -83t94.5 -86.5t65.5 -91t24.5 -96.5
q0 -41 -16 -78t-43.5 -65.5t-63.5 -45.5t-75 -17q-24 0 -54 7.5t-60.5 25t-58 47t-45.5 74.5h-6z" />
    <glyph glyph-name="uni09B7" unicode="&#x9b7;" horiz-adv-x="1316" 
d="M-35 1491h1386v-147h-211v-1384h-98q-33 81 -87.5 154t-123 136.5t-146.5 116.5t-156.5 94.5t-153 70.5t-136.5 44v215q69 46 163 99.5t205 105.5q-104 78 -217 135.5t-235 81.5v131h-190v147zM399 699v-22q74 -26 148.5 -56.5t147 -70t142 -91.5t133.5 -121h6v297
q-53 63 -111 125.5t-123 122.5q-48 -21 -99.5 -46.5t-99 -51.5t-85.5 -48.5t-59 -37.5zM976 872v472h-664q91 -28 183.5 -83t178.5 -121.5t163.5 -137t138.5 -130.5z" />
    <glyph glyph-name="uni09B8" unicode="&#x9b8;" horiz-adv-x="1488" 
d="M155 1212v131h-190v147h1558v-147h-210v-1344h-164v673q-24 31 -50 61t-52.5 53t-51 37.5t-45.5 14.5q-38 0 -75.5 -36t-77 -90.5t-82 -117.5t-91 -117.5t-103.5 -90.5t-119 -36q-60 0 -105 26t-78 65t-54 84t-32 83l124 87q39 -99 76 -140.5t74 -41.5q27 0 53.5 18.5
t53 49.5t53 71t54.5 83q-22 118 -73.5 203.5t-117.5 142.5t-139 88.5t-136 42.5zM1149 1343h-849q97 -33 168.5 -82.5t123.5 -109t86.5 -125.5t58.5 -132q44 49 92.5 80.5t105.5 31.5q58 0 113 -28.5t101 -67.5v433z" />
    <glyph glyph-name="uni09B9" unicode="&#x9b9;" horiz-adv-x="1289" 
d="M1220 -64q-32 47 -90 102t-136 111t-173.5 109.5t-203 97.5t-224.5 75t-238 42l16 165q18 -1 40.5 -4t47 -6.5t49 -8.5t45.5 -9q20 -2 53 -4t60 -2q47 0 102 7t110 21t106 35t90.5 49.5t63.5 64.5t24 79q0 49 -29.5 85.5t-72 60.5t-91 35.5t-86.5 11.5h-7t-8 -1
q-15 -47 -44 -83t-64.5 -60.5t-74 -37t-72.5 -12.5q-33 0 -58.5 11t-42.5 30t-25.5 43.5t-8.5 51.5q0 38 16 71t43 59.5t62.5 46t74.5 30.5q-3 10 -9.5 29.5t-14 41t-15 41t-13.5 30.5h-457v147h1360v-147h-726q3 -6 8 -22t11 -35t11 -37t8 -27q55 -1 113.5 -11.5t113 -31
t103 -49.5t85 -68.5t57.5 -88t21 -106.5q0 -79 -37.5 -142t-97 -111t-132.5 -81.5t-144 -54.5v-6q88 -33 175.5 -77.5t167 -99.5t147 -119.5t115.5 -135.5z" />
    <glyph glyph-name="uni09BC" unicode="&#x9bc;" 
d="M-700 -231q0 27 10 50t27 40t40 27t50 10t50 -10t40 -27t27 -40t10 -50t-10 -50t-27 -40t-40 -27t-50 -10t-50 10t-40 27t-27 40t-10 50z" />
    <glyph glyph-name="uni09BD" unicode="&#x9bd;" horiz-adv-x="1101" 
d="M410 1344h-445v147h608v-268q87 -3 167 -29t141.5 -70.5t98 -105.5t36.5 -134q0 -72 -35 -131.5t-91 -106.5t-127.5 -80.5t-144.5 -53.5q66 -39 136 -86.5t136 -105t125.5 -125.5t104.5 -149l-126 -68q-29 46 -74 101.5t-105 112.5t-134.5 111t-162.5 97t-189 71t-214 33
l16 164q36 -2 75 -7.5t82 -14.5q20 -2 38.5 -4t44.5 -2q47 0 100.5 6.5t106.5 19.5t101.5 32.5t86 46.5t60 61t22.5 75q0 42 -22.5 74.5t-57 54t-75 32.5t-75.5 11h-7t-8 -1q-15 -47 -44 -83t-64.5 -60.5t-74 -37t-72.5 -12.5q-33 0 -58.5 11t-42.5 30t-25.5 43.5t-8.5 51.5
q0 38 16 71t43.5 60t63 46.5t74.5 30.5v141z" />
    <glyph glyph-name="uni09BE" unicode="&#x9be;" horiz-adv-x="514" 
d="M175 1192q0 31 -12.5 58.5t-34.5 48.5t-52.5 33t-66.5 12h-44v147h44q24 0 55.5 -4.5t65.5 -16t67.5 -30t61.5 -45.5v8q0 38 17.5 63t45.5 25h227v-147h-41q-36 0 -66.5 -12t-53.5 -33t-36 -48.5t-13 -58.5v-1192h-164v1192z" />
    <glyph glyph-name="uni09BF" unicode="&#x9bf;" horiz-adv-x="513" 
d="M548 1491v-147h-209v-1344h-164v1344h-210v147h210q-46 91 -46 171q0 87 49.5 157.5t136.5 121t206 77.5t257 27q153 0 289.5 -30t246 -72t186 -86.5t110.5 -74.5l-82 -142q-52 39 -124 83t-165 81t-207 61t-250 24q-105 0 -195.5 -16t-157.5 -47t-105.5 -76.5
t-38.5 -104.5q0 -34 13 -72.5t41 -81.5h209z" />
    <glyph glyph-name="uni09C0" unicode="&#x9c0;" horiz-adv-x="513" 
d="M548 1491v-147h-209v-1344h-164v1344h-210v147h207q-2 53 -7.5 115t-24.5 124t-57.5 119t-107.5 101t-174 70.5t-257 26.5h-244q-80 0 -149.5 -8.5t-120.5 -27t-80.5 -49t-29.5 -75.5q0 -61 53 -98.5t146 -37.5h364q71 0 129 -13t101.5 -43.5t71.5 -80.5t40 -123h-164
q-11 37 -22 61.5t-30 38.5t-48.5 19.5t-76.5 5.5h-368q-81 0 -143.5 23t-105.5 61.5t-65 87.5t-22 102q0 72 39.5 126.5t110.5 91t169 55.5t215 19h244q143 0 252.5 -22.5t190.5 -60t137 -88t92.5 -107t57 -115.5t31 -114t13 -102.5t4.5 -81.5h212z" />
    <glyph glyph-name="uni09C1" unicode="&#x9c1;" 
d="M302 -263l-98 -118q-42 35 -83.5 68t-87.5 63t-97.5 55.5t-112.5 45.5q-15 -60 -46 -103.5t-71 -72t-86.5 -42t-93.5 -13.5t-91 14t-78 41t-54 66t-20 89q0 38 14.5 78.5t49 73.5t91.5 54.5t143 21.5q76 0 152.5 -17t149 -44.5t138.5 -62.5t121 -70.5t96 -69t64 -57.5z
M-341 -105q-20 10 -51.5 16.5t-59.5 6.5q-33 0 -56 -9t-37.5 -22.5t-21.5 -29.5t-7 -29q0 -15 8 -27.5t22 -22t32 -14.5t38 -5q51 0 85 32.5t48 103.5z" />
    <glyph glyph-name="uni09C2" unicode="&#x9c2;" 
d="M143 -353v-150q-43 2 -80.5 7.5t-74 17t-75.5 30t-86 47.5q-51 -25 -122 -40.5t-144 -15.5q-53 0 -102.5 10t-88 33.5t-61.5 61.5t-23 95q0 76 42.5 133t115.5 95t171 57t210 19v-151q-77 0 -146.5 -9t-123 -27t-85 -45t-31.5 -63q0 -20 9.5 -34t26 -23t39 -13t47.5 -4
q36 0 77 7t78 17.5t66 23t43 22.5q49 -26 85.5 -44t71 -29.5t72 -18t89.5 -9.5z" />
    <glyph glyph-name="uni09C3" unicode="&#x9c3;" 
d="M-189 -40q-54 -15 -108.5 -31.5t-102 -33t-84 -31.5t-55.5 -27v-12q104 -34 202 -78t187 -106v-156h-12q-65 57 -136 98t-141.5 70t-136.5 48.5t-121 33.5v194q30 21 82.5 44.5t116 47.5t133 47t133.5 42z" />
    <glyph glyph-name="uni09C4" unicode="&#x9c4;" 
d="M-697 77v194q30 21 82.5 44.5t116 47.5t133 47t133.5 42l43 -150q-54 -15 -108.5 -31.5t-102 -33t-84 -31.5t-55.5 -27v-12q93 -30 180.5 -68t168.5 -89v-48q-54 -15 -108.5 -31.5t-101.5 -33t-83.5 -31.5t-55.5 -27v-12q104 -34 202 -78t187 -106v-156h-12
q-65 57 -136 98t-141.5 70t-136.5 48.5t-121 33.5v194q29 20 79.5 43t112.5 47q-53 19 -101.5 32t-90.5 24z" />
    <glyph glyph-name="uni09C7" unicode="&#x9c7;" horiz-adv-x="842" 
d="M-35 1344v147h912v-147h-220q-91 -33 -155.5 -101t-106 -158.5t-61 -196t-19.5 -212.5q0 -73 8.5 -144.5t24.5 -136.5t39.5 -122t53.5 -101l11 2q0 24 9.5 51t29 49.5t49.5 37.5t71 15q38 0 69.5 -13.5t53.5 -36t34 -51.5t12 -61q0 -27 -10 -59.5t-35 -61.5t-67.5 -48.5
t-106.5 -19.5q-73 0 -132 27t-105 75t-79.5 114t-55 143t-32 162.5t-10.5 173.5q0 102 13.5 202.5t39.5 189.5t63 161.5t85 119.5h-383z" />
    <glyph glyph-name="uni09C8" unicode="&#x9c8;" horiz-adv-x="842" 
d="M-35 1344v147h617q-14 64 -34.5 103t-48 59t-61 26.5t-73.5 6.5h-144q-84 0 -142 13.5t-96 38t-59.5 58t-31.5 74t-12 85.5t-2 92h165q0 -69 8 -109.5t28.5 -61.5t56 -27t91.5 -6q26 0 64.5 0.5t74.5 0.5q106 0 175 -30t111 -79.5t62.5 -113t28.5 -130.5h134v-147h-220
q-91 -33 -155.5 -101t-106 -158.5t-61 -196t-19.5 -212.5q0 -73 8.5 -144.5t24.5 -136.5t39.5 -122t53.5 -101l11 2q0 24 9.5 51t29 49.5t49.5 37.5t71 15q38 0 69.5 -13.5t53.5 -36t34 -51.5t12 -61q0 -27 -10 -59.5t-35 -61.5t-67.5 -48.5t-106.5 -19.5q-73 0 -132 27
t-105 75t-79.5 114t-55 143t-32 162.5t-10.5 173.5q0 102 13.5 202.5t39.5 189.5t63 161.5t85 119.5h-383z" />
    <glyph glyph-name="uni09CB" unicode="&#x9cb;" horiz-adv-x="2470" 
d="M-35 1344v147h912v-147h-220q-91 -33 -155.5 -101t-106 -158.5t-61 -196t-19.5 -212.5q0 -73 8.5 -144.5t24.5 -136.5t39.5 -122t53.5 -101l11 2q0 24 9.5 51t29 49.5t49.5 37.5t71 15q38 0 69.5 -13.5t53.5 -36t34 -51.5t12 -61q0 -27 -10 -59.5t-35 -61.5t-67.5 -48.5
t-106.5 -19.5q-73 0 -132 27t-105 75t-79.5 114t-55 143t-32 162.5t-10.5 173.5q0 102 13.5 202.5t39.5 189.5t63 161.5t85 119.5h-383zM1741 918q0 -50 -48 -50q-52 0 -52 50t52 50q48 0 48 -50zM1593 1016q0 -49 -48 -49q-52 0 -52 49q0 51 52 51q48 0 48 -51zM1840 770
q0 -51 -51 -51q-49 0 -49 51q0 49 51 49q49 0 49 -49zM1876 596q0 -50 -48 -50q-52 0 -52 50t52 50q48 0 48 -50zM1419 1053q0 -51 -50 -51t-50 51q0 49 50 49t50 -49zM1246 1016q0 -49 -51 -49q-49 0 -49 49q0 51 49 51q51 0 51 -51zM1840 422q0 -49 -51 -49q-49 0 -49 49
q0 51 49 51q51 0 51 -51zM1098 918q0 -50 -50 -50t-50 47q0 53 50 53t50 -50zM1741 272q0 -49 -48 -49q-52 0 -52 49q0 51 52 51q48 0 48 -51zM1593 174q0 -48 -48 -48q-52 0 -52 48q0 52 52 52q48 0 48 -52zM999 770q0 -51 -48 -51q-52 0 -52 51q0 49 50 49t50 -49z
M963 596q1 -50 -48 -50q-52 0 -52 50t52 50q49 0 48 -50zM1419 141q0 -51 -50 -51t-50 51q0 49 50 49t50 -49zM999 422q0 -49 -50 -49t-50 49q0 51 50 51t50 -51zM1246 178q0 -52 -51 -52q-49 0 -49 48q0 52 49 52q51 0 51 -48zM1098 272q0 -49 -50 -49t-50 49q0 51 50 51
t50 -51zM2131 1192q0 31 -12.5 58.5t-34.5 48.5t-52.5 33t-66.5 12h-44v147h44q24 0 55.5 -4.5t65.5 -16t67.5 -30t61.5 -45.5v8q0 38 17.5 63t45.5 25h227v-147h-41q-36 0 -66.5 -12t-53.5 -33t-36 -48.5t-13 -58.5v-1192h-164v1192z" />
    <glyph glyph-name="uni09CC" unicode="&#x9cc;" horiz-adv-x="2468" 
d="M-35 1344v147h912v-147h-220q-91 -33 -155.5 -101t-106 -158.5t-61 -196t-19.5 -212.5q0 -73 8.5 -144.5t24.5 -136.5t39.5 -122t53.5 -101l11 2q0 24 9.5 51t29 49.5t49.5 37.5t71 15q38 0 69.5 -13.5t53.5 -36t34 -51.5t12 -61q0 -27 -10 -59.5t-35 -61.5t-67.5 -48.5
t-106.5 -19.5q-73 0 -132 27t-105 75t-79.5 114t-55 143t-32 162.5t-10.5 173.5q0 102 13.5 202.5t39.5 189.5t63 161.5t85 119.5h-383zM1741 918q0 -50 -48 -50q-52 0 -52 50t52 50q48 0 48 -50zM1593 1016q0 -49 -48 -49q-52 0 -52 49q0 51 52 51q48 0 48 -51zM1840 770
q0 -51 -51 -51q-49 0 -49 51q0 49 51 49q49 0 49 -49zM1876 596q0 -50 -48 -50q-52 0 -52 50t52 50q48 0 48 -50zM1419 1053q0 -51 -50 -51t-50 51q0 49 50 49t50 -49zM1246 1016q0 -49 -51 -49q-49 0 -49 49q0 51 49 51q51 0 51 -51zM1840 422q0 -49 -51 -49q-49 0 -49 49
q0 51 49 51q51 0 51 -51zM1098 918q0 -50 -50 -50t-50 47q0 53 50 53t50 -50zM1741 272q0 -49 -48 -49q-52 0 -52 49q0 51 52 51q48 0 48 -51zM1593 174q0 -48 -48 -48q-52 0 -52 48q0 52 52 52q48 0 48 -52zM999 770q0 -51 -48 -51q-52 0 -52 51q0 49 50 49t50 -49z
M963 596q1 -50 -48 -50q-52 0 -52 50t52 50q49 0 48 -50zM1419 141q0 -51 -50 -51t-50 51q0 49 50 49t50 -49zM999 422q0 -49 -50 -49t-50 49q0 51 50 51t50 -51zM1246 178q0 -52 -51 -52q-49 0 -49 48q0 52 49 52q51 0 51 -48zM1098 272q0 -49 -50 -49t-50 49q0 51 50 51
t50 -51zM1919 1491h207q-12 62 -35.5 101t-55 60.5t-69.5 29t-78 7.5q-46 0 -94.5 -6.5t-99.5 -15t-104.5 -15t-109.5 -6.5q-116 0 -195.5 32.5t-129 87.5t-72 127.5t-25.5 153.5h164q3 -85 29 -133.5t63 -73t80 -30.5t80 -6q59 0 111.5 6.5t103 15t100.5 15t103 6.5
q105 0 177 -29t118 -78t70 -113.5t33 -135.5h213v-147h-210v-1344h-164v1344h-210v147z" />
    <glyph glyph-name="uni09CD" unicode="&#x9cd;" 
d="M-599 -215l176 93q112 -45 226 -118.5t213 -175.5l-106 -98q-38 34 -90 75.5t-117 81t-141 74.5t-161 56v12z" />
    <glyph glyph-name="uni09CE" unicode="&#x9ce;" horiz-adv-x="1251" 
d="M765 1179q0 40 -18.5 69t-47 48t-63 28t-67.5 9q-36 0 -73.5 -10.5t-69.5 -30.5q7 -37 19 -77.5t34 -74t55 -55.5t82 -22q29 0 56 8.5t47.5 23.5t33 36.5t12.5 47.5zM305 1156q-20 -35 -25.5 -72.5t-5.5 -60.5q0 -94 34.5 -161.5t91.5 -118.5t129 -91t148 -77.5
t148 -77.5t129 -92t91.5 -121.5t34.5 -164.5q0 -90 -34 -165t-101 -142l-104 124q29 29 50.5 66t21.5 87q0 57 -23 101.5t-62 81.5t-91.5 68.5t-111.5 62.5t-121.5 64t-121.5 72.5t-111.5 88t-91.5 111t-62 141.5t-23 179q0 73 20 133t53.5 108t79 84t96.5 59.5t105 35.5
t106 12q60 0 124 -16.5t117 -53.5t87.5 -95t34.5 -140q0 -71 -27 -123.5t-70.5 -86.5t-97 -50.5t-106.5 -16.5q-60 0 -109 18.5t-88 51.5t-67.5 78t-46.5 99z" />
    <glyph glyph-name="uni09D7" unicode="&#x9d7;" horiz-adv-x="514" 
d="M-35 1491h207q-12 62 -35.5 101t-55 60.5t-69.5 29t-78 7.5q-46 0 -94.5 -6.5t-99.5 -15t-104.5 -15t-109.5 -6.5q-116 0 -195.5 32.5t-129 87.5t-72 127.5t-25.5 153.5h164q3 -85 29 -133.5t63 -73t80 -30.5t80 -6q59 0 111.5 6.5t103 15t100.5 15t103 6.5
q105 0 177 -29t118 -78t70 -113.5t33 -135.5h213v-147h-210v-1344h-164v1344h-210v147z" />
    <glyph glyph-name="uni09DC" unicode="&#x9dc;" horiz-adv-x="1636" 
d="M223 1234h6q31 -134 66.5 -267.5t80 -255.5t100 -227.5t127 -183t161.5 -121.5t202 -44q102 0 177 37t124.5 97.5t74 138.5t24.5 159q0 60 -13 117.5t-39 110.5q-32 -43 -72.5 -80.5t-87.5 -65.5t-99.5 -44t-107.5 -16q-69 0 -116.5 23.5t-77 61.5t-42.5 84.5t-13 93.5
v492h-733v147h1706v-147h-809v-402q0 -45 0.5 -81t4 -61.5t10.5 -39t21 -13.5q53 0 102.5 18.5t98 56.5t97 96.5t99.5 139.5h14q55 -48 96 -107.5t68 -124.5t40 -134.5t13 -138.5q0 -110 -33 -214t-102 -184.5t-175.5 -129.5t-252.5 -49t-258.5 49.5t-198 134.5
t-148.5 199.5t-109 244.5t-80 268.5t-61 272.5zM790 -231q0 27 10 50t27 40t40 27t50 10t50 -10t40 -27t27 -40t10 -50t-10 -50t-27 -40t-40 -27t-50 -10t-50 10t-40 27t-27 40t-10 50z" />
    <glyph glyph-name="uni09DD" unicode="&#x9dd;" horiz-adv-x="1275" 
d="M-35 1344v147h1345v-147h-941v-791q0 -78 13.5 -139t35 -108t47.5 -79.5t51 -53.5t46 -30.5t32 -9.5q45 0 93.5 17.5t95 50t89 78.5t74 102t50.5 121t19 136q0 50 -9.5 99.5t-30.5 97.5l-11 -2q0 -22 -9 -47.5t-27.5 -47.5t-47 -36.5t-67.5 -14.5q-36 0 -66 12.5t-51 34
t-32.5 50t-11.5 59.5q0 25 9 56t33 58.5t65.5 46t106.5 18.5q83 0 141 -32t94.5 -84t53 -117.5t16.5 -132.5q0 -80 -19.5 -161.5t-56 -157t-89.5 -141.5t-120 -115t-147 -77t-171 -28q-14 0 -46.5 10.5t-72.5 36.5t-83.5 68.5t-79 107t-58.5 152t-23 202.5v791h-240z
M455 -231q0 27 10 50t27 40t40 27t50 10t50 -10t40 -27t27 -40t10 -50t-10 -50t-27 -40t-40 -27t-50 -10t-50 10t-40 27t-27 40t-10 50z" />
    <glyph glyph-name="uni09DF" unicode="&#x9df;" horiz-adv-x="1315" 
d="M1042 -40q-33 81 -87.5 154t-123 136.5t-146.5 116.5t-156.5 94.5t-153 70.5t-136.5 44v215q72 48 158.5 98t184.5 95q-45 55 -103 94t-117 65.5t-113.5 42.5t-93.5 27v131h-190v147h1385v-147h-210v-1384h-98zM824 906q-50 -17 -113 -45t-124 -58t-112 -58t-76 -46v-22
q74 -26 148.5 -56.5t147 -70t142 -91.5t133.5 -121h6v1006h-676q75 -21 155 -65t152 -103t129.5 -128.5t87.5 -141.5zM409 170q0 27 10 50t27 40t40 27t50 10t50 -10t40 -27t27 -40t10 -50t-10 -50t-27 -40t-40 -27t-50 -10t-50 10t-40 27t-27 40t-10 50z" />
    <glyph glyph-name="uni09E0" unicode="&#x9e0;" horiz-adv-x="1739" 
d="M1166 -40q-54 -15 -108.5 -31.5t-102 -33t-84 -31.5t-55.5 -27v-12q104 -34 202 -77.5t187 -105.5v-156h-12q-65 57 -136 97.5t-141.5 70t-136.5 48.5t-121 33v194q23 16 60.5 34t84 37t99 37.5t105.5 35.5q-46 68 -109 131.5t-135 120t-149.5 105t-152.5 86.5t-144 64.5
t-123 40.5v215q53 35 122 75.5t148 80.5t163.5 77t169.5 66q-6 32 -22.5 66t-45.5 60q-22 -32 -56 -61.5t-77 -51.5t-93.5 -35t-105.5 -13q-49 0 -96 13t-84 38.5t-59.5 64t-22.5 88.5q0 40 13 72t34.5 54.5t51 35t62.5 12.5q35 0 65 -13.5t51.5 -36t34 -51.5t12.5 -61
q0 -29 -12 -59l3 -6q40 0 75 12.5t65 41t55 74.5t46 112h13q104 -72 161.5 -154.5t74.5 -159.5l62 12v302h164v-911q60 -43 117 -93.5t111 -108.5h6v1113h374v-147h-210v-1344h-98q-43 107 -122.5 204.5t-177.5 179.5v-424zM1002 338v686q-41 -5 -98 -23t-121 -44
t-130 -56.5t-124.5 -59.5t-104.5 -55t-70 -42v-22q74 -26 159.5 -63.5t171.5 -85.5t166.5 -107t144.5 -128h6z" />
    <glyph glyph-name="uni09E1" unicode="&#x9e1;" horiz-adv-x="1951" 
d="M833 510q0 96 -22.5 170t-61 124.5t-89 76t-106.5 25.5q-48 0 -98 -19t-90.5 -58t-66.5 -98t-26 -140q0 -29 3.5 -46t10.5 -35l11 2q0 22 9 48t27.5 47.5t47 36t68.5 14.5q36 0 65.5 -12.5t50.5 -34t32.5 -51t11.5 -62.5q0 -42 -18 -75t-48.5 -55.5t-71.5 -34t-86 -11.5
t-91 13t-82.5 45.5t-59.5 87.5t-23 139q0 104 36 189t96 145t138 93t162 33q81 0 158 -32.5t136 -98.5t95 -166.5t36 -236.5v-24t-1 -27q62 60 103.5 118t67 110t36 96.5t10.5 77.5q0 58 -28.5 100t-77 72t-113.5 52t-138 41t-149.5 38t-149.5 44t-138 58t-113.5 80t-77 111
t-28.5 151h165q0 -65 28.5 -110t77 -77.5t113.5 -54.5t138 -40t149.5 -35t149.5 -39t138 -52t113.5 -74.5t77 -105.5t28.5 -146q0 -50 -9 -98q99 -13 195.5 -50.5t172.5 -99t122.5 -148.5t46.5 -199q0 -86 -30 -169t-84 -162t-130 -152.5t-169 -140.5l-29 -21l-113 114
q11 32 15.5 67t4.5 77q0 96 -22.5 170t-61 124.5t-89 76t-106.5 25.5q-48 0 -98 -19t-90.5 -58t-66.5 -98t-26 -140q0 -29 3.5 -46t10.5 -35l11 2q0 22 9 48t27.5 47.5t47 36t68.5 14.5q36 0 65.5 -12.5t50.5 -34t32.5 -51t11.5 -62.5q0 -42 -18 -75t-48.5 -55.5t-71.5 -34
t-86 -11.5t-91 13t-82.5 45.5t-59.5 87.5t-23 139q0 115 42.5 205.5t113.5 150.5q19 61 19 142zM1185 461q67 -17 127 -57t105 -105t71.5 -155t26.5 -206v-24t-1 -27q62 60 103.5 118t67 110t36 96.5t10.5 77.5q0 67 -33 126.5t-90 107t-133.5 81.5t-162.5 49
q-45 -101 -127 -192z" />
    <glyph glyph-name="uni09E2" unicode="&#x9e2;" 
d="M-432 142l104 49q10 -44 35 -74t58.5 -51.5t73 -37.5t79.5 -31.5t77 -33.5t66 -44t46 -62.5t17 -88.5q0 -63 -25.5 -108.5t-66.5 -78.5t-94.5 -55.5t-108.5 -39.5q-20 30 -33.5 53t-28.5 48q9 14 12.5 33.5t3.5 36.5q0 21 -5 41.5t-15.5 36.5t-26 25.5t-35.5 9.5
q-5 0 -12 -0.5t-11 -2.5l-4 -2v-8q11 -12 16 -28.5t5 -32.5q0 -23 -10 -42t-25.5 -33t-35.5 -22t-40 -8q-23 0 -42 9.5t-33.5 25.5t-22.5 37.5t-8 45.5q0 39 20.5 69.5t52 52t69.5 33t73 11.5q37 0 72 -12.5t63 -36t45 -56.5t17 -74q0 -14 -2.5 -31t-8.5 -34
q38 14 63.5 29.5t40.5 32.5t21.5 35t6.5 37q0 42 -26 66t-67 41.5t-91.5 34.5t-99.5 45t-91.5 72.5t-67.5 117.5z" />
    <glyph glyph-name="uni09E3" unicode="&#x9e3;" 
d="M-432 142l104 49q10 -44 35 -74t58.5 -51.5t73 -37.5t79.5 -31.5t77 -33.5t66 -44t46 -62.5t17 -88.5v-13q65 27 89.5 59.5t24.5 67.5q0 42 -26 66t-67 41.5t-91.5 34.5t-99.5 45t-91.5 72.5t-67.5 117.5l104 49q10 -44 35 -74t58.5 -51.5t73 -37.5t79.5 -31.5t77 -33.5
t66 -44t46 -62.5t17 -88.5q0 -63 -25 -108.5t-66.5 -78t-94 -55t-107.5 -39.5q-43 -43 -103.5 -70.5t-125.5 -47.5q-20 30 -33.5 53t-28.5 48q9 14 12.5 33.5t3.5 36.5q0 21 -5 41.5t-15.5 36.5t-26 25.5t-35.5 9.5q-5 0 -12 -0.5t-11 -2.5l-4 -2v-8q11 -12 16 -28.5
t5 -32.5q0 -23 -10 -42t-25.5 -33t-35.5 -22t-40 -8q-23 0 -42 9.5t-33.5 25.5t-22.5 37.5t-8 45.5q0 39 20.5 69.5t52 52t69.5 33t73 11.5q37 0 72 -12.5t63 -36t45 -56.5t17 -74q0 -14 -2.5 -31t-8.5 -34q38 14 63.5 29.5t40.5 32.5t21.5 35t6.5 37q0 42 -26 66t-67 41.5
t-91.5 34.5t-99.5 45t-91.5 72.5t-67.5 117.5z" />
    <glyph glyph-name="uni09E6" unicode="&#x9e6;" horiz-adv-x="1333" 
d="M1023 729q0 69 -22 133.5t-65.5 114t-107.5 79.5t-149 30q-90 0 -159.5 -33.5t-116 -88.5t-70.5 -125.5t-24 -145.5t23.5 -140t67 -113.5t106 -76.5t139.5 -28q82 0 151.5 31.5t119.5 85t78.5 125t28.5 152.5zM632 172q-115 0 -204.5 43.5t-151 116t-94 167.5t-32.5 197
q0 118 41.5 219.5t114 175.5t171 116.5t213.5 42.5t206.5 -42t155.5 -113t97.5 -164.5t33.5 -196.5q0 -119 -43.5 -222t-118 -178.5t-175 -118.5t-214.5 -43z" />
    <glyph glyph-name="uni09E7" unicode="&#x9e7;" horiz-adv-x="1054" 
d="M306 1260q16 -29 50 -61.5t79 -69t97.5 -77t104.5 -86t100 -95.5t85.5 -106t59.5 -117.5t22 -129.5q0 -45 -10.5 -100.5t-32 -113t-54.5 -112.5t-77.5 -97.5t-101.5 -68.5t-126 -26q-43 0 -81.5 10.5t-67 31.5t-45 52t-16.5 71q0 51 26 89t66.5 63.5t89.5 38t95 12.5
q29 0 59 -4.5t58 -11.5q32 42 45.5 82.5t13.5 78.5q0 58 -27.5 112.5t-73 106.5t-103.5 102t-118.5 99t-118.5 97.5t-103.5 97.5t-73 99t-27.5 102q0 34 12 62.5t33 48.5t48 31t57 11q24 0 46.5 -7t40.5 -21.5t28.5 -36.5t10.5 -52q0 -37 -17 -59.5t-52 -39.5z" />
    <glyph glyph-name="uni09E8" unicode="&#x9e8;" horiz-adv-x="1369" 
d="M1095 868q0 -83 -38.5 -146t-98.5 -110.5t-132.5 -79.5t-141.5 -53v-6q88 -33 175.5 -77.5t167 -99.5t147 -119.5t115.5 -135.5l-104 -105q-32 47 -90 102t-136 111t-173.5 109.5t-203 97.5t-224.5 75t-238 42l16 165q18 -1 40.5 -4t47 -6.5t49 -8.5t45.5 -9q20 -2 53 -4
t61 -2q47 0 101.5 6.5t109.5 20.5t106.5 35t91 50.5t63 67t23.5 84.5q0 53 -30 87.5t-79.5 57t-112.5 37.5t-129 29t-129 31t-112.5 44t-79.5 67.5t-30 101.5q0 33 11 62t31 50.5t48 34t62 12.5q29 0 52 -9.5t39 -25.5t24.5 -36.5t8.5 -41.5q0 -29 -17 -57t-52 -46l-1 -6
q52 -7 121 -17t143 -28t145.5 -45.5t128 -68.5t91.5 -98t35 -135z" />
    <glyph glyph-name="uni09E9" unicode="&#x9e9;" horiz-adv-x="1549" 
d="M251 1359q36 -134 76.5 -263t86.5 -243.5t99.5 -211t116.5 -167t137 -109.5t160 -39q84 0 146.5 35.5t104 93.5t62.5 132t21 151q0 70 -17.5 138t-52.5 124t-88 95t-125 52l-9 -14q20 -25 34 -60t14 -74q0 -45 -19 -85.5t-51 -70.5t-74 -48t-88 -18t-87.5 18.5t-72.5 52
t-49.5 80t-18.5 102.5q0 72 30.5 125.5t81 89t117 52.5t138.5 17q126 0 219 -48t154.5 -127t91.5 -180t30 -207q0 -109 -31 -213t-92.5 -185.5t-152.5 -131.5t-211 -50q-98 0 -181.5 34t-154.5 92t-129 135.5t-105.5 165t-84.5 180.5t-65.5 182t-48.5 168.5t-33 140.5
l115 89h6z" />
    <glyph glyph-name="uni09EA" unicode="&#x9ea;" horiz-adv-x="1309" 
d="M894 843q57 -24 107 -54t87.5 -71.5t59 -96.5t21.5 -128q0 -98 -44.5 -171t-117.5 -122.5t-166.5 -74t-190.5 -24.5q-96 0 -187.5 24.5t-163.5 73t-115.5 122t-43.5 172.5q0 79 25 135.5t67.5 97.5t98.5 69t119 49v6q-54 21 -100.5 47.5t-81.5 62t-55 81.5t-20 107
q0 82 41.5 144.5t109 104.5t153.5 63.5t175 21.5q87 0 169.5 -20t147 -61t103.5 -103t39 -145q0 -64 -18 -112t-50 -84t-75.5 -62t-93.5 -46v-6zM1013 489q0 64 -29.5 109t-78 78t-112.5 57t-133 46q-71 -18 -136 -38.5t-114.5 -51t-79.5 -75.5t-30 -111q0 -63 32.5 -111
t86 -81t121 -49.5t136.5 -16.5q64 0 125 15t108 45t75.5 76t28.5 108zM353 1157q0 -53 28 -90.5t75 -64.5t108.5 -47.5t128.5 -40.5q57 16 108 36t88.5 47.5t59.5 66t22 91.5q0 43 -28 75.5t-73 54.5t-102.5 33t-116.5 11q-57 0 -110.5 -10.5t-95 -31.5t-67 -53.5
t-25.5 -76.5z" />
    <glyph glyph-name="uni09EB" unicode="&#x9eb;" horiz-adv-x="1530" 
d="M959 1399q-23 -45 -35 -82.5t-12 -80.5q0 -48 18 -89t49 -72t72 -48.5t88 -17.5q22 0 43.5 5.5t41.5 16.5l37 22l149 -75v-6q-53 -37 -112.5 -73.5t-118.5 -74t-113 -77t-95.5 -82.5t-66 -91t-24.5 -103q0 -35 15.5 -71t42.5 -65.5t64 -48.5t80 -19l121 -128v-6
q-112 -57 -217 -82t-202 -25q-93 0 -176 20.5t-153.5 57.5t-127 88t-96 113t-60.5 132t-21 144q0 102 43 219.5t126.5 237t206.5 234t284 210.5l149 -77v-6zM308 585q0 -85 32 -158.5t94 -127.5t153.5 -84.5t211.5 -30.5q35 0 67 3q-34 28 -62.5 63.5t-49.5 73.5t-32.5 78
t-11.5 78q0 59 22 113.5t60 104t89.5 95.5t110.5 89q-53 20 -97 51t-76.5 72t-50.5 91.5t-18 110.5v21t2 21q-97 -77 -178.5 -159t-140.5 -166t-92 -169.5t-33 -169.5z" />
    <glyph glyph-name="uni09EC" unicode="&#x9ec;" horiz-adv-x="1697" 
d="M914 1186v-302q0 -34 2.5 -56.5t7.5 -35.5t11 -18t14 -5q53 0 102.5 18.5t98 56.5t97 96.5t99.5 139.5h14q55 -48 96 -107.5t68 -124.5t40 -135t13 -139q0 -110 -33 -213.5t-102 -184t-175.5 -129.5t-253.5 -49q-146 0 -262.5 49t-209 133.5t-163 197.5t-123 241.5
t-90.5 266t-65 270.5l119 100h6q30 -132 69.5 -264.5t90 -255t113 -228t140 -184t171.5 -123t206 -44.5q103 0 179 37t125.5 97.5t73.5 138.5t24 159q0 60 -13 117.5t-39 110.5q-32 -43 -72.5 -80.5t-87.5 -65.5t-99.5 -44t-107.5 -16q-69 0 -116.5 23.5t-77 61.5
t-42.5 84.5t-13 93.5v370l-6 1q-26 -17 -55 -17q-21 0 -41 9t-36 24t-25.5 35.5t-9.5 44.5q0 22 9.5 47t29 46t48 34.5t66.5 13.5q52 0 87 -26t57 -68t31.5 -95t9.5 -107z" />
    <glyph glyph-name="uni09ED" unicode="&#x9ed;" horiz-adv-x="1304" 
d="M846 653q-50 -15 -113.5 -22t-135.5 -7q-83 0 -157.5 8.5t-148.5 25.5l-145 123q-11 25 -11 65q0 48 14.5 114t44.5 137t76 140t109 123.5t143.5 88t178.5 33.5q14 0 42.5 -10.5t62.5 -36.5t70.5 -68.5t66 -107t48.5 -152t19 -202.5v-515v-75.5t1 -75.5l6 -1q26 17 55 17
q21 0 41 -9t36 -24t25.5 -35.5t9.5 -44.5q0 -23 -9.5 -47.5t-29 -45.5t-48 -34.5t-66.5 -13.5q-52 0 -87.5 26t-57 68t-31 95t-9.5 107v356zM310 816q72 -19 137.5 -28t137.5 -9q75 0 142.5 9.5t118.5 29.5v87q0 117 -20.5 197t-48 129.5t-56.5 71.5t-46 22
q-75 0 -142.5 -39.5t-118.5 -107.5t-81 -159t-30 -193z" />
    <glyph glyph-name="uni09EE" unicode="&#x9ee;" horiz-adv-x="1564" 
d="M294 1162q0 20 -0.5 40.5t-0.5 41.5l-6 1q-26 -17 -55 -17q-21 0 -41 9t-36 24t-25.5 35.5t-9.5 44.5q0 22 9.5 47t29 46t48 34.5t66.5 13.5q52 0 87 -26t57 -68t31.5 -95t9.5 -107v-348q60 27 132.5 40.5t148.5 13.5q79 0 143.5 -15t128.5 -45q24 15 47 23.5t47 12.5
t51 5t59 1q36 0 66 5t51.5 18t34 35.5t12.5 58.5q0 14 -2.5 28.5t-8.5 31.5v6l130 98h6q40 -79 40 -161q0 -62 -21.5 -114t-62 -89.5t-99.5 -59t-134 -21.5q-48 0 -75 -6q14 -25 14 -67q0 -49 -14.5 -114.5t-44 -136.5t-75 -140t-108 -123.5t-143 -88t-178.5 -33.5
q-14 0 -42.5 10.5t-62.5 36.5t-70.5 68.5t-66 107t-48.5 152t-19 202.5v584zM991 667q-59 32 -114.5 47t-124.5 15q-79 0 -155 -17.5t-139 -46.5v-87q0 -117 20.5 -197t48 -129.5t56.5 -71.5t46 -22q75 0 142.5 39.5t117.5 107.5t79.5 159t29.5 193z" />
    <glyph glyph-name="uni09EF" unicode="&#x9ef;" horiz-adv-x="1409" 
d="M550 568q-54 0 -99 -22.5t-76.5 -59t-49 -82.5t-17.5 -92q0 -40 12 -77l11 -2q6 17 18.5 34.5t30.5 31t40.5 22t48.5 8.5q34 0 63 -14.5t50 -38t33 -54t12 -63.5q0 -30 -10.5 -59t-32 -51t-53.5 -35.5t-74 -13.5q-56 0 -111 24t-98.5 67t-70.5 102.5t-27 131.5
q0 41 10 86.5t30.5 90t52.5 85.5t76 71.5t100.5 49t126.5 18.5q72 0 130 -20t104 -55.5t80.5 -85.5t60 -109t41.5 -125.5t26 -136.5q58 24 95.5 63.5t59 82t29.5 83t8 67.5q0 56 -28.5 101t-78 82t-115 68t-139.5 59.5t-151.5 57t-151.5 60.5t-139.5 69.5t-115 84t-78 104.5
t-28.5 130q0 47 12 80.5t32.5 54.5t47 31t55.5 10q25 0 48.5 -7t41.5 -21.5t28.5 -36.5t10.5 -52q0 -37 -17 -59.5t-52 -39.5l-1 -6q0 -51 42 -90.5t111 -73t156.5 -64.5t179.5 -66t179.5 -77t156.5 -97.5t111 -127t42 -166.5q0 -47 -11.5 -102t-36.5 -110.5t-63.5 -107
t-91.5 -91t-122.5 -63.5t-155.5 -24q-19 125 -42.5 229.5t-58.5 179.5t-85 117t-122 42z" />
    <glyph glyph-name="uni09F0" unicode="&#x9f0;" horiz-adv-x="1246" 
d="M907 1344h-942v147h1316v-147h-210v-1384h-98q-33 81 -87.5 157.5t-123 145t-146.5 127t-156.5 105t-153 79t-136.5 47.5v215q70 46 155 100.5t180.5 105t197 90.5t204.5 57v155zM907 338v214q-94 94 -205 165.5t-218 122.5q-50 -29 -90.5 -54.5t-63.5 -41.5v-22
q149 -53 295.5 -148.5t275.5 -235.5h6zM907 1024q-56 -7 -131 -37t-153 -70q74 -36 144.5 -81t139.5 -104v292z" />
    <glyph glyph-name="uni09F1" unicode="&#x9f1;" horiz-adv-x="1245" 
d="M906 1344h-941v147h1315v-147h-210v-1384h-98q-33 81 -87.5 157.5t-123 145t-146.5 127t-156.5 105t-153 79t-136.5 47.5v215q70 46 155 100.5t180.5 105t197 90.5t204.5 57v155zM906 338v686q-41 -5 -93 -23t-108 -44t-112.5 -56.5t-107 -59.5t-91.5 -55t-65 -42v-22
q149 -53 295.5 -148.5t275.5 -235.5h6zM275 437q63 -26 133 -68.5t138 -95t130 -110.5t110 -115l-95 -82q-47 57 -111 114t-133 107t-137 91t-124 65z" />
    <glyph glyph-name="uni09F2" unicode="&#x9f2;" horiz-adv-x="1361" 
d="M120 1092q54 20 113.5 33t125.5 13q146 0 265 -51.5t212.5 -136.5t164.5 -194.5t122.5 -225t85 -228t52.5 -203.5l-125 -99h-6q-63 224 -137 404.5t-166 308t-205 196.5t-254 69q-46 0 -93.5 -8.5t-92.5 -25.5z" />
    <glyph glyph-name="uni09F3" unicode="&#x9f3;" horiz-adv-x="1347" 
d="M1215 530q0 -120 -37.5 -221.5t-108 -175.5t-171.5 -115.5t-228 -41.5q-14 0 -46.5 10.5t-73 36.5t-83.5 68.5t-79 107t-59 152t-23 202.5v546h-341v147h341v397l-6 1q-26 -17 -55 -17q-21 0 -41 9t-36 24t-25.5 35.5t-9.5 44.5q0 22 9.5 47t29 46t48 34.5t66.5 13.5
q52 0 87 -26t57 -68t31.5 -95t9.5 -107v-339h911v-147h-911v-546q0 -78 13.5 -139t35 -108t47.5 -79.5t51 -53.5t46 -30.5t32 -9.5q61 0 126.5 28t118.5 78.5t87.5 121t34.5 156.5q0 42 -9 85t-29 90q-21 -29 -47 -51t-55 -37t-58.5 -22.5t-56.5 -7.5q-33 0 -58.5 11
t-42.5 30t-25.5 43.5t-8.5 51.5q0 49 20 88t53 66.5t75 42t86 14.5q78 0 136 -33.5t96 -88.5t57 -125.5t19 -143.5z" />
    <glyph glyph-name="uni09F4" unicode="&#x9f4;" horiz-adv-x="1503" 
d="M1403 1037q-23 -52 -55 -118t-73.5 -138.5t-93 -147t-111.5 -145t-129.5 -132t-148 -108t-165.5 -73t-182 -26.5q-86 0 -171.5 32t-173.5 79l92 146q60 -35 125 -60t137 -25q118 0 225.5 55t206.5 157t191.5 247.5t182.5 326.5z" />
    <glyph glyph-name="uni09F5" unicode="&#x9f5;" horiz-adv-x="1493" 
d="M544 323q105 20 202.5 84t189 165.5t177.5 237t167 298.5l143 -71q-22 -52 -54.5 -118t-74.5 -138t-93.5 -147t-112 -145t-129 -132t-145.5 -108t-161.5 -73t-175.5 -27q-46 0 -88.5 7t-85 21.5t-87.5 35t-96 47.5l92 145q37 -21 64 -33t56 -12q33 0 64 15t55 40
t38.5 57.5t14.5 67.5q0 33 -13.5 59t-35.5 44t-51 27.5t-60 9.5q-49 0 -90 -22l-115 80q48 48 102.5 69.5t110.5 21.5q57 0 110 -20.5t94.5 -57t66.5 -87.5t25 -111q0 -29 -6.5 -61t-19.5 -62.5t-33.5 -57t-47.5 -44.5z" />
    <glyph glyph-name="uni09F6" unicode="&#x9f6;" horiz-adv-x="1610" 
d="M182 892q57 35 122.5 55t130.5 20q59 0 106.5 -17t80.5 -47t50.5 -71.5t17.5 -90.5q0 -51 -17.5 -87.5t-46.5 -62.5t-66 -43.5t-75 -30.5t-75 -24.5t-66 -25t-46.5 -31.5t-17.5 -44q0 -15 7 -29.5t24.5 -26t48 -19t77.5 -7.5q86 0 167 25.5t156 69t143.5 101.5t130 124
t115 135.5t99.5 136.5t83 127.5t65 107.5l144 -71q-41 -69 -99.5 -163.5t-134 -196.5t-167 -201.5t-198 -178.5t-227.5 -127.5t-255 -48.5q-86 0 -149.5 20.5t-105.5 54t-63 78t-21 92.5q0 62 30.5 101.5t77 66t100 44.5t100 36t77 41t30.5 60q0 45 -29 63t-68 18
q-38 0 -80.5 -12.5t-74.5 -29.5z" />
    <glyph glyph-name="uni09F7" unicode="&#x9f7;" horiz-adv-x="464" 
d="M150 1491h164v-1491h-164v1491z" />
    <glyph glyph-name="uni09F8" unicode="&#x9f8;" horiz-adv-x="1390" 
d="M1240 0h-164v507q0 67 -6 105.5t-15.5 58t-20.5 24t-21 4.5q-31 0 -75.5 -20.5t-96.5 -55t-109 -79.5t-113 -95t-107 -101.5t-91 -97.5h-6l-92 113v937l-6 1q-26 -17 -55 -17q-21 0 -41 9t-36 24t-25.5 35.5t-9.5 44.5q0 22 9.5 47t29 46t48 34.5t66.5 13.5q52 0 87 -26
t56.5 -68t31 -95t9.5 -107v-675h6q69 55 145.5 109.5t150.5 97.5t139 70t110 27q36 0 72 -19.5t65 -61.5t47 -108t18 -160v-522z" />
    <glyph glyph-name="uni09F9" unicode="&#x9f9;" horiz-adv-x="1035" 
d="M725 674q0 41 -12.5 80.5t-38 70t-63 49.5t-87.5 19q-53 0 -93 -21t-67 -54.5t-41 -76t-14 -85.5q0 -44 13.5 -84t39 -70t62 -48t81.5 -18q48 0 88 19.5t69.5 52.5t46 76t16.5 90zM492 276q-83 0 -146.5 31.5t-107 83.5t-66 120t-22.5 142q0 85 29 158.5t80.5 127
t121.5 84t153 30.5t148.5 -30t110.5 -81t68.5 -118.5t23.5 -142.5q0 -86 -30.5 -160t-84 -128.5t-125 -85.5t-153.5 -31z" />
    <glyph glyph-name="uni09FA" unicode="&#x9fa;" horiz-adv-x="1564" 
d="M349 837q-7 -35 -14 -76t-13 -86t-9.5 -92.5t-3.5 -94.5q0 -66 9 -125t30.5 -103t58.5 -69.5t94 -25.5q66 0 139 35.5t147 100t145.5 153.5t134 196.5t114 229.5t84.5 252h6l143 -83q-14 -63 -41 -141.5t-66 -164t-89.5 -173.5t-110.5 -171t-129 -155.5t-145.5 -126.5
t-159.5 -85.5t-172 -31.5q-106 0 -174 44t-107.5 116t-54.5 164t-15 189q0 99 11.5 193t28.5 168zM562 859q0 28 10.5 52t28.5 42t42 28.5t52 10.5t52 -10.5t42 -28.5t28.5 -42t10.5 -52t-10.5 -52t-28.5 -42t-42 -28.5t-52 -10.5t-52 10.5t-42 28.5t-28.5 42t-10.5 52z" />
    <glyph glyph-name="uni09FB" unicode="&#x9fb;" horiz-adv-x="1268" 
d="M650 1290q-24 14 -52 27.5t-58.5 24.5t-63.5 18t-66 7q-26 0 -48.5 -7.5t-39.5 -25.5t-27 -48.5t-10 -76.5q0 -77 28 -152t76 -146.5t112.5 -138t137 -127t149 -114.5t150 -99t139.5 -80.5t116 -59.5l-58 -149q-54 26 -126 61.5t-153 81t-166.5 101t-166.5 121
t-153.5 141t-126.5 161.5t-85.5 182t-31.5 202q0 89 22.5 152t61.5 103t91.5 58.5t112.5 18.5q74 0 153.5 -24.5t157.5 -69.5z" />
    <glyph glyph-name="uni0A01" unicode="&#xa01;" 
d="M-313 2076q0 50 30 82t78 32q24 0 44.5 -8.5t36 -24.5t24 -37.5t8.5 -46.5q0 -49 -31 -81t-79 -32t-79.5 32t-31.5 84zM-461 2083q4 -53 22 -105.5t50.5 -94.5t81 -68t113.5 -26q35 0 76.5 11t78 43t62.5 89.5t32 150.5l148 -31q-13 -105 -49 -183t-89.5 -130t-122 -78
t-146.5 -26q-74 0 -141 24t-121 74.5t-91 129.5t-51 189z" />
    <glyph glyph-name="uni0A02" unicode="&#xa02;" 
d="M-323 1796q0 57 33.5 92.5t87.5 35.5q25 0 47.5 -10t39.5 -27.5t26.5 -41t9.5 -51.5q0 -57 -33.5 -92t-87.5 -35q-26 0 -48.5 9.5t-39 27t-26 41t-9.5 51.5z" />
    <glyph glyph-name="uni0A03" unicode="&#xa03;" horiz-adv-x="954" 
d="M477 769q-59 0 -109.5 23t-88 61t-58.5 88.5t-21 106.5q0 58 22.5 108t60.5 87t87.5 58t104.5 21q58 0 109 -22t88.5 -59.5t59.5 -87.5t22 -105q0 -59 -22.5 -109.5t-60.5 -88.5t-88 -59.5t-106 -21.5zM477 1189q-30 0 -56 -11.5t-45 -31t-30 -45t-11 -53.5
q0 -30 11 -56.5t30 -46.5t44.5 -31.5t54.5 -11.5q30 0 56.5 12t46 32.5t30.5 46.5t11 55q0 30 -11.5 55.5t-31 44.5t-45.5 30t-54 11zM477 22q-59 0 -109.5 23t-88 61t-58.5 88.5t-21 106.5q0 58 22.5 108t60.5 87t87.5 58t104.5 21q58 0 109 -22t88.5 -59.5t59.5 -87.5
t22 -105q0 -59 -22.5 -109.5t-60.5 -88.5t-88 -59.5t-106 -21.5zM477 442q-30 0 -56 -11.5t-45 -31t-30 -45t-11 -53.5q0 -30 11 -56.5t30 -46.5t44.5 -31.5t54.5 -11.5q30 0 56.5 12t46 32.5t30.5 46.5t11 55q0 30 -11.5 55.5t-31 44.5t-45.5 30t-54 11z" />
    <glyph glyph-name="uni0A05" unicode="&#xa05;" horiz-adv-x="1653" 
d="M1367 1491h321v-147h-156v-1344h-165v802q-87 -38 -161.5 -82t-148.5 -104q-14 -119 -42.5 -203t-66 -138t-80 -79t-84.5 -25q-21 0 -40.5 6.5t-34.5 20.5t-24 36.5t-9 54.5q0 34 12 78.5t40.5 96t75.5 108.5t116 116q-3 55 -12 114.5t-21.5 116.5t-27.5 109.5t-31 94.5
q-41 -26 -86 -62t-87 -75t-78.5 -77.5t-60.5 -69.5q-2 -74 -21.5 -152t-52.5 -142t-78.5 -105t-98.5 -41q-20 0 -40 6.5t-36.5 21t-26.5 37.5t-10 56q0 23 8 59.5t32 86t69 111.5t119 137q-2 100 -26 179.5t-66.5 135t-100.5 85.5t-127 30h-95v147h107q98 0 173 -37.5
t128.5 -100.5t87 -145t48.5 -170q69 66 163.5 144.5t221.5 163.5q20 -31 44 -87t47 -129t43 -159.5t32 -178.5q61 42 138.5 82.5t168.5 80.5v536z" />
    <glyph glyph-name="uni0A06" unicode="&#xa06;" horiz-adv-x="2204" 
d="M1367 1491h321v-147h-156v-1344h-165v802q-87 -38 -161.5 -82t-148.5 -104q-14 -119 -42.5 -203t-66 -138t-80 -79t-84.5 -25q-21 0 -40.5 6.5t-34.5 20.5t-24 36.5t-9 54.5q0 34 12 78.5t40.5 96t75.5 108.5t116 116q-3 55 -12 114.5t-21.5 116.5t-27.5 109.5t-31 94.5
q-41 -26 -86 -62t-87 -75t-78.5 -77.5t-60.5 -69.5q-2 -74 -21.5 -152t-52.5 -142t-78.5 -105t-98.5 -41q-20 0 -40 6.5t-36.5 21t-26.5 37.5t-10 56q0 23 8 59.5t32 86t69 111.5t119 137q-2 100 -26 179.5t-66.5 135t-100.5 85.5t-127 30h-95v147h107q98 0 173 -37.5
t128.5 -100.5t87 -145t48.5 -170q69 66 163.5 144.5t221.5 163.5q20 -31 44 -87t47 -129t43 -159.5t32 -178.5q61 42 138.5 82.5t168.5 80.5v536zM2239 1491v-147h-175v-831h-164v831h-263v147h602z" />
    <glyph glyph-name="uni0A07" unicode="&#xa07;" horiz-adv-x="1729" 
d="M193 1344h-228v147h228v202q0 96 27.5 164.5t75 111.5t111 63t134.5 20q102 0 175 -31t119.5 -83.5t68.5 -122.5t22 -148h-164q0 51 -11 95.5t-36.5 77.5t-66.5 52t-101 19q-37 0 -71 -11t-60.5 -35.5t-42.5 -63.5t-16 -96v-214h153v-147h-153v-1344h-164v1344zM1625 69
q-34 -28 -70 -46t-72.5 -28.5t-72.5 -14.5t-69 -4q-107 0 -209.5 40t-194.5 105.5t-169 150t-132 173.5q19 55 52 106.5t75 95.5t90 79t96 58q-71 43 -118 100t-74.5 127t-39.5 153.5t-14 179.5h-263v147h1324v-147h-156v-636h-349q-72 0 -140 -19t-126 -52.5t-102 -80.5
t-69 -104q64 -96 138.5 -159.5t148 -101t139 -53t111.5 -15.5q35 0 72 7t72 19t66.5 27t55.5 31v-138zM869 1344q2 -132 24 -225t69.5 -151.5t121.5 -85.5t179 -27h181v489h-575z" />
    <glyph glyph-name="uni0A08" unicode="&#xa08;" horiz-adv-x="1729" 
d="M1150 69q-34 -28 -70 -46t-72.5 -28.5t-72.5 -14.5t-69 -4q-107 0 -209.5 40t-194.5 105.5t-169 150t-132 173.5q19 55 52 106.5t75 95.5t90 79t96 58q-71 43 -118 100t-74.5 127t-39.5 153.5t-14 179.5h-263v147h1324v-147h-156v-636h-349q-72 0 -140 -19t-126 -52.5
t-102 -80.5t-69 -104q64 -96 138.5 -159.5t148 -101t139 -53t111.5 -15.5q35 0 72 7t72 19t66.5 27t55.5 31v-138zM394 1344q2 -132 24 -225t69.5 -151.5t121.5 -85.5t179 -27h181v489h-575zM1611 0h-164v1344h-228v147h228v214q0 57 -15 96t-40.5 63.5t-59.5 35.5t-73 11
q-58 0 -99 -20.5t-67.5 -55.5t-38.5 -81t-12 -97h-164q0 78 21 149.5t66.5 126t116.5 87t171 32.5q73 0 138.5 -20t114 -63t77 -111.5t28.5 -164.5v-202h153v-147h-153v-1344z" />
    <glyph glyph-name="uni0A09" unicode="&#xa09;" horiz-adv-x="1482" 
d="M1517 1491v-147h-98q0 -10 0.5 -19.5t0.5 -18.5q0 -103 -20 -194.5t-60.5 -165.5t-100.5 -127t-140 -79l-1 -5q102 -80 146 -173t44 -198q0 -96 -32.5 -169t-87.5 -121.5t-128 -73.5t-153 -25q-100 0 -184 36t-153 99.5t-124 149.5t-97 185t-72 206.5t-49 215t-28 209.5
t-9 190q0 20 0.5 39t1.5 39h-208v147h222q19 124 62.5 227t115 177.5t171.5 115.5t233 41q140 0 248.5 -45t187 -122t128 -178.5t70.5 -215.5h114zM884 855q102 0 173 33.5t114.5 93t63 139.5t19.5 173q0 12 -0.5 24.5t-1.5 25.5h-914q-1 -16 -1 -32v-32q0 -92 10 -201
t32 -224h505zM889 122q47 0 89.5 14t75 43.5t51.5 74t19 105.5q0 80 -32 143.5t-85.5 107.5t-122.5 67.5t-143 23.5h-327q31 -115 75 -220t102.5 -184.5t132.5 -127t165 -47.5zM768 1905q-94 0 -165 -30t-121.5 -85t-82 -131t-46.5 -168h879q-19 85 -56.5 160.5t-95 131.5
t-135.5 89t-177 33zM1311 -253q-62 -21 -116 -36t-106.5 -24t-107.5 -13.5t-121 -4.5t-123 4.5t-111.5 13.5t-109.5 24t-117 36v147q62 -21 115.5 -36t106 -24t108 -13.5t121.5 -4.5t122.5 4.5t111 13.5t109.5 24t118 36v-147z" />
    <glyph glyph-name="uni0A0A" unicode="&#xa0a;" horiz-adv-x="1482" 
d="M1517 1491v-147h-98q0 -10 0.5 -19.5t0.5 -18.5q0 -103 -20 -194.5t-60.5 -165.5t-100.5 -127t-140 -79l-1 -5q102 -80 146 -173t44 -198q0 -96 -32.5 -169t-87.5 -121.5t-128 -73.5t-153 -25q-100 0 -184 36t-153 99.5t-124 149.5t-97 185t-72 206.5t-49 215t-28 209.5
t-9 190q0 20 0.5 39t1.5 39h-208v147h222q19 124 62.5 227t115 177.5t171.5 115.5t233 41q140 0 248.5 -45t187 -122t128 -178.5t70.5 -215.5h114zM884 855q102 0 173 33.5t114.5 93t63 139.5t19.5 173q0 12 -0.5 24.5t-1.5 25.5h-914q-1 -16 -1 -32v-32q0 -92 10 -201
t32 -224h505zM889 122q47 0 89.5 14t75 43.5t51.5 74t19 105.5q0 80 -32 143.5t-85.5 107.5t-122.5 67.5t-143 23.5h-327q31 -115 75 -220t102.5 -184.5t132.5 -127t165 -47.5zM768 1905q-94 0 -165 -30t-121.5 -85t-82 -131t-46.5 -168h879q-19 85 -56.5 160.5t-95 131.5
t-135.5 89t-177 33zM1311 -153q-62 -21 -116 -36t-106.5 -24t-107.5 -13.5t-121 -4.5t-123 4.5t-111.5 13.5t-109.5 24t-117 36v147q62 -21 115.5 -36t106 -24t108 -13.5t121.5 -4.5t122.5 4.5t111 13.5t109.5 24t118 36v-147zM1311 -435q-62 -21 -116 -36t-106.5 -24
t-107.5 -13.5t-121 -4.5t-123 4.5t-111.5 13.5t-109.5 24t-117 36v147q62 -21 115.5 -36t106 -24t108 -13.5t121.5 -4.5t122.5 4.5t111 13.5t109.5 24t118 36v-147z" />
    <glyph glyph-name="uni0A0F" unicode="&#xa0f;" horiz-adv-x="1254" 
d="M1150 69q-34 -28 -70 -46t-72.5 -28.5t-72.5 -14.5t-69 -4q-107 0 -209.5 40t-194.5 105.5t-169 150t-132 173.5q19 55 52 106.5t75 95.5t90 79t96 58q-71 43 -118 100t-74.5 127t-39.5 153.5t-14 179.5h-263v147h1324v-147h-156v-636h-349q-72 0 -140 -19t-126 -52.5
t-102 -80.5t-69 -104q64 -96 138.5 -159.5t148 -101t139 -53t111.5 -15.5q35 0 72 7t72 19t66.5 27t55.5 31v-138zM394 1344q2 -132 24 -225t69.5 -151.5t121.5 -85.5t179 -27h181v489h-575zM456 2052h32q69 0 124 -9t103 -33t92.5 -66t91.5 -107.5t100.5 -157.5t119.5 -216
h-145q-49 100 -92 170.5t-82.5 118t-77 75t-76 41.5t-79.5 18t-87 4h-24v162z" />
    <glyph glyph-name="uni0A10" unicode="&#xa10;" horiz-adv-x="1653" 
d="M1367 1491h321v-147h-156v-1344h-165v802q-87 -38 -161.5 -82t-148.5 -104q-14 -119 -42.5 -203t-66 -138t-80 -79t-84.5 -25q-21 0 -40.5 6.5t-34.5 20.5t-24 36.5t-9 54.5q0 34 12 78.5t40.5 96t75.5 108.5t116 116q-3 55 -12 114.5t-21.5 116.5t-27.5 109.5t-31 94.5
q-41 -26 -86 -62t-87 -75t-78.5 -77.5t-60.5 -69.5q-2 -74 -21.5 -152t-52.5 -142t-78.5 -105t-98.5 -41q-20 0 -40 6.5t-36.5 21t-26.5 37.5t-10 56q0 23 8 59.5t32 86t69 111.5t119 137q-2 100 -26 179.5t-66.5 135t-100.5 85.5t-127 30h-95v147h107q98 0 173 -37.5
t128.5 -100.5t87 -145t48.5 -170q69 66 163.5 144.5t221.5 163.5q20 -31 44 -87t47 -129t43 -159.5t32 -178.5q61 42 138.5 82.5t168.5 80.5v536zM745 1916h29q53 0 97.5 -4t86 -15.5t82.5 -32t86.5 -54t98 -81t117.5 -113.5l7 5q-46 97 -89.5 167.5t-84.5 120t-78.5 79.5
t-71.5 47t-64.5 22.5t-56.5 5.5h-62v147h47q59 0 108 -11t95 -41t91 -83t96 -136t111 -200t135 -276h-133q-102 102 -182 163t-149 93.5t-131.5 42.5t-129.5 10h-55v144z" />
    </font>
</defs>
</svg>
