<?xml version="1.0" standalone="no"?>
<!DOCTYPE svg PUBLIC "-//W3C//DTD SVG 1.1//EN" "http://www.w3.org/Graphics/SVG/1.1/DTD/svg11.dtd" >
<svg xmlns="http://www.w3.org/2000/svg" xmlns:xlink="http://www.w3.org/1999/xlink" version="1.1">
<metadata>
Created by FontForge 20170731 at Thu Nov  9 13:36:02 2017
 By Aleksey,,,
(c) 2017 Microsoft Corporation. All Rights Reserved.
</metadata>
<defs>
<font id="NirmalaUI-Semilight" horiz-adv-x="0" >
  <font-face 
    font-family="Nirmala UI Semilight"
    font-weight="350"
    font-stretch="normal"
    units-per-em="2048"
    panose-1="2 11 4 2 4 2 4 2 2 3"
    ascent="1638"
    descent="-410"
    x-height="1024"
    cap-height="1434"
    bbox="-2400 -682 5603 2377"
    underline-thickness="72"
    underline-position="-286"
    unicode-range="U+000D-111F4"
  />
<missing-glyph horiz-adv-x="1322" 
d="M166 0v1398h990v-1398h-990zM314 148h694v1102h-694v-1102z" />
    <glyph glyph-name=".notdef" horiz-adv-x="1322" 
d="M166 0v1398h990v-1398h-990zM314 148h694v1102h-694v-1102z" />
    <glyph glyph-name="uni0000" 
 />
    <glyph glyph-name="uni000D" unicode="&#xd;" 
 />
    <glyph glyph-name="uni00A0" unicode="&#xa0;" horiz-adv-x="561" 
 />
    <glyph glyph-name="uni00A0" unicode=" " horiz-adv-x="561" 
 />
    <glyph glyph-name="exclam" unicode="!" horiz-adv-x="582" 
d="M344 403h-111l-14 1031h139zM291 -18q-40 0 -68 27.5t-28 67.5q0 41 28 68.5t68 27.5q19 0 36 -7t30.5 -20t21.5 -30.5t8 -38.5q0 -20 -8 -37.5t-21.5 -30.5t-30.5 -20t-36 -7z" />
    <glyph glyph-name="quotedbl" unicode="&#x22;" horiz-adv-x="744" 
d="M575 986h-115v448h115v-448zM285 986h-115v448h115v-448z" />
    <glyph glyph-name="numbersign" unicode="#" horiz-adv-x="1223" 
d="M1138 936h-266l-70 -323h283l-22 -92h-279l-87 -398h-103l86 398h-259l-85 -398h-103l85 398h-272l19 92h273l68 323h-285l20 92h284l86 406h103l-86 -406h260l87 406h102l-87 -406h269zM510 936l-71 -323h261l70 323h-260z" />
    <glyph glyph-name="dollar" unicode="$" horiz-adv-x="1079" 
d="M591 -209h-91v209q-199 0 -336 83v138q33 -25 73 -45t84.5 -34.5t90 -22t88.5 -7.5v555q-61 34 -121.5 68.5t-108.5 79.5t-78 105t-30 145q0 74 25 137t70 111t107 79t136 42v181h91v-178q88 -2 154 -17t112 -38v-131q-105 70 -266 73v-568q98 -49 164 -95t106 -92.5
t57 -96.5t17 -109q0 -70 -23.5 -130t-67.5 -106.5t-108 -77.5t-145 -43v-215zM500 1320q-95 -18 -150.5 -81t-55.5 -158q0 -44 9.5 -79.5t33 -67.5t63 -62.5t100.5 -64.5v513zM591 117q106 20 159 79.5t53 150.5q0 40 -11.5 75t-36.5 67.5t-65.5 63.5t-98.5 64v-500z" />
    <glyph glyph-name="percent" unicode="%" horiz-adv-x="1641" 
d="M410 722q-76 0 -137 26t-103.5 73.5t-65 113.5t-22.5 147q0 89 25 159t70 118.5t108 74t140 25.5q75 0 135 -25t102 -72t64.5 -114.5t22.5 -153.5q0 -81 -24.5 -149t-68.5 -117.5t-106.5 -77.5t-139.5 -28zM421 1363q-52 0 -94.5 -19t-71.5 -54.5t-45 -87t-16 -116.5
q0 -125 58.5 -197t163.5 -72q53 0 94 19.5t69 55.5t43 87t15 114q0 131 -58 200.5t-158 69.5zM431 -21h-121l891 1454h120zM1229 -23q-75 0 -136 26t-103.5 73t-65.5 113.5t-23 147.5q0 88 25 158t70 119t108.5 75t139.5 26q75 0 135 -25t102 -72t64.5 -115.5t22.5 -154.5
q0 -81 -24.5 -149t-68.5 -117.5t-106.5 -77t-139.5 -27.5zM1240 617q-52 0 -94 -19t-71.5 -54.5t-45.5 -87t-16 -116.5q0 -62 15.5 -112t44 -84.5t69.5 -53t93 -18.5t93 19t69.5 55t44 87t15.5 115q0 132 -58 200.5t-159 68.5z" />
    <glyph glyph-name="ampersand" unicode="&#x26;" horiz-adv-x="1436" 
d="M1228 0l-174 173q-197 -198 -474 -198q-104 0 -187.5 28.5t-142 80t-89.5 122.5t-31 155q0 264 329 422q-158 194 -158 340q0 72 27 133t76 106t115.5 70.5t146.5 25.5q74 0 134 -22t102 -61t65 -93t23 -118q0 -68 -18 -123.5t-58 -104t-103.5 -91.5t-154.5 -86
q90 -95 191.5 -196t216.5 -213q27 40 49.5 88.5t38.5 101.5t25 108.5t11 109.5h123q-5 -271 -169 -492q54 -53 121 -118.5t151 -148.5zM579 838q76 35 129.5 70.5t87.5 73.5t50 80t16 89q0 44 -15.5 80.5t-42.5 63t-63 41t-78 14.5q-53 0 -96 -17t-73 -47.5t-46.5 -72.5
t-16.5 -91q0 -118 148 -284zM977 253q-119 117 -227.5 227.5t-211.5 219.5q-144 -68 -210 -147.5t-66 -184.5q0 -63 23.5 -115t65.5 -88.5t101.5 -57t131.5 -20.5q226 0 393 166z" />
    <glyph glyph-name="quotesingle" unicode="'" horiz-adv-x="454" 
d="M285 986h-115v448h115v-448z" />
    <glyph glyph-name="parenleft" unicode="(" horiz-adv-x="598" 
d="M451 -326q-306 354 -306 872q0 531 308 888h123q-313 -370 -313 -886q0 -500 310 -874h-122z" />
    <glyph glyph-name="parenright" unicode=")" horiz-adv-x="598" 
d="M25 -326q310 374 310 874q0 516 -313 886h123q308 -357 308 -888q0 -518 -306 -872h-122z" />
    <glyph glyph-name="asterisk" unicode="*" horiz-adv-x="842" 
d="M487 1049l195 -255l-93 -63l-165 271l-168 -271l-92 63l194 255l-285 66l33 105l278 -100l-20 314h116l-18 -314l274 100l34 -105z" />
    <glyph glyph-name="plus" unicode="+" horiz-adv-x="1366" 
d="M737 542v-407h-108v407h-408v109h408v408h108v-408h408v-109h-408z" />
    <glyph glyph-name="comma" unicode="," horiz-adv-x="449" 
d="M140 -256h-97l133 483h131z" />
    <glyph glyph-name="uni2010" unicode="&#x2010;" horiz-adv-x="817" 
d="M144 530v110h547v-110h-547z" />
    <glyph glyph-name="uni2010" unicode="&#xad;" horiz-adv-x="817" 
d="M144 530v110h547v-110h-547z" />
    <glyph glyph-name="uni2010" unicode="-" horiz-adv-x="817" 
d="M144 530v110h547v-110h-547z" />
    <glyph glyph-name="period" unicode="." horiz-adv-x="449" 
d="M224 -20q-40 0 -68 28t-28 68q0 41 27.5 69t68.5 28q20 0 37.5 -7.5t30.5 -20t21 -30.5t8 -39q0 -20 -8 -37.5t-21 -30.5t-30.5 -20.5t-37.5 -7.5z" />
    <glyph glyph-name="slash" unicode="/" horiz-adv-x="774" 
d="M93 -238h-122l693 1672h125z" />
    <glyph glyph-name="zero" unicode="0" horiz-adv-x="1079" 
d="M526 -24q-103 0 -184 46t-137.5 135.5t-86 222.5t-29.5 307q0 382 120.5 576.5t347.5 194.5q432 0 432 -735q0 -182 -31 -321t-90.5 -234t-145.5 -143.5t-196 -48.5zM549 1346q-160 0 -244 -162t-84 -487q0 -300 80.5 -455.5t238.5 -155.5q77 0 136.5 40.5t99.5 119
t60.5 194.5t20.5 267q0 639 -308 639z" />
    <glyph glyph-name="one" unicode="1" horiz-adv-x="768" 
d="M426 0v1282q-35 -30 -78.5 -58t-89 -52.5t-91 -44t-84.5 -32.5v113q118 38 225.5 104.5t208.5 153.5h37v-1466h-128z" />
    <glyph glyph-name="two" unicode="2" horiz-adv-x="1079" 
d="M791 1066q0 68 -20.5 120.5t-57.5 88t-89 53.5t-115 18q-96 0 -184.5 -45.5t-166.5 -121.5v142q76 65 166 101t203 36q18 0 34.5 -2t32.5 -6q74 -8 134.5 -37.5t103.5 -76.5t66.5 -111.5t23.5 -143.5q0 -92 -24 -165t-68.5 -134.5t-107 -116t-139.5 -109.5
q-86 -62 -147.5 -109.5t-102 -90.5t-61.5 -86t-27 -96q-5 -14 -6.5 -28t-1.5 -31h714v-115h-849v69q0 96 22.5 166.5t70.5 132t123 122.5t180 137q71 52 126 100.5t92 100t56 109.5t19 129z" />
    <glyph glyph-name="three" unicode="3" horiz-adv-x="1079" 
d="M123 193q155 -107 320 -107q68 0 131 17t111.5 53.5t77.5 93t29 135.5q0 150 -105.5 226t-310.5 76h-114v111h105q186 0 280 73.5t94 214.5q0 127 -69.5 193.5t-208.5 66.5q-144 0 -284 -98v129q150 81 311 81q76 0 146 -21t122.5 -63.5t84 -106t31.5 -148.5
q0 -287 -284 -367v-4q70 -8 131 -34.5t106 -71t71 -106t26 -137.5q0 -102 -38 -181t-104 -133t-154.5 -82t-188.5 -28q-182 0 -316 77v141z" />
    <glyph glyph-name="four" unicode="4" horiz-adv-x="1124" 
d="M856 1434v-962h224v-116h-224v-356h-127v356h-679v116q95 108 192.5 230.5t186.5 249t164 250t126 232.5h137zM729 472v757q-74 -128 -147 -238.5t-141.5 -205t-131 -172.5t-114.5 -141h534z" />
    <glyph glyph-name="five" unicode="5" horiz-adv-x="1079" 
d="M160 172q143 -86 286 -86q82 0 148 24t112.5 68t71.5 106t25 137q0 158 -97 241t-286 83q-76 0 -218 -12l44 701h625v-116h-516l-30 -465q87 6 138 6q114 0 201.5 -29.5t147.5 -84.5t91 -134t31 -179q0 -102 -33 -186t-96 -144t-155 -93t-209 -33q-177 0 -281 56v140z
" />
    <glyph glyph-name="six" unicode="6" horiz-adv-x="1079" 
d="M996 455q0 -105 -32.5 -193t-91 -151.5t-139 -99.5t-176.5 -36q-104 0 -185.5 43.5t-138 127.5t-86.5 206t-30 278q0 187 39.5 340t113.5 261.5t179.5 167.5t238.5 59t223 -38v-127q-105 53 -222 53q-101 0 -182.5 -47.5t-138.5 -134.5t-88 -208.5t-31 -268.5h4
q103 210 343 210q91 0 164.5 -33t126 -92t81 -140t28.5 -177zM864 435q0 79 -20.5 144t-58.5 110.5t-93 70.5t-125 25q-66 0 -122.5 -26t-97.5 -70t-64 -101t-23 -119q0 -78 22 -147.5t62 -121.5t96 -82.5t124 -30.5q66 0 121 26t94.5 72.5t62 110t22.5 139.5z" />
    <glyph glyph-name="seven" unicode="7" horiz-adv-x="1034" 
d="M964 1380q-77 -139 -142.5 -263t-120 -239t-98.5 -223t-78.5 -215t-60 -216t-43.5 -224h-135q24 156 73 320t117 331t152.5 335t177.5 332h-736v116h894v-54z" />
    <glyph glyph-name="eight" unicode="8" horiz-adv-x="1079" 
d="M98 400q0 57 17 113.5t51 106t84 89.5t115 64q-97 50 -154.5 133.5t-57.5 185.5q0 79 29.5 146t81.5 116t123.5 76.5t154.5 27.5q84 0 155.5 -28t123.5 -77t81 -116t29 -145q0 -51 -15 -98t-42.5 -88t-66 -74.5t-85.5 -58.5q64 -24 113 -64t82.5 -89.5t50.5 -106
t17 -113.5q0 -97 -32.5 -175.5t-91 -133.5t-140 -84.5t-180.5 -29.5q-97 0 -178 29.5t-140 84.5t-92 133t-33 176zM235 402q0 -71 22 -128.5t62.5 -98.5t96.5 -63t125 -22q67 0 123.5 22.5t97 63t63.5 98t23 128.5q0 63 -22 119.5t-62 99t-96.5 67t-126.5 24.5
q-66 0 -122 -23t-97 -64t-64 -98t-23 -125zM285 1084q0 -55 20 -103t55 -83t82 -55.5t100 -20.5t100 20.5t82 56t55.5 83.5t20.5 102q0 56 -20 104t-54.5 83.5t-82 55.5t-101.5 20q-57 0 -104.5 -20.5t-81.5 -56.5t-52.5 -84t-18.5 -102z" />
    <glyph glyph-name="nine" unicode="9" horiz-adv-x="1079" 
d="M977 806q0 -198 -38 -352.5t-110.5 -261t-179.5 -162t-245 -55.5q-122 0 -229 43v129q117 -60 232 -60q211 0 325 168.5t114 490.5h-4q-96 -208 -336 -208q-90 0 -165 33t-129 91.5t-84 140t-30 179.5q0 106 33.5 193.5t93 150.5t141.5 97.5t179 34.5q101 0 181.5 -42
t136 -124.5t85 -204.5t29.5 -281zM834 953q0 87 -22.5 159.5t-62.5 124t-96 80.5t-122 29q-65 0 -120 -26t-95 -71.5t-63 -108.5t-23 -138q0 -81 22 -146t62 -110t96.5 -69t124.5 -24q62 0 116.5 24t95 64.5t64 95t23.5 116.5z" />
    <glyph glyph-name="colon" unicode=":" horiz-adv-x="449" 
d="M224 852q-20 0 -37.5 7.5t-30.5 21t-20.5 31t-7.5 37.5q0 40 28 67.5t68 27.5q19 0 36.5 -7t31 -19.5t21.5 -30t8 -38.5t-8 -38.5t-21.5 -30.5t-31 -20.5t-36.5 -7.5zM224 -20q-40 0 -68 28t-28 68q0 41 27.5 69t68.5 28q20 0 37.5 -7.5t30.5 -20t21 -30.5t8 -39
q0 -20 -8 -37.5t-21 -30.5t-30.5 -20.5t-37.5 -7.5z" />
    <glyph glyph-name="semicolon" unicode=";" horiz-adv-x="449" 
d="M231 852q-42 0 -69 28t-27 69t27.5 68t68.5 27q40 0 68 -27.5t28 -67.5q0 -21 -8 -38.5t-21.5 -30.5t-30.5 -20.5t-36 -7.5zM140 -256h-97l133 483h131z" />
    <glyph glyph-name="less" unicode="&#x3c;" horiz-adv-x="1366" 
d="M260 569v39l846 474v-122l-659 -367v-4l659 -324v-123z" />
    <glyph glyph-name="equal" unicode="=" horiz-adv-x="1366" 
d="M221 747v108h924v-108h-924zM221 340v108h924v-108h-924z" />
    <glyph glyph-name="greater" unicode="&#x3e;" horiz-adv-x="1366" 
d="M260 142v123l661 323v5l-661 367v122l846 -474v-39z" />
    <glyph glyph-name="question" unicode="?" horiz-adv-x="899" 
d="M356 398q-10 26 -17 66.5t-7 81.5q0 51 16 92.5t42 78.5t60.5 71t71.5 69q30 28 57.5 57t48.5 62t34 70.5t13 80.5q0 52 -18.5 92t-51 67.5t-77 42t-95.5 14.5q-90 0 -166 -32.5t-142 -95.5v142q74 51 152.5 76t167.5 25q75 0 140.5 -20.5t113.5 -60.5t76 -98.5
t28 -135.5q0 -56 -15.5 -103t-41 -87t-57.5 -75t-66 -67q-43 -41 -75.5 -73.5t-54.5 -62.5t-33.5 -61t-11.5 -69q0 -46 9.5 -83.5t19.5 -63.5h-121zM418 -18q-19 0 -36 7t-30 20t-21 30.5t-8 37.5q0 21 7.5 38.5t20.5 30t30.5 20t36.5 7.5t36.5 -7t31 -20t21.5 -30.5
t8 -38.5q0 -20 -8 -37.5t-21.5 -30.5t-31 -20t-36.5 -7z" />
    <glyph glyph-name="at" unicode="@" horiz-adv-x="1944" 
d="M1154 423q-82 -238 -290 -238q-75 0 -132 29.5t-95 79.5t-57.5 118t-19.5 144q0 60 11 123t33 121.5t56 110t80 90t105.5 60.5t131.5 22q32 0 64 -8.5t60 -25t50 -41t34 -56.5h4l10 117h106l-49 -573q0 -212 136 -212q51 0 90.5 20t69 54t50.5 78.5t33.5 92.5t18.5 97
t6 92q0 147 -48.5 265t-137 201.5t-212.5 128t-274 44.5q-105 0 -197.5 -26t-170.5 -73.5t-140 -114.5t-105 -149.5t-66 -178.5t-23 -201q0 -156 49 -285.5t140 -222t219.5 -143.5t288.5 -51q248 0 424 85v-109q-183 -76 -434 -76q-179 0 -327 59t-253.5 165t-164 253
t-58.5 322q0 116 27 223.5t77.5 201.5t123 171.5t164.5 132.5t201.5 85.5t233.5 30.5q108 0 208 -24t186.5 -68.5t157.5 -109t122 -145.5t78.5 -177t27.5 -205q0 -58 -9.5 -120.5t-29.5 -123t-51 -114.5t-74 -95t-99.5 -65t-126.5 -24q-220 0 -229 238h-4zM974 984
q-80 0 -136.5 -38.5t-92 -100t-51.5 -137t-16 -149.5q0 -63 14 -114t40.5 -86.5t64 -54.5t84.5 -19q56 0 98.5 22.5t74 59.5t52.5 85.5t34 101t18.5 105.5t5.5 99q0 112 -49 169t-141 57z" />
    <glyph glyph-name="A" unicode="A" horiz-adv-x="1303" 
d="M1115 0l-158 424h-615l-154 -424h-148l546 1434h134l543 -1434h-148zM678 1183q-7 19 -14.5 44t-12.5 57h-4q-6 -32 -13.5 -57t-14.5 -44l-232 -638h525z" />
    <glyph glyph-name="B" unicode="B" horiz-adv-x="1144" 
d="M186 0v1434h392q89 0 160.5 -24t122 -67.5t77.5 -104.5t27 -134q0 -62 -17 -116t-49 -98.5t-78.5 -77t-105.5 -51.5v-4q72 -7 131 -35t101 -73t65 -105.5t23 -132.5q0 -91 -33 -166.5t-92.5 -130t-141.5 -84.5t-181 -30h-401zM319 1312v-509h186q73 0 132 19t101 55
t64.5 87t22.5 115q0 233 -290 233h-216zM319 683v-562h247q159 0 244.5 74.5t85.5 211.5q0 276 -375 276h-202z" />
    <glyph glyph-name="C" unicode="C" horiz-adv-x="1270" 
d="M1150 53q-166 -78 -379 -78q-152 0 -276 53.5t-211.5 148.5t-135 226t-47.5 286q0 163 50.5 303.5t144.5 244t227.5 162.5t299.5 59q183 0 327 -56v-142q-154 77 -329 77q-139 0 -247 -48t-182 -133.5t-113 -202t-39 -254.5q0 -124 35 -233.5t103.5 -191.5t170.5 -130
t237 -48q207 0 364 87v-130z" />
    <glyph glyph-name="D" unicode="D" horiz-adv-x="1408" 
d="M186 0v1434h377q368 0 556 -176.5t188 -521.5q0 -166 -52.5 -302t-151.5 -232.5t-240 -149t-318 -52.5h-359zM319 1312v-1191h220q148 0 264.5 40t197.5 117.5t123.5 191.5t42.5 262q0 580 -613 580h-235z" />
    <glyph glyph-name="E" unicode="E" horiz-adv-x="1030" 
d="M186 0v1434h699v-122h-566v-526h524v-120h-524v-545h598v-121h-731z" />
    <glyph glyph-name="F" unicode="F" horiz-adv-x="976" 
d="M319 1312v-540h524v-121h-524v-651h-133v1434h699v-122h-566z" />
    <glyph glyph-name="G" unicode="G" horiz-adv-x="1386" 
d="M1240 99q-221 -124 -468 -124q-156 0 -280 53.5t-211 149t-133.5 228t-46.5 291.5q0 105 22.5 202t66 182t106.5 154t144.5 119t179.5 77t211 27q213 0 380 -76v-147q-184 102 -396 102q-131 0 -237 -48t-180.5 -132t-115.5 -198.5t-42 -248.5q-1 -133 34.5 -245.5
t105.5 -194.5t173 -128t238 -46q182 0 316 76v437h-326v121h459v-631z" />
    <glyph glyph-name="H" unicode="H" horiz-adv-x="1420" 
d="M1101 0v671h-782v-671h-133v1434h133v-643h782v643h133v-1434h-133z" />
    <glyph glyph-name="I" unicode="I" horiz-adv-x="506" 
d="M319 0h-133v1434h133v-1434z" />
    <glyph glyph-name="J" unicode="J" horiz-adv-x="697" 
d="M521 504q0 -268 -99 -398t-280 -130q-35 0 -66 4.5t-57 14.5v131q56 -30 125 -30q127 0 185.5 100t58.5 308v930h133v-930z" />
    <glyph glyph-name="K" unicode="K" horiz-adv-x="1133" 
d="M937 0l-583 671q-24 29 -31 41h-4v-712h-133v1434h133v-675h4q7 11 15 21t17 21l558 633h169l-622 -692l663 -742h-186z" />
    <glyph glyph-name="L" unicode="L" horiz-adv-x="951" 
d="M186 0v1434h133v-1313h576v-121h-709z" />
    <glyph glyph-name="M" unicode="M" horiz-adv-x="1772" 
d="M1455 0v990q0 76 12 245h-4q-14 -45 -25.5 -78t-21.5 -54l-500 -1103h-57l-501 1096q-22 50 -45 141h-4q4 -46 5.5 -105t1.5 -131v-1001h-130v1434h157l487 -1078q15 -34 29.5 -69.5t26.5 -75.5h6q14 40 25.5 73t28.5 71l491 1079h149v-1434h-131z" />
    <glyph glyph-name="N" unicode="N" horiz-adv-x="1492" 
d="M1168 0l-796 1151q-15 22 -29.5 45t-23.5 45h-5q2 -18 3.5 -50t1.5 -80v-1111h-133v1434h147l783 -1137q18 -27 32.5 -50.5t26.5 -43.5h5q-4 33 -6 74t-2 91v1066h134v-1434h-138z" />
    <glyph glyph-name="O" unicode="O" horiz-adv-x="1551" 
d="M770 -25q-155 0 -279 56.5t-210.5 154.5t-133 230.5t-46.5 284.5q0 168 46.5 307.5t135.5 239t218 155t294 55.5q152 0 273 -54.5t206 -151t130.5 -228.5t45.5 -287q0 -163 -44.5 -302.5t-131 -241.5t-213 -160t-291.5 -58zM781 1337q-130 0 -230.5 -49.5t-169.5 -134
t-104.5 -198t-36.5 -241.5q-1 -122 31.5 -233.5t98 -197t165.5 -136.5t234 -51t235.5 46.5t169.5 129t102.5 196.5t34.5 249q0 126 -30.5 239t-95 197.5t-164.5 134t-240 49.5z" />
    <glyph glyph-name="P" unicode="P" horiz-adv-x="1130" 
d="M319 558v-558h-133v1434h370q113 0 200 -28t147 -81t91 -130t31 -176q0 -100 -35 -184.5t-100.5 -146t-159.5 -96t-213 -34.5h-198zM319 1312v-632h190q185 0 281 86t96 243q0 303 -354 303h-213z" />
    <glyph glyph-name="Q" unicode="Q" horiz-adv-x="1551" 
d="M770 -24q-152 0 -275.5 53t-211 148.5t-135 229t-47.5 294.5q0 173 48.5 312.5t138.5 238.5t218.5 152.5t288.5 53.5q146 0 266.5 -52.5t207 -148t134 -228t47.5 -292.5q0 -232 -81.5 -400.5t-227.5 -260.5l396 -269h-242l-288 206q-54 -18 -113 -27.5t-124 -9.5z
M781 1337q-119 0 -218.5 -45.5t-171 -127.5t-111.5 -196.5t-40 -253.5q0 -140 38 -254t107 -195t166.5 -125t217.5 -44q125 0 225 42t170.5 122t108.5 195.5t38 261.5q0 147 -37 262t-106 194.5t-167 121.5t-220 42z" />
    <glyph glyph-name="R" unicode="R" horiz-adv-x="1181" 
d="M967 0l-216 411q-32 61 -62 102t-62 65.5t-68.5 35t-81.5 10.5h-158v-624h-133v1434h413q81 0 156.5 -24t134.5 -71t94.5 -118t35.5 -165q0 -76 -23 -140t-65.5 -113.5t-103 -84t-136.5 -51.5v-4q29 -12 53 -31t46.5 -46t44.5 -62t46 -80l241 -444h-156zM319 1312v-567
h238q72 0 132 21t102.5 60t66 94t23.5 124q0 125 -80.5 196.5t-232.5 71.5h-249z" />
    <glyph glyph-name="S" unicode="S" horiz-adv-x="1053" 
d="M130 210q36 -27 79.5 -48.5t89 -36t91.5 -22t88 -7.5q163 0 244 63t81 181q0 57 -19 99.5t-59 79.5t-101 73.5t-144 82.5q-92 50 -157.5 94.5t-107 91t-61 100.5t-19.5 123q0 87 37 156t100 117.5t147.5 74.5t180.5 26q169 0 283 -47v-147q-127 73 -298 73
q-64 0 -120.5 -15.5t-99 -45.5t-67 -74.5t-24.5 -103.5q0 -56 16.5 -96.5t53 -76.5t96 -71.5t145.5 -81.5q90 -48 157 -93.5t111.5 -95t66.5 -105t22 -123.5q0 -94 -35 -165.5t-98 -118.5t-150 -71t-191 -24q-34 0 -81 5.5t-95 16t-91.5 25t-70.5 31.5v156z" />
    <glyph glyph-name="T" unicode="T" horiz-adv-x="1060" 
d="M596 1312v-1312h-133v1312h-413v122h960v-122h-414z" />
    <glyph glyph-name="U" unicode="U" horiz-adv-x="1367" 
d="M1199 576q0 -601 -528 -601q-503 0 -503 579v880h133v-868q0 -236 95 -353t294 -117q376 0 376 456v882h133v-858z" />
    <glyph glyph-name="V" unicode="V" horiz-adv-x="1254" 
d="M681 0h-130l-522 1434h149l406 -1146q11 -32 19.5 -64.5t13.5 -67.5h4q5 28 14 61.5t23 72.5l423 1144h144z" />
    <glyph glyph-name="W" unicode="W" horiz-adv-x="1873" 
d="M1422 0h-139l-307 1063q-11 38 -17.5 73t-7.5 68h-4q-4 -58 -29 -139l-318 -1065h-139l-423 1434h148l316 -1125q11 -37 17.5 -70.5t10.5 -64.5h4q6 45 33 135l336 1125h105l315 -1129q9 -34 16 -66.5t11 -63.5h4q2 20 8 45t14 56l314 1158h145z" />
    <glyph glyph-name="X" unicode="X" horiz-adv-x="1180" 
d="M967 0l-330 548q-11 19 -23 41.5t-20 43.5h-5l-20.5 -41t-24.5 -44l-338 -548h-163l467 722l-434 712h162l307 -522q14 -23 26.5 -47.5t25.5 -50.5h4q14 29 27.5 54t26.5 46l312 520h154l-440 -710l448 -724h-162z" />
    <glyph glyph-name="Y" unicode="Y" horiz-adv-x="1119" 
d="M617 537v-537h-133v534l-450 900h151l328 -670q6 -12 16 -36t24 -61h3q6 18 17 42t27 54l343 671h142z" />
    <glyph glyph-name="Z" unicode="Z" horiz-adv-x="1167" 
d="M249 121h839v-121h-1039v39l851 1273h-783v122h988v-34z" />
    <glyph glyph-name="bracketleft" unicode="[" horiz-adv-x="598" 
d="M204 -326v1760h343v-102h-224v-1556h224v-102h-343z" />
    <glyph glyph-name="backslash" unicode="\" horiz-adv-x="763" 
d="M657 -239l-684 1673h125l681 -1673h-122z" />
    <glyph glyph-name="bracketright" unicode="]" horiz-adv-x="598" 
d="M52 -326v102h223v1556h-223v102h342v-1760h-342z" />
    <glyph glyph-name="asciicircum" unicode="^" horiz-adv-x="1366" 
d="M999 663l-319 616h-5l-309 -616h-121l403 795h53l421 -795h-123z" />
    <glyph glyph-name="underscore" unicode="_" horiz-adv-x="850" 
d="M0 -282v104h850v-104h-850z" />
    <glyph glyph-name="grave" unicode="`" horiz-adv-x="528" 
d="M334 1203l-255 328h136l227 -328h-108z" />
    <glyph glyph-name="a" unicode="a" horiz-adv-x="1026" 
d="M755 0v182h-4q-50 -98 -136.5 -152t-195.5 -54q-74 0 -133.5 21t-101 59.5t-64 92.5t-22.5 119q0 139 86 221.5t260 107.5l311 45q0 295 -229 295q-179 0 -332 -131v140q32 23 72.5 41.5t85.5 32t92.5 21t92.5 7.5q171 0 258.5 -96t87.5 -286v-666h-128zM491 497
q-69 -10 -118 -25t-81 -40.5t-47 -63t-15 -92.5q0 -41 14.5 -76t42 -60.5t67 -39.5t89.5 -14q68 0 125 26t98.5 72t65 110t23.5 139v101z" />
    <glyph glyph-name="b" unicode="b" horiz-adv-x="1175" 
d="M293 165v-165h-128v1516h128v-688h4q57 107 152.5 163.5t215.5 56.5q98 0 175.5 -35.5t131 -101.5t82 -159t28.5 -207q0 -127 -32.5 -231.5t-92.5 -179.5t-145.5 -116.5t-191.5 -41.5q-217 0 -323 189h-4zM293 426q0 -70 23.5 -131.5t65.5 -108t101.5 -73.5t131.5 -27
q77 0 139 32.5t105.5 92.5t67 145t23.5 190q0 90 -22 162.5t-62.5 123.5t-98 78t-128.5 27q-80 0 -144 -29.5t-109 -80.5t-69 -119.5t-24 -145.5v-136z" />
    <glyph glyph-name="c" unicode="c" horiz-adv-x="927" 
d="M846 46q-114 -69 -276 -71q-110 -1 -198 38t-150 108.5t-95 164t-33 205.5q0 115 35 216.5t102 177t164 119.5t222 44q127 0 232 -49v-136q-112 74 -242 74q-91 0 -162 -34.5t-119.5 -94t-74 -139t-25.5 -168.5q0 -82 21.5 -157t66 -132.5t112.5 -91.5t160 -34
q144 0 260 86v-126z" />
    <glyph glyph-name="d" unicode="d" horiz-adv-x="1176" 
d="M883 0v180h-4q-51 -97 -145.5 -150.5t-214.5 -53.5q-96 0 -174.5 35.5t-134.5 102.5t-86.5 162t-30.5 215q0 124 33.5 226.5t95 176t148 114t192.5 40.5q221 0 317 -177h4v645h128v-1516h-128zM883 618q0 67 -23 125t-64 101t-98.5 68t-126.5 25q-76 0 -140 -30
t-109.5 -86.5t-71 -137.5t-25.5 -184q0 -97 23 -174t65.5 -130t101.5 -81t131 -28q78 0 140.5 28t106 77t67 115t23.5 141v171z" />
    <glyph glyph-name="e" unicode="e" horiz-adv-x="1052" 
d="M226 489q1 -94 25 -169t69 -127t109.5 -79.5t145.5 -27.5q173 0 327 121v-126q-147 -105 -356 -105q-103 0 -187 36t-143 104.5t-91 168.5t-32 228q0 115 35 213t97 169.5t147 112t186 40.5q99 0 175 -34.5t127.5 -98.5t78.5 -156t27 -206v-64h-740zM834 601
q-3 160 -76 248t-203 88q-65 0 -120.5 -23t-97.5 -66.5t-69.5 -106t-38.5 -140.5h605z" />
    <glyph glyph-name="f" unicode="f" horiz-adv-x="603" 
d="M642 1395q-43 28 -111 28q-180 0 -180 -235v-164h255v-112h-255v-912h-128v912h-179v112h179v172q0 77 19.5 139.5t57.5 107t95.5 68.5t132.5 24q72 0 114 -19v-121z" />
    <glyph glyph-name="g" unicode="g" horiz-adv-x="1176" 
d="M1011 79q0 -285 -129.5 -422.5t-399.5 -137.5q-168 0 -318 75v130q167 -93 318 -93q401 0 401 424v123h-4q-118 -202 -360 -202q-95 0 -173.5 35t-134.5 101t-87 160.5t-31 213.5q0 126 33 229.5t94 177.5t147.5 114.5t194.5 40.5q217 0 317 -176h4v152h128v-945z
M883 622q0 64 -23 121t-64 100t-97.5 68.5t-124.5 25.5q-80 0 -144.5 -31t-110 -88t-70 -138.5t-24.5 -183.5q0 -94 23 -170t65 -129t101.5 -82t132.5 -29q76 0 138 27.5t106 76t68 114t24 141.5v177z" />
    <glyph glyph-name="h" unicode="h" horiz-adv-x="1127" 
d="M856 0v602q0 172 -62 253.5t-193 81.5q-62 0 -118 -25t-98 -72t-67 -114.5t-25 -152.5v-573h-128v1516h128v-669h4q120 201 344 201q171 0 257 -105t86 -310v-633h-128z" />
    <glyph glyph-name="i" unicode="i" horiz-adv-x="458" 
d="M228 1283q-37 0 -64 26t-27 66q0 39 27 64.5t64 25.5q19 0 36 -6.5t29.5 -18.5t20 -28.5t7.5 -36.5q0 -19 -7 -36t-20 -29.5t-29.5 -19.5t-36.5 -7zM165 0v1024h128v-1024h-128z" />
    <glyph glyph-name="j" unicode="j" horiz-adv-x="458" 
d="M293 36q0 -254 -90 -386t-287 -132q-70 0 -141 34v124q78 -46 148 -46q242 0 242 384v1010h128v-988zM228 1283q-37 0 -64 26t-27 66q0 39 27 64.5t64 25.5q19 0 36 -6.5t29.5 -18.5t20 -28.5t7.5 -36.5q0 -19 -7 -36t-20 -29.5t-29.5 -19.5t-36.5 -7z" />
    <glyph glyph-name="k" unicode="k" horiz-adv-x="963" 
d="M768 0l-471 499h-4v-499h-128v1516h128v-969h4l447 477h167l-480 -495l518 -529h-181z" />
    <glyph glyph-name="l" unicode="l" horiz-adv-x="458" 
d="M165 0v1516h128v-1516h-128z" />
    <glyph glyph-name="m" unicode="m" horiz-adv-x="1723" 
d="M1452 0v602q0 92 -14 155.5t-43.5 103.5t-75 58t-108.5 18q-56 0 -106 -26.5t-87.5 -73t-59 -109.5t-21.5 -136v-592h-128v615q0 322 -247 322q-57 0 -106 -25.5t-85.5 -71.5t-57 -110.5t-20.5 -142.5v-587h-128v1024h128v-166h4q108 190 315 190q54 0 102 -16.5t86 -46
t65.5 -70.5t41.5 -90q54 109 140.5 166t195.5 57q337 0 337 -416v-632h-128z" />
    <glyph glyph-name="n" unicode="n" horiz-adv-x="1127" 
d="M856 0v590q0 347 -252 347q-67 0 -124 -26.5t-98.5 -73.5t-65 -111.5t-23.5 -139.5v-586h-128v1024h128v-178h4q114 202 343 202q168 0 256 -109t88 -315v-624h-128z" />
    <glyph glyph-name="o" unicode="o" horiz-adv-x="1174" 
d="M584 -24q-114 0 -204.5 38t-154.5 107.5t-98 166.5t-34 215q0 128 36 229t102.5 171.5t160.5 107.5t210 37q111 0 200 -36.5t151 -105.5t95 -168t33 -225q0 -120 -34.5 -218.5t-98.5 -169.5t-156 -110t-208 -39zM594 937q-84 0 -152 -29t-116.5 -84.5t-74.5 -136
t-26 -182.5q0 -96 26 -173t73.5 -132t115.5 -84.5t152 -29.5q86 0 152 28.5t112 83t69.5 133.5t23.5 180q0 207 -92 316.5t-263 109.5z" />
    <glyph glyph-name="p" unicode="p" horiz-adv-x="1175" 
d="M293 165v-636h-128v1495h128v-196h4q57 107 152.5 163.5t215.5 56.5q98 0 175.5 -35.5t131 -100.5t82 -158t28.5 -209q0 -127 -32 -231.5t-92 -179.5t-145.5 -116.5t-192.5 -41.5q-216 0 -323 189h-4zM293 426q0 -70 23.5 -131.5t65.5 -108t101.5 -73.5t131.5 -27
q77 0 139 32.5t105.5 92.5t67 145t23.5 190q0 90 -22 162.5t-62.5 123.5t-98 78t-128.5 27q-80 0 -144 -29.5t-109 -80.5t-69 -119.5t-24 -145.5v-136z" />
    <glyph glyph-name="q" unicode="q" horiz-adv-x="1176" 
d="M883 -471v653h-4q-109 -206 -360 -206q-97 0 -176 36t-134.5 103t-85.5 162.5t-30 214.5q0 128 34.5 230.5t96.5 175t148.5 111.5t191.5 39q219 0 315 -178h4v154h128v-1495h-128zM883 612q0 69 -22.5 128.5t-63.5 103t-99 68.5t-129 25q-76 0 -139 -29.5t-108.5 -85.5
t-71 -138.5t-25.5 -187.5q0 -96 23 -172t65 -129t100 -81t128 -28q82 0 145.5 28.5t107 77.5t66.5 115t23 142v163z" />
    <glyph glyph-name="r" unicode="r" horiz-adv-x="694" 
d="M673 893q-45 33 -116 33q-51 0 -90 -19.5t-68.5 -52.5t-50 -76.5t-33 -90.5t-18 -95t-5.5 -91v-501h-127v1024h127v-219h4q18 56 45.5 100.5t63.5 75t78.5 46.5t89.5 16q31 0 55.5 -4t44.5 -12v-134z" />
    <glyph glyph-name="s" unicode="s" horiz-adv-x="832" 
d="M107 184q29 -23 63 -41t70 -31t72.5 -19.5t69.5 -6.5q228 0 228 171q0 39 -16 67.5t-46 52t-72 43.5t-95 42q-71 29 -122 59t-84 65.5t-49 78t-16 96.5q0 68 29.5 121t79.5 90t115.5 56.5t137.5 19.5q133 0 232 -50v-135q-115 74 -248 74q-48 0 -87.5 -12t-67.5 -34
t-43.5 -52.5t-15.5 -67.5q0 -38 12 -66.5t37.5 -51.5t66 -44t98.5 -45q74 -30 128 -59.5t89 -64t52 -77t17 -98.5q0 -69 -28.5 -123t-79 -91t-118.5 -56t-148 -19q-155 0 -261 65v143z" />
    <glyph glyph-name="t" unicode="t" horiz-adv-x="651" 
d="M605 12q-66 -33 -144 -33q-248 0 -248 286v647h-180v112h180v258l128 42v-300h264v-112h-264v-627q0 -104 34 -150t115 -46q60 0 115 36v-113z" />
    <glyph glyph-name="u" unicode="u" horiz-adv-x="1128" 
d="M835 0v174h-4q-104 -198 -323 -198q-365 0 -365 446v602h128v-578q0 -184 65.5 -272t200.5 -88q66 0 120.5 25.5t94 72t61.5 111.5t22 144v585h128v-1024h-128z" />
    <glyph glyph-name="v" unicode="v" horiz-adv-x="954" 
d="M530 0h-122l-392 1024h141l283 -780q26 -71 33 -125h4q12 72 31 121l293 784h137z" />
    <glyph glyph-name="w" unicode="w" horiz-adv-x="1433" 
d="M1090 0h-128l-217 752q-10 35 -16 91h-4q-2 -15 -6.5 -37t-14.5 -52l-239 -754h-125l-310 1024h137l225 -794q10 -35 14 -89h8q2 18 6.5 41t12.5 49l248 793h106l222 -795q9 -34 15 -89h8q-1 17 4 39.5t13 49.5l225 795h129z" />
    <glyph glyph-name="x" unicode="x" horiz-adv-x="902" 
d="M526 504l336 -504h-154l-208 339q-12 19 -24.5 39t-25.5 43h-4q-5 -10 -15.5 -26.5t-25.5 -41.5l-224 -353h-151l346 501l-335 523h149l213 -359q16 -27 28 -48.5t20 -35.5h4q13 19 24 38.5t23 39.5l226 365h144z" />
    <glyph glyph-name="y" unicode="y" horiz-adv-x="959" 
d="M462 -186q-60 -150 -138 -222.5t-189 -72.5q-55 0 -93 13v120q22 -8 44.5 -12t45.5 -4q63 0 109.5 39.5t80.5 119.5l89 210l-394 1019h142l293 -811q6 -16 11.5 -36.5t10.5 -40.5h5q5 17 9.5 34.5t12.5 38.5l311 815h135z" />
    <glyph glyph-name="z" unicode="z" horiz-adv-x="938" 
d="M240 112h631v-112h-826v43l643 869h-590v112h788v-36z" />
    <glyph glyph-name="braceleft" unicode="{" horiz-adv-x="598" 
d="M530 -326q-140 4 -210.5 76t-70.5 225v298q0 110 -39.5 169t-116.5 67v90q156 17 156 229v303q0 154 70.5 226.5t210.5 76.5v-106q-85 -5 -122 -55.5t-37 -161.5v-293q0 -217 -148 -262v-4q148 -46 148 -269v-282q0 -58 8 -99t27 -68t49 -40.5t75 -14.5v-105z" />
    <glyph glyph-name="bar" unicode="|" horiz-adv-x="476" 
d="M178 -481v2047h121v-2047h-121z" />
    <glyph glyph-name="braceright" unicode="}" horiz-adv-x="598" 
d="M505 509q-155 -17 -155 -236v-298q0 -153 -70.5 -225t-210.5 -76v105q41 1 71 13t49.5 37.5t29 67.5t9.5 104v282q0 222 148 269v4q-148 47 -148 262v293q0 59 -10 99.5t-29.5 66t-49.5 37.5t-70 14v106q140 -4 210.5 -76t70.5 -227v-303q0 -214 155 -229v-90z" />
    <glyph glyph-name="asciitilde" unicode="~" horiz-adv-x="1366" 
d="M1140 730q-7 -131 -74 -203.5t-182 -72.5q-103 0 -233 97q-102 75 -168 75q-140 0 -149 -167h-107q3 64 22 115t52 87t79.5 55t103.5 19q100 0 215 -84q35 -25 61.5 -42.5t49 -28t42 -15t38.5 -4.5q64 0 101 44t43 125h106z" />
    <glyph glyph-name="exclamdown" unicode="&#xa1;" horiz-adv-x="582" 
d="M292 853q-40 0 -68.5 27t-28.5 68q0 20 7.5 37.5t21 30.5t31 20.5t37.5 7.5t37 -7.5t30 -20.5t20.5 -30.5t7.5 -37.5q0 -40 -27.5 -67.5t-67.5 -27.5zM224 -407l15 1030h110l14 -1030h-139z" />
    <glyph glyph-name="cent" unicode="&#xa2;" horiz-adv-x="1079" 
d="M927 209q-93 -57 -221 -69v-193h-108v194q-100 11 -178.5 54t-133 110.5t-83 156.5t-28.5 191q0 100 27 190t80.5 163t132.5 124t183 73v206h108v-198q122 -2 223 -49v-138q-102 66 -223 72v-844q128 12 221 83v-126zM598 1087q-73 -17 -127.5 -57t-91 -96t-54.5 -125
t-18 -144q0 -70 16.5 -137t52 -122t90.5 -94t132 -54v829z" />
    <glyph glyph-name="sterling" unicode="&#xa3;" horiz-adv-x="1079" 
d="M93 0v110q233 87 233 339v199h-213v116h213v272q0 93 27.5 170.5t77 133.5t118.5 87t153 31q105 0 198 -38v-125q-96 51 -199 51q-121 0 -184 -82t-63 -243v-257h301v-116h-301v-166q0 -268 -203 -370h726v-112h-884z" />
    <glyph glyph-name="currency" unicode="&#xa4;" horiz-adv-x="1138" 
d="M946 275l-136 137q-105 -81 -241 -81q-138 0 -240 81l-137 -137l-76 79l138 132q-80 113 -80 239q0 136 80 238l-138 135l76 78l137 -136q111 81 240 81q133 0 239 -81l138 136l76 -78l-138 -135q81 -106 81 -238q0 -126 -81 -239l138 -132zM570 1013q-60 0 -112.5 -23
t-91.5 -62t-61.5 -91t-22.5 -110t23 -110.5t62.5 -92t91.5 -62.5t110 -23t110.5 23t92 62.5t62.5 92t23 110.5q0 59 -23.5 111t-63.5 91t-92 61.5t-108 22.5z" />
    <glyph glyph-name="yen" unicode="&#xa5;" horiz-adv-x="1079" 
d="M644 761h314v-111h-353v-226h353v-112h-353v-312h-128v312h-358v112h358v226h-358v111h316l-364 673h147l278 -543q33 -65 47 -104h5q8 27 19.5 54t26.5 55l281 538h138z" />
    <glyph glyph-name="brokenbar" unicode="&#xa6;" horiz-adv-x="476" 
d="M178 715v851h121v-851h-121zM178 -481v851h121v-851h-121z" />
    <glyph glyph-name="section" unicode="&#xa7;" horiz-adv-x="918" 
d="M638 409q47 -37 68.5 -85t21.5 -109t-24.5 -112.5t-68.5 -89t-106 -58.5t-136 -21q-119 0 -228 53v128q125 -69 234 -69q97 0 148 44.5t51 116.5q0 54 -34 95q-8 16 -38.5 37.5t-78.5 46.5l-83 44q-61 32 -102 67t-66.5 73t-36.5 79t-11 86q0 167 155 250
q-115 82 -115 221q0 62 23 114.5t65.5 90.5t102.5 59t134 21q121 0 207 -40v-127q-92 55 -210 55q-190 0 -190 -166q0 -34 9 -61t36.5 -53.5t78 -56t132.5 -67.5q107 -50 160 -122t53 -164q0 -166 -151 -280zM402 925q-123 -57 -123 -181q0 -42 12.5 -75.5t43.5 -64
t83 -60.5t130 -65q55 42 82 87.5t27 113.5q0 38 -10.5 68t-38.5 58t-78 56.5t-128 62.5z" />
    <glyph glyph-name="dieresis" unicode="&#xa8;" horiz-adv-x="832" 
d="M592 1203q-33 0 -58.5 23.5t-25.5 61.5q0 37 24.5 60.5t57.5 23.5q36 0 62 -24t26 -60t-24.5 -60.5t-61.5 -24.5zM234 1203q-18 0 -33.5 6.5t-27.5 18t-19 27t-7 33.5q0 37 25 60.5t59 23.5q18 0 34 -6.5t28 -17.5t19 -26.5t7 -33.5q0 -36 -25 -60.5t-60 -24.5z" />
    <glyph glyph-name="copyright" unicode="&#xa9;" horiz-adv-x="1813" 
d="M159 714q0 103 26.5 198.5t75.5 179t117 151.5t151.5 117t179 75.5t198.5 26.5t198.5 -26.5t179 -75.5t151.5 -117t117 -151.5t75.5 -179t26.5 -198.5t-26.5 -198.5t-75.5 -179t-117 -151.5t-151.5 -117t-179 -75.5t-198.5 -26.5t-198.5 26.5t-179 75.5t-151.5 117
t-117 151.5t-75.5 179t-26.5 198.5zM240 714q0 -138 52.5 -259.5t143 -212t212 -143t259.5 -52.5t259.5 52.5t212 143t143 212t52.5 259.5t-52.5 259.5t-143 212t-212 143t-259.5 52.5t-259.5 -52.5t-212 -143t-143 -212t-52.5 -259.5zM1197 268q-118 -70 -259 -70
q-101 0 -191 37t-157.5 102.5t-106.5 156t-39 197.5q0 113 35 211t101.5 170.5t162.5 114.5t217 42q130 0 233 -54v-118q-99 65 -250 65q-86 0 -156 -31.5t-120 -87t-77.5 -131t-27.5 -162.5q0 -82 27.5 -156t78 -130t122.5 -88.5t162 -32.5q139 0 245 73v-108z" />
    <glyph glyph-name="ordfeminine" unicode="&#xaa;" horiz-adv-x="774" 
d="M558 717v121h-4q-38 -67 -101.5 -103t-141.5 -36q-53 0 -96 15.5t-73 43.5t-46.5 65.5t-16.5 82.5q0 202 252 236l227 31q0 186 -159 186q-133 0 -254 -89v112q119 73 264 73q126 0 192 -70t66 -204v-464h-109zM406 1064q-55 -7 -96 -17.5t-68 -28t-40 -43.5t-13 -64
q0 -54 38.5 -87.5t106.5 -33.5q45 0 86.5 19.5t83.5 68.5q28 32 41 70.5t13 80.5v56z" />
    <glyph glyph-name="guillemotleft" unicode="&#xab;" horiz-adv-x="994" 
d="M398 200l-288 336l288 344h134l-287 -344l287 -336h-134zM750 200l-288 336l288 344h134l-287 -344l287 -336h-134z" />
    <glyph glyph-name="logicalnot" unicode="&#xac;" horiz-adv-x="1366" 
d="M1037 200v419h-815v109h924v-528h-109z" />
    <glyph glyph-name="registered" unicode="&#xae;" horiz-adv-x="1813" 
d="M857 255q-250 0 -425.5 175t-175.5 423q0 251 176.5 426t423.5 175q248 0 425 -175.5t177 -422.5q0 -250 -175.5 -425.5t-425.5 -175.5zM853 1372q-211 0 -359.5 -152.5t-148.5 -366.5q0 -213 147.5 -364.5t360.5 -151.5q214 0 365 151.5t151 364.5q0 214 -151.5 366.5
t-364.5 152.5zM1040 482l-92 190q-40 86 -77.5 115.5t-84.5 29.5h-70v-335h-97v772h226q128 0 202 -55.5t74 -147.5q0 -177 -202 -214v-3q58 -14 128 -140l102 -212h-109zM716 1174v-276h132q78 0 125 35t47 105q0 136 -191 136h-113z" />
    <glyph glyph-name="macron" unicode="&#xaf;" horiz-adv-x="635" 
d="M62 1203v96h508v-96h-508z" />
    <glyph glyph-name="degree" unicode="&#xb0;" horiz-adv-x="781" 
d="M126 1177q0 55 20.5 103t56.5 84t84 57t103 21t103 -21t84 -57t57 -84t21 -103t-21 -103t-57 -84t-84 -56.5t-103 -20.5t-103 20.5t-84 56.5t-56.5 84t-20.5 103zM227 1178q0 -34 12.5 -64.5t35 -53.5t52.5 -36.5t64 -13.5t63.5 14t51.5 37.5t34.5 53.5t12.5 63
q0 34 -11.5 64t-33 53t-51.5 36.5t-66 13.5q-35 0 -65 -13.5t-52 -36.5t-34.5 -53t-12.5 -64z" />
    <glyph glyph-name="plusminus" unicode="&#xb1;" horiz-adv-x="1366" 
d="M738 642v-408h-107v408h-409v108h409v408h107v-408h408v-108h-408zM222 0v108h924v-108h-924z" />
    <glyph glyph-name="uni00B2" unicode="&#xb2;" horiz-adv-x="712" 
d="M627 884h-536v107l239 235q57 56 91 95.5t52 71.5t24 59t6 57q0 68 -38 105t-110 37q-115 0 -219 -100v126q98 77 231 77q59 0 105 -17t78.5 -47.5t49.5 -73.5t17 -94q0 -38 -11 -77.5t-36 -82.5t-65.5 -91.5t-99.5 -105.5l-178 -171v-4h400v-106z" />
    <glyph glyph-name="uni00B3" unicode="&#xb3;" horiz-adv-x="712" 
d="M607 1119q0 -57 -21 -104t-59.5 -81.5t-93 -53.5t-122.5 -19q-121 0 -203 50v119q103 -70 206 -70q86 0 134 42t48 114q0 154 -227 154h-77v99h71q206 0 206 153q0 128 -149 128q-84 0 -179 -61v115q93 48 202 48q53 0 96.5 -15t74.5 -43t47.5 -67t16.5 -86
q0 -157 -146 -210v-4q87 -20 131 -74t44 -134z" />
    <glyph glyph-name="acute" unicode="&#xb4;" horiz-adv-x="543" 
d="M244 1203h-108l228 328h135z" />
    <glyph glyph-name="uni03BC" unicode="&#x3bc;" horiz-adv-x="1149" 
d="M869 0q-12 83 -12 177h-4q-94 -201 -305 -201q-172 0 -250 123h-6v-492h-127v1417h127v-598q0 -163 67 -249.5t200 -86.5q67 0 121.5 25.5t93.5 71.5t60 110.5t21 143.5v583h129v-764q0 -79 4 -144t12 -116h-131z" />
    <glyph glyph-name="uni03BC" unicode="&#xb5;" horiz-adv-x="1149" 
d="M869 0q-12 83 -12 177h-4q-94 -201 -305 -201q-172 0 -250 123h-6v-492h-127v1417h127v-598q0 -163 67 -249.5t200 -86.5q67 0 121.5 25.5t93.5 71.5t60 110.5t21 143.5v583h129v-764q0 -79 4 -144t12 -116h-131z" />
    <glyph glyph-name="paragraph" unicode="&#xb6;" horiz-adv-x="954" 
d="M719 1339v-1339h-96v1339h-178v-1339h-97v903q-54 0 -99.5 20.5t-79 56t-52.5 84t-19 104.5q0 60 20.5 109t55.5 84t81.5 54t98.5 19h495v-95h-130z" />
    <glyph glyph-name="uni2219" unicode="&#x2219;" horiz-adv-x="449" 
d="M224 608q-40 0 -68 28t-28 68q0 41 27.5 69t68.5 28q20 0 37.5 -7.5t30.5 -20t21 -30.5t8 -39q0 -20 -8 -37.5t-21 -30.5t-30.5 -20.5t-37.5 -7.5z" />
    <glyph glyph-name="uni2219" unicode="&#xb7;" horiz-adv-x="449" 
d="M224 608q-40 0 -68 28t-28 68q0 41 27.5 69t68.5 28q20 0 37.5 -7.5t30.5 -20t21 -30.5t8 -39q0 -20 -8 -37.5t-21 -30.5t-30.5 -20.5t-37.5 -7.5z" />
    <glyph glyph-name="cedilla" unicode="&#xb8;" horiz-adv-x="416" 
d="M391 -260q0 -173 -265 -173q-37 0 -72 3v82q47 -6 78 -6q150 0 150 91q0 82 -137 82q-11 0 -23.5 -1t-28.5 -3v185h90v-111q100 0 154 -38t54 -111z" />
    <glyph glyph-name="uni00B9" unicode="&#xb9;" horiz-adv-x="712" 
d="M634 884h-488v97h190v638l-201 -63v107l309 95v-777h190v-97z" />
    <glyph glyph-name="ordmasculine" unicode="&#xba;" horiz-adv-x="846" 
d="M428 696q-81 0 -146.5 27t-111.5 76.5t-70.5 118.5t-24.5 153q0 90 26.5 161.5t74.5 120.5t115 75t148 26q80 0 144 -26t109 -74.5t69 -118t24 -156.5q0 -84 -25 -154.5t-71.5 -121.5t-112.5 -79t-148 -28zM434 1359q-56 0 -101 -20t-77 -57t-49.5 -90.5t-17.5 -119.5
q0 -64 16.5 -115.5t48 -88t76.5 -56t102 -19.5q56 0 100.5 19.5t75 56t47 89t16.5 118.5t-16 118.5t-47 89t-74.5 56t-99.5 19.5z" />
    <glyph glyph-name="guillemotright" unicode="&#xbb;" horiz-adv-x="994" 
d="M596 880l288 -336l-288 -344h-134l287 344l-287 336h134zM244 880l288 -336l-288 -344h-134l287 344l-287 336h134z" />
    <glyph glyph-name="onequarter" unicode="&#xbc;" horiz-adv-x="1513" 
d="M615 584h-488v97h190v638l-201 -63v107l309 95v-777h190v-97zM1365 212v-211h-107v211h-393v78l377 561h123v-545h110v-94h-110zM1257 733q-22 -46 -42 -75l-232 -352h275v345q0 36 3 82h-4zM444 0h-121l860 1434h120z" />
    <glyph glyph-name="onehalf" unicode="&#xbd;" horiz-adv-x="1647" 
d="M615 584h-488v97h190v638l-201 -63v107l309 95v-777h190v-97zM1547 1h-536v107l239 235q57 56 91 95.5t52 71.5t24 59t6 57q0 68 -38 105t-110 37q-115 0 -219 -100v126q98 77 231 77q59 0 105 -17t78.5 -47.5t49.5 -73.5t17 -94q0 -38 -11 -77.5t-36 -82.5t-65.5 -91.5
t-99.5 -105.5l-178 -171v-4h400v-106zM444 0h-121l860 1434h120z" />
    <glyph glyph-name="threequarters" unicode="&#xbe;" horiz-adv-x="1513" 
d="M588 819q0 -57 -21 -104t-59.5 -81.5t-93 -53.5t-122.5 -19q-121 0 -203 50v119q103 -70 206 -70q86 0 134 42t48 114q0 154 -227 154h-77v99h71q206 0 206 153q0 128 -149 128q-84 0 -179 -61v115q93 48 202 48q53 0 96.5 -15t74.5 -43t47.5 -67t16.5 -86
q0 -157 -146 -210v-4q87 -20 131 -74t44 -134zM1365 212v-211h-107v211h-393v78l377 561h123v-545h110v-94h-110zM1257 733q-22 -46 -42 -75l-232 -352h275v345q0 36 3 82h-4zM444 0h-121l860 1434h120z" />
    <glyph glyph-name="questiondown" unicode="&#xbf;" horiz-adv-x="899" 
d="M591 628q9 -26 16.5 -66.5t7.5 -81.5q0 -51 -16 -93t-42.5 -79t-60.5 -71t-71 -69q-30 -28 -57.5 -57.5t-48.5 -62t-34 -69.5t-13 -80q0 -52 18.5 -92t51 -67.5t77 -42t95.5 -14.5q90 0 166 32.5t142 95.5v-142q-74 -51 -153 -76t-168 -25q-75 0 -140 20.5t-113.5 60.5
t-76.5 98.5t-28 135.5q0 56 15.5 102.5t41 86.5t57.5 74.5t66 67.5q43 41 75.5 73.5t54.5 63t33.5 61.5t11.5 69q0 46 -9 83.5t-19 63.5h121zM528 1044q20 0 37 -7.5t30 -20.5t20.5 -30.5t7.5 -37.5t-7.5 -37.5t-20.5 -30t-30 -20t-37 -7.5q-42 0 -69 27.5t-27 67.5
q0 20 7.5 37.5t21 30.5t31 20.5t36.5 7.5z" />
    <glyph glyph-name="Agrave" unicode="&#xc0;" horiz-adv-x="1303" 
d="M1115 0l-158 424h-615l-154 -424h-148l546 1434h134l543 -1434h-148zM678 1183q-7 19 -14.5 44t-12.5 57h-4q-6 -32 -13.5 -57t-14.5 -44l-232 -638h525zM675 1551l-255 328h136l227 -328h-108z" />
    <glyph glyph-name="Aacute" unicode="&#xc1;" horiz-adv-x="1303" 
d="M1115 0l-158 424h-615l-154 -424h-148l546 1434h134l543 -1434h-148zM678 1183q-7 19 -14.5 44t-12.5 57h-4q-6 -32 -13.5 -57t-14.5 -44l-232 -638h525zM584 1551h-108l228 328h135z" />
    <glyph glyph-name="Acircumflex" unicode="&#xc2;" horiz-adv-x="1303" 
d="M1115 0l-158 424h-615l-154 -424h-148l546 1434h134l543 -1434h-148zM678 1183q-7 19 -14.5 44t-12.5 57h-4q-6 -32 -13.5 -57t-14.5 -44l-232 -638h525zM802 1551l-161 234l-162 -234h-98l218 334h89l218 -334h-104z" />
    <glyph glyph-name="Atilde" unicode="&#xc3;" horiz-adv-x="1303" 
d="M1115 0l-158 424h-615l-154 -424h-148l546 1434h134l543 -1434h-148zM678 1183q-7 19 -14.5 44t-12.5 57h-4q-6 -32 -13.5 -57t-14.5 -44l-232 -638h525zM971 1788q0 -51 -12.5 -93t-35.5 -72.5t-56 -47.5t-75 -17q-68 0 -156 64q-70 49 -119 49q-95 0 -95 -128h-83
q0 51 12.5 93t35.5 72t56 46.5t75 16.5q68 0 154 -62q71 -51 123 -51q41 0 65.5 32.5t24.5 97.5h86z" />
    <glyph glyph-name="Adieresis" unicode="&#xc4;" horiz-adv-x="1303" 
d="M1115 0l-158 424h-615l-154 -424h-148l546 1434h134l543 -1434h-148zM678 1183q-7 19 -14.5 44t-12.5 57h-4q-6 -32 -13.5 -57t-14.5 -44l-232 -638h525zM825 1551q-33 0 -58.5 23.5t-25.5 61.5q0 37 24.5 60.5t57.5 23.5q36 0 62 -24t26 -60t-24.5 -60.5t-61.5 -24.5z
M467 1551q-18 0 -33.5 6.5t-27.5 18t-19 27t-7 33.5q0 37 25 60.5t59 23.5q18 0 34 -6.5t28 -17.5t19 -26.5t7 -33.5q0 -36 -25 -60.5t-60 -24.5z" />
    <glyph glyph-name="Aring" unicode="&#xc5;" horiz-adv-x="1304" 
d="M1115 0l-158 424h-615l-154 -424h-148l524 1376q-117 47 -117 170q0 42 16 77.5t44 61t65.5 39.5t80.5 14t79.5 -14t63.5 -38.5t42.5 -59.5t15.5 -77q0 -120 -114 -170l523 -1379h-148zM650 1663q-54 0 -87 -31.5t-33 -82.5q0 -55 32 -85t88 -30q53 0 87.5 32t34.5 83
q0 26 -9.5 47t-26 36t-38.5 23t-48 8zM690 1151q-11 29 -20.5 58.5t-18.5 74.5h-4q-6 -32 -13.5 -57t-14.5 -44l-232 -638h525z" />
    <glyph glyph-name="AE" unicode="&#xc6;" horiz-adv-x="1734" 
d="M877 0v424h-506l-206 -424h-152l698 1434h864v-125h-566v-524h525v-120h-525v-544h598v-121h-730zM877 1309h-87l-364 -764h451v764z" />
    <glyph glyph-name="Ccedilla" unicode="&#xc7;" horiz-adv-x="1270" 
d="M1150 53q-166 -78 -379 -78q-152 0 -276 53.5t-211.5 148.5t-135 226t-47.5 286q0 163 50.5 303.5t144.5 244t227.5 162.5t299.5 59q183 0 327 -56v-142q-154 77 -329 77q-139 0 -247 -48t-182 -133.5t-113 -202t-39 -254.5q0 -124 35 -233.5t103.5 -191.5t170.5 -130
t237 -48q207 0 364 87v-130zM952 -260q0 -173 -265 -173q-37 0 -72 3v82q47 -6 78 -6q150 0 150 91q0 82 -137 82q-11 0 -23.5 -1t-28.5 -3v185h90v-111q100 0 154 -38t54 -111z" />
    <glyph glyph-name="Egrave" unicode="&#xc8;" horiz-adv-x="1030" 
d="M186 0v1434h699v-122h-566v-526h524v-120h-524v-545h598v-121h-731zM566 1551l-255 328h136l227 -328h-108z" />
    <glyph glyph-name="Eacute" unicode="&#xc9;" horiz-adv-x="1030" 
d="M186 0v1434h699v-122h-566v-526h524v-120h-524v-545h598v-121h-731zM523 1551h-108l228 328h135z" />
    <glyph glyph-name="Ecircumflex" unicode="&#xca;" horiz-adv-x="1030" 
d="M186 0v1434h699v-122h-566v-526h524v-120h-524v-545h598v-121h-731zM702 1551l-161 234l-162 -234h-98l218 334h89l218 -334h-104z" />
    <glyph glyph-name="Edieresis" unicode="&#xcb;" horiz-adv-x="1030" 
d="M186 0v1434h699v-122h-566v-526h524v-120h-524v-545h598v-121h-731zM731 1551q-33 0 -58.5 23.5t-25.5 61.5q0 37 24.5 60.5t57.5 23.5q36 0 62 -24t26 -60t-24.5 -60.5t-61.5 -24.5zM373 1551q-18 0 -33.5 6.5t-27.5 18t-19 27t-7 33.5q0 37 25 60.5t59 23.5
q18 0 34 -6.5t28 -17.5t19 -26.5t7 -33.5q0 -36 -25 -60.5t-60 -24.5z" />
    <glyph glyph-name="Igrave" unicode="&#xcc;" horiz-adv-x="506" 
d="M319 0h-133v1434h133v-1434zM251 1551l-255 328h136l227 -328h-108z" />
    <glyph glyph-name="Iacute" unicode="&#xcd;" horiz-adv-x="506" 
d="M319 0h-133v1434h133v-1434zM253 1551h-108l228 328h135z" />
    <glyph glyph-name="Icircumflex" unicode="&#xce;" horiz-adv-x="506" 
d="M319 0h-133v1434h133v-1434zM414 1551l-161 234l-162 -234h-98l218 334h89l218 -334h-104z" />
    <glyph glyph-name="Idieresis" unicode="&#xcf;" horiz-adv-x="506" 
d="M319 0h-133v1434h133v-1434zM434 1551q-33 0 -58.5 23.5t-25.5 61.5q0 37 24.5 60.5t57.5 23.5q36 0 62 -24t26 -60t-24.5 -60.5t-61.5 -24.5zM76 1551q-18 0 -33.5 6.5t-27.5 18t-19 27t-7 33.5q0 37 25 60.5t59 23.5q18 0 34 -6.5t28 -17.5t19 -26.5t7 -33.5
q0 -36 -25 -60.5t-60 -24.5z" />
    <glyph glyph-name="Eth" unicode="&#xd0;" horiz-adv-x="1408" 
d="M31 776h155v658h377q368 0 556 -176.5t188 -521.5q0 -166 -52.5 -302t-151.5 -232.5t-240 -149t-318 -52.5h-359v654h-155v122zM319 1312v-536h370v-122h-370v-533h220q148 0 264.5 40t197.5 117.5t123.5 191.5t42.5 262q0 580 -613 580h-235z" />
    <glyph glyph-name="Ntilde" unicode="&#xd1;" horiz-adv-x="1492" 
d="M1168 0l-796 1151q-15 22 -29.5 45t-23.5 45h-5q2 -18 3.5 -50t1.5 -80v-1111h-133v1434h147l783 -1137q18 -27 32.5 -50.5t26.5 -43.5h5q-4 33 -6 74t-2 91v1066h134v-1434h-138zM1107 1788q0 -51 -12.5 -93t-35.5 -72.5t-56 -47.5t-75 -17q-68 0 -156 64
q-70 49 -119 49q-95 0 -95 -128h-83q0 51 12.5 93t35.5 72t56 46.5t75 16.5q68 0 154 -62q71 -51 123 -51q41 0 65.5 32.5t24.5 97.5h86z" />
    <glyph glyph-name="Ograve" unicode="&#xd2;" horiz-adv-x="1551" 
d="M770 -25q-155 0 -279 56.5t-210.5 154.5t-133 230.5t-46.5 284.5q0 168 46.5 307.5t135.5 239t218 155t294 55.5q152 0 273 -54.5t206 -151t130.5 -228.5t45.5 -287q0 -163 -44.5 -302.5t-131 -241.5t-213 -160t-291.5 -58zM781 1337q-130 0 -230.5 -49.5t-169.5 -134
t-104.5 -198t-36.5 -241.5q-1 -122 31.5 -233.5t98 -197t165.5 -136.5t234 -51t235.5 46.5t169.5 129t102.5 196.5t34.5 249q0 126 -30.5 239t-95 197.5t-164.5 134t-240 49.5zM809 1551l-255 328h136l227 -328h-108z" />
    <glyph glyph-name="Oacute" unicode="&#xd3;" horiz-adv-x="1551" 
d="M770 -25q-155 0 -279 56.5t-210.5 154.5t-133 230.5t-46.5 284.5q0 168 46.5 307.5t135.5 239t218 155t294 55.5q152 0 273 -54.5t206 -151t130.5 -228.5t45.5 -287q0 -163 -44.5 -302.5t-131 -241.5t-213 -160t-291.5 -58zM781 1337q-130 0 -230.5 -49.5t-169.5 -134
t-104.5 -198t-36.5 -241.5q-1 -122 31.5 -233.5t98 -197t165.5 -136.5t234 -51t235.5 46.5t169.5 129t102.5 196.5t34.5 249q0 126 -30.5 239t-95 197.5t-164.5 134t-240 49.5zM748 1551h-108l228 328h135z" />
    <glyph glyph-name="Ocircumflex" unicode="&#xd4;" horiz-adv-x="1551" 
d="M770 -25q-155 0 -279 56.5t-210.5 154.5t-133 230.5t-46.5 284.5q0 168 46.5 307.5t135.5 239t218 155t294 55.5q152 0 273 -54.5t206 -151t130.5 -228.5t45.5 -287q0 -163 -44.5 -302.5t-131 -241.5t-213 -160t-291.5 -58zM781 1337q-130 0 -230.5 -49.5t-169.5 -134
t-104.5 -198t-36.5 -241.5q-1 -122 31.5 -233.5t98 -197t165.5 -136.5t234 -51t235.5 46.5t169.5 129t102.5 196.5t34.5 249q0 126 -30.5 239t-95 197.5t-164.5 134t-240 49.5zM938 1551l-161 234l-162 -234h-98l218 334h89l218 -334h-104z" />
    <glyph glyph-name="Otilde" unicode="&#xd5;" horiz-adv-x="1551" 
d="M770 -25q-155 0 -279 56.5t-210.5 154.5t-133 230.5t-46.5 284.5q0 168 46.5 307.5t135.5 239t218 155t294 55.5q152 0 273 -54.5t206 -151t130.5 -228.5t45.5 -287q0 -163 -44.5 -302.5t-131 -241.5t-213 -160t-291.5 -58zM781 1337q-130 0 -230.5 -49.5t-169.5 -134
t-104.5 -198t-36.5 -241.5q-1 -122 31.5 -233.5t98 -197t165.5 -136.5t234 -51t235.5 46.5t169.5 129t102.5 196.5t34.5 249q0 126 -30.5 239t-95 197.5t-164.5 134t-240 49.5zM1097 1788q0 -51 -12.5 -93t-35.5 -72.5t-56 -47.5t-75 -17q-68 0 -156 64q-70 49 -119 49
q-95 0 -95 -128h-83q0 51 12.5 93t35.5 72t56 46.5t75 16.5q68 0 154 -62q71 -51 123 -51q41 0 65.5 32.5t24.5 97.5h86z" />
    <glyph glyph-name="Odieresis" unicode="&#xd6;" horiz-adv-x="1551" 
d="M770 -25q-155 0 -279 56.5t-210.5 154.5t-133 230.5t-46.5 284.5q0 168 46.5 307.5t135.5 239t218 155t294 55.5q152 0 273 -54.5t206 -151t130.5 -228.5t45.5 -287q0 -163 -44.5 -302.5t-131 -241.5t-213 -160t-291.5 -58zM781 1337q-130 0 -230.5 -49.5t-169.5 -134
t-104.5 -198t-36.5 -241.5q-1 -122 31.5 -233.5t98 -197t165.5 -136.5t234 -51t235.5 46.5t169.5 129t102.5 196.5t34.5 249q0 126 -30.5 239t-95 197.5t-164.5 134t-240 49.5zM958 1551q-33 0 -58.5 23.5t-25.5 61.5q0 37 24.5 60.5t57.5 23.5q36 0 62 -24t26 -60
t-24.5 -60.5t-61.5 -24.5zM600 1551q-18 0 -33.5 6.5t-27.5 18t-19 27t-7 33.5q0 37 25 60.5t59 23.5q18 0 34 -6.5t28 -17.5t19 -26.5t7 -33.5q0 -36 -25 -60.5t-60 -24.5z" />
    <glyph glyph-name="multiply" unicode="&#xd7;" horiz-adv-x="1366" 
d="M1019 183l-336 338l-336 -338l-77 77l337 336l-337 338l77 76l336 -338l336 338l77 -76l-337 -338l337 -336z" />
    <glyph glyph-name="Oslash" unicode="&#xd8;" horiz-adv-x="1551" 
d="M770 -25q-138 0 -250 44t-197 123l-164 -195l-70 58l171 204q-78 97 -118.5 222.5t-40.5 269.5q0 168 46.5 307.5t135.5 239t218 155t294 55.5q120 0 220 -34t180 -97l138 165l71 -58l-142 -169q91 -97 139.5 -232t48.5 -296q0 -163 -44.5 -302.5t-131 -241.5t-213 -160
t-291.5 -58zM1311 717q0 131 -32.5 246t-101.5 200l-772 -922q66 -68 156 -106.5t208 -38.5q134 0 235.5 46.5t169.5 129t102.5 196.5t34.5 249zM781 1337q-130 0 -230.5 -49.5t-169.5 -134t-104.5 -198t-36.5 -241.5q-1 -112 25.5 -215t81.5 -186l766 916
q-63 51 -144.5 79.5t-187.5 28.5z" />
    <glyph glyph-name="Ugrave" unicode="&#xd9;" horiz-adv-x="1367" 
d="M1199 576q0 -601 -528 -601q-503 0 -503 579v880h133v-868q0 -236 95 -353t294 -117q376 0 376 456v882h133v-858zM693 1551l-255 328h136l227 -328h-108z" />
    <glyph glyph-name="Uacute" unicode="&#xda;" horiz-adv-x="1367" 
d="M1199 576q0 -601 -528 -601q-503 0 -503 579v880h133v-868q0 -236 95 -353t294 -117q376 0 376 456v882h133v-858zM680 1551h-108l228 328h135z" />
    <glyph glyph-name="Ucircumflex" unicode="&#xdb;" horiz-adv-x="1367" 
d="M1199 576q0 -601 -528 -601q-503 0 -503 579v880h133v-868q0 -236 95 -353t294 -117q376 0 376 456v882h133v-858zM862 1551l-161 234l-162 -234h-98l218 334h89l218 -334h-104z" />
    <glyph glyph-name="Udieresis" unicode="&#xdc;" horiz-adv-x="1367" 
d="M1199 576q0 -601 -528 -601q-503 0 -503 579v880h133v-868q0 -236 95 -353t294 -117q376 0 376 456v882h133v-858zM877 1551q-33 0 -58.5 23.5t-25.5 61.5q0 37 24.5 60.5t57.5 23.5q36 0 62 -24t26 -60t-24.5 -60.5t-61.5 -24.5zM519 1551q-18 0 -33.5 6.5t-27.5 18
t-19 27t-7 33.5q0 37 25 60.5t59 23.5q18 0 34 -6.5t28 -17.5t19 -26.5t7 -33.5q0 -36 -25 -60.5t-60 -24.5z" />
    <glyph glyph-name="Yacute" unicode="&#xdd;" horiz-adv-x="1119" 
d="M617 537v-537h-133v534l-450 900h151l328 -670q6 -12 16 -36t24 -61h3q6 18 17 42t27 54l343 671h142zM545 1551h-108l228 328h135z" />
    <glyph glyph-name="Thorn" unicode="&#xde;" horiz-adv-x="1130" 
d="M319 326v-326h-133v1434h133v-232h237q231 0 350 -106t119 -310q0 -111 -39.5 -196.5t-108.5 -144t-162.5 -89t-201.5 -30.5h-194zM319 1080v-632h190q183 0 280 84.5t97 242.5q0 305 -354 305h-213z" />
    <glyph glyph-name="germandbls" unicode="&#xdf;" horiz-adv-x="1087" 
d="M445 125q75 -39 156 -39q63 0 114 21.5t87 60.5t55.5 93.5t19.5 121.5q0 76 -26.5 138.5t-77.5 110.5t-124.5 80t-168.5 45v105q67 13 120.5 41t91 69t57.5 93t20 113q0 115 -60 180t-166 65q-122 0 -186 -83.5t-64 -243.5v-1095h-128v1114q0 97 27.5 174.5t78 132
t122.5 84t160 29.5q78 0 142 -24.5t109.5 -69t71 -107t25.5 -139.5q0 -64 -18 -121.5t-52 -105t-83 -84.5t-110 -61v-4q180 -42 275.5 -152.5t95.5 -276.5q0 -88 -29 -164t-81.5 -131.5t-127 -87t-164.5 -31.5q-87 0 -162 22v127z" />
    <glyph glyph-name="agrave" unicode="&#xe0;" horiz-adv-x="1026" 
d="M755 0v182h-4q-50 -98 -136.5 -152t-195.5 -54q-74 0 -133.5 21t-101 59.5t-64 92.5t-22.5 119q0 139 86 221.5t260 107.5l311 45q0 295 -229 295q-179 0 -332 -131v140q32 23 72.5 41.5t85.5 32t92.5 21t92.5 7.5q171 0 258.5 -96t87.5 -286v-666h-128zM491 497
q-69 -10 -118 -25t-81 -40.5t-47 -63t-15 -92.5q0 -41 14.5 -76t42 -60.5t67 -39.5t89.5 -14q68 0 125 26t98.5 72t65 110t23.5 139v101zM533 1203l-255 328h136l227 -328h-108z" />
    <glyph glyph-name="aacute" unicode="&#xe1;" horiz-adv-x="1026" 
d="M755 0v182h-4q-50 -98 -136.5 -152t-195.5 -54q-74 0 -133.5 21t-101 59.5t-64 92.5t-22.5 119q0 139 86 221.5t260 107.5l311 45q0 295 -229 295q-179 0 -332 -131v140q32 23 72.5 41.5t85.5 32t92.5 21t92.5 7.5q171 0 258.5 -96t87.5 -286v-666h-128zM491 497
q-69 -10 -118 -25t-81 -40.5t-47 -63t-15 -92.5q0 -41 14.5 -76t42 -60.5t67 -39.5t89.5 -14q68 0 125 26t98.5 72t65 110t23.5 139v101zM473 1203h-108l228 328h135z" />
    <glyph glyph-name="acircumflex" unicode="&#xe2;" horiz-adv-x="1026" 
d="M755 0v182h-4q-50 -98 -136.5 -152t-195.5 -54q-74 0 -133.5 21t-101 59.5t-64 92.5t-22.5 119q0 139 86 221.5t260 107.5l311 45q0 295 -229 295q-179 0 -332 -131v140q32 23 72.5 41.5t85.5 32t92.5 21t92.5 7.5q171 0 258.5 -96t87.5 -286v-666h-128zM491 497
q-69 -10 -118 -25t-81 -40.5t-47 -63t-15 -92.5q0 -41 14.5 -76t42 -60.5t67 -39.5t89.5 -14q68 0 125 26t98.5 72t65 110t23.5 139v101zM677 1203l-161 234l-162 -234h-98l218 334h89l218 -334h-104z" />
    <glyph glyph-name="atilde" unicode="&#xe3;" horiz-adv-x="1026" 
d="M755 0v182h-4q-50 -98 -136.5 -152t-195.5 -54q-74 0 -133.5 21t-101 59.5t-64 92.5t-22.5 119q0 139 86 221.5t260 107.5l311 45q0 295 -229 295q-179 0 -332 -131v140q32 23 72.5 41.5t85.5 32t92.5 21t92.5 7.5q171 0 258.5 -96t87.5 -286v-666h-128zM491 497
q-69 -10 -118 -25t-81 -40.5t-47 -63t-15 -92.5q0 -41 14.5 -76t42 -60.5t67 -39.5t89.5 -14q68 0 125 26t98.5 72t65 110t23.5 139v101zM834 1440q0 -51 -12.5 -93t-35.5 -72.5t-56 -47.5t-75 -17q-68 0 -156 64q-70 49 -119 49q-95 0 -95 -128h-83q0 51 12.5 93t35.5 72
t56 46.5t75 16.5q68 0 154 -62q71 -51 123 -51q41 0 65.5 32.5t24.5 97.5h86z" />
    <glyph glyph-name="adieresis" unicode="&#xe4;" horiz-adv-x="1026" 
d="M755 0v182h-4q-50 -98 -136.5 -152t-195.5 -54q-74 0 -133.5 21t-101 59.5t-64 92.5t-22.5 119q0 139 86 221.5t260 107.5l311 45q0 295 -229 295q-179 0 -332 -131v140q32 23 72.5 41.5t85.5 32t92.5 21t92.5 7.5q171 0 258.5 -96t87.5 -286v-666h-128zM491 497
q-69 -10 -118 -25t-81 -40.5t-47 -63t-15 -92.5q0 -41 14.5 -76t42 -60.5t67 -39.5t89.5 -14q68 0 125 26t98.5 72t65 110t23.5 139v101zM686 1203q-33 0 -58.5 23.5t-25.5 61.5q0 37 24.5 60.5t57.5 23.5q36 0 62 -24t26 -60t-24.5 -60.5t-61.5 -24.5zM328 1203
q-18 0 -33.5 6.5t-27.5 18t-19 27t-7 33.5q0 37 25 60.5t59 23.5q18 0 34 -6.5t28 -17.5t19 -26.5t7 -33.5q0 -36 -25 -60.5t-60 -24.5z" />
    <glyph glyph-name="aring" unicode="&#xe5;" horiz-adv-x="1026" 
d="M755 0v182h-4q-50 -98 -136.5 -152t-195.5 -54q-74 0 -133.5 21t-101 59.5t-64 92.5t-22.5 119q0 139 86 221.5t260 107.5l311 45q0 295 -229 295q-179 0 -332 -131v140q32 23 72.5 41.5t85.5 32t92.5 21t92.5 7.5q171 0 258.5 -96t87.5 -286v-666h-128zM491 497
q-69 -10 -118 -25t-81 -40.5t-47 -63t-15 -92.5q0 -41 14.5 -76t42 -60.5t67 -39.5t89.5 -14q68 0 125 26t98.5 72t65 110t23.5 139v101zM518 1182q-40 0 -76 13t-64 37t-44.5 59t-16.5 78q0 42 16 77t44 60.5t65 39.5t80 14q39 0 75.5 -13t64.5 -37.5t45 -59.5t17 -78
q0 -41 -16.5 -75.5t-45 -60t-65.5 -40t-79 -14.5zM518 1486q-53 0 -86 -32t-33 -83q0 -55 32 -85t87 -30q27 0 49.5 8.5t39 24t25.5 36.5t9 46q0 53 -35 84t-88 31z" />
    <glyph glyph-name="ae" unicode="&#xe6;" horiz-adv-x="1711" 
d="M882 489q1 -95 25 -170t69 -126.5t109.5 -79t145.5 -27.5q176 0 328 121v-126q-145 -105 -356 -105q-136 0 -235.5 65.5t-151.5 190.5h-4q-139 -256 -389 -256q-76 0 -136.5 20.5t-102.5 59t-64 92.5t-22 120q0 146 96.5 228t287.5 92l273 14q0 335 -227 335
q-180 0 -334 -128v137q155 102 348 102q232 0 298 -227h4q120 227 369 227q99 0 175.5 -34.5t129 -99t79.5 -156t27 -206.5v-63h-742zM1492 601q-5 161 -77 248.5t-202 87.5q-65 0 -120.5 -23t-98 -66.5t-70.5 -105.5t-39 -141h607zM755 490l-181 -8q-85 -4 -150 -14
t-108 -32.5t-65 -62t-22 -101.5q0 -43 15 -77.5t43.5 -58.5t68.5 -37t89 -13q63 0 119.5 26t99 71t67 105.5t24.5 129.5v72z" />
    <glyph glyph-name="ccedilla" unicode="&#xe7;" horiz-adv-x="927" 
d="M846 46q-114 -69 -276 -71q-110 -1 -198 38t-150 108.5t-95 164t-33 205.5q0 115 35 216.5t102 177t164 119.5t222 44q127 0 232 -49v-136q-112 74 -242 74q-91 0 -162 -34.5t-119.5 -94t-74 -139t-25.5 -168.5q0 -82 21.5 -157t66 -132.5t112.5 -91.5t160 -34
q144 0 260 86v-126zM759 -260q0 -173 -265 -173q-37 0 -72 3v82q47 -6 78 -6q150 0 150 91q0 82 -137 82q-11 0 -23.5 -1t-28.5 -3v185h90v-111q100 0 154 -38t54 -111z" />
    <glyph glyph-name="egrave" unicode="&#xe8;" horiz-adv-x="1052" 
d="M226 489q1 -94 25 -169t69 -127t109.5 -79.5t145.5 -27.5q173 0 327 121v-126q-147 -105 -356 -105q-103 0 -187 36t-143 104.5t-91 168.5t-32 228q0 115 35 213t97 169.5t147 112t186 40.5q99 0 175 -34.5t127.5 -98.5t78.5 -156t27 -206v-64h-740zM834 601
q-3 160 -76 248t-203 88q-65 0 -120.5 -23t-97.5 -66.5t-69.5 -106t-38.5 -140.5h605zM583 1203l-255 328h136l227 -328h-108z" />
    <glyph glyph-name="eacute" unicode="&#xe9;" horiz-adv-x="1052" 
d="M226 489q1 -94 25 -169t69 -127t109.5 -79.5t145.5 -27.5q173 0 327 121v-126q-147 -105 -356 -105q-103 0 -187 36t-143 104.5t-91 168.5t-32 228q0 115 35 213t97 169.5t147 112t186 40.5q99 0 175 -34.5t127.5 -98.5t78.5 -156t27 -206v-64h-740zM834 601
q-3 160 -76 248t-203 88q-65 0 -120.5 -23t-97.5 -66.5t-69.5 -106t-38.5 -140.5h605zM510 1203h-108l228 328h135z" />
    <glyph glyph-name="ecircumflex" unicode="&#xea;" horiz-adv-x="1052" 
d="M226 489q1 -94 25 -169t69 -127t109.5 -79.5t145.5 -27.5q173 0 327 121v-126q-147 -105 -356 -105q-103 0 -187 36t-143 104.5t-91 168.5t-32 228q0 115 35 213t97 169.5t147 112t186 40.5q99 0 175 -34.5t127.5 -98.5t78.5 -156t27 -206v-64h-740zM834 601
q-3 160 -76 248t-203 88q-65 0 -120.5 -23t-97.5 -66.5t-69.5 -106t-38.5 -140.5h605zM711 1203l-161 234l-162 -234h-98l218 334h89l218 -334h-104z" />
    <glyph glyph-name="edieresis" unicode="&#xeb;" horiz-adv-x="1052" 
d="M226 489q1 -94 25 -169t69 -127t109.5 -79.5t145.5 -27.5q173 0 327 121v-126q-147 -105 -356 -105q-103 0 -187 36t-143 104.5t-91 168.5t-32 228q0 115 35 213t97 169.5t147 112t186 40.5q99 0 175 -34.5t127.5 -98.5t78.5 -156t27 -206v-64h-740zM834 601
q-3 160 -76 248t-203 88q-65 0 -120.5 -23t-97.5 -66.5t-69.5 -106t-38.5 -140.5h605zM723 1203q-33 0 -58.5 23.5t-25.5 61.5q0 37 24.5 60.5t57.5 23.5q36 0 62 -24t26 -60t-24.5 -60.5t-61.5 -24.5zM365 1203q-18 0 -33.5 6.5t-27.5 18t-19 27t-7 33.5q0 37 25 60.5
t59 23.5q18 0 34 -6.5t28 -17.5t19 -26.5t7 -33.5q0 -36 -25 -60.5t-60 -24.5z" />
    <glyph glyph-name="igrave" unicode="&#xec;" horiz-adv-x="458" 
d="M165 0v1024h128v-1024h-128zM207 1203l-255 328h136l227 -328h-108z" />
    <glyph glyph-name="iacute" unicode="&#xed;" horiz-adv-x="458" 
d="M165 0v1024h128v-1024h-128zM244 1203h-108l228 328h135z" />
    <glyph glyph-name="icircumflex" unicode="&#xee;" horiz-adv-x="458" 
d="M165 0v1024h128v-1024h-128zM389 1203l-161 234l-162 -234h-98l218 334h89l218 -334h-104z" />
    <glyph glyph-name="idieresis" unicode="&#xef;" horiz-adv-x="458" 
d="M165 0v1024h128v-1024h-128zM410 1203q-33 0 -58.5 23.5t-25.5 61.5q0 37 24.5 60.5t57.5 23.5q36 0 62 -24t26 -60t-24.5 -60.5t-61.5 -24.5zM52 1203q-18 0 -33.5 6.5t-27.5 18t-19 27t-7 33.5q0 37 25 60.5t59 23.5q18 0 34 -6.5t28 -17.5t19 -26.5t7 -33.5
q0 -36 -25 -60.5t-60 -24.5z" />
    <glyph glyph-name="eth" unicode="&#xf0;" horiz-adv-x="1117" 
d="M797 966q-97 173 -208 281l-299 -150l-43 84l273 132q-123 110 -258 201h185q39 -28 83.5 -64t95.5 -81l295 146l45 -82l-272 -133q81 -81 143 -172t103 -190.5t62 -205t21 -214.5q0 -117 -32 -216t-92 -171.5t-146.5 -113t-195.5 -40.5q-111 0 -197.5 37t-146 105.5
t-90 166t-30.5 217.5t33.5 220t95.5 172t149 112t195 40q136 0 227 -85zM569 937q-78 0 -141.5 -30.5t-108.5 -87t-69.5 -136.5t-24.5 -178q0 -97 23 -174.5t66.5 -132t106 -83.5t142.5 -29q77 0 137.5 30.5t103 86.5t65 134t22.5 174q0 426 -322 426z" />
    <glyph glyph-name="ntilde" unicode="&#xf1;" horiz-adv-x="1127" 
d="M856 0v590q0 347 -252 347q-67 0 -124 -26.5t-98.5 -73.5t-65 -111.5t-23.5 -139.5v-586h-128v1024h128v-178h4q114 202 343 202q168 0 256 -109t88 -315v-624h-128zM902 1440q0 -51 -12.5 -93t-35.5 -72.5t-56 -47.5t-75 -17q-68 0 -156 64q-70 49 -119 49
q-95 0 -95 -128h-83q0 51 12.5 93t35.5 72t56 46.5t75 16.5q68 0 154 -62q71 -51 123 -51q41 0 65.5 32.5t24.5 97.5h86z" />
    <glyph glyph-name="ograve" unicode="&#xf2;" horiz-adv-x="1174" 
d="M584 -24q-114 0 -204.5 38t-154.5 107.5t-98 166.5t-34 215q0 128 36 229t102.5 171.5t160.5 107.5t210 37q111 0 200 -36.5t151 -105.5t95 -168t33 -225q0 -120 -34.5 -218.5t-98.5 -169.5t-156 -110t-208 -39zM594 937q-84 0 -152 -29t-116.5 -84.5t-74.5 -136
t-26 -182.5q0 -96 26 -173t73.5 -132t115.5 -84.5t152 -29.5q86 0 152 28.5t112 83t69.5 133.5t23.5 180q0 207 -92 316.5t-263 109.5zM606 1203l-255 328h136l227 -328h-108z" />
    <glyph glyph-name="oacute" unicode="&#xf3;" horiz-adv-x="1174" 
d="M584 -24q-114 0 -204.5 38t-154.5 107.5t-98 166.5t-34 215q0 128 36 229t102.5 171.5t160.5 107.5t210 37q111 0 200 -36.5t151 -105.5t95 -168t33 -225q0 -120 -34.5 -218.5t-98.5 -169.5t-156 -110t-208 -39zM594 937q-84 0 -152 -29t-116.5 -84.5t-74.5 -136
t-26 -182.5q0 -96 26 -173t73.5 -132t115.5 -84.5t152 -29.5q86 0 152 28.5t112 83t69.5 133.5t23.5 180q0 207 -92 316.5t-263 109.5zM562 1203h-108l228 328h135z" />
    <glyph glyph-name="ocircumflex" unicode="&#xf4;" horiz-adv-x="1174" 
d="M584 -24q-114 0 -204.5 38t-154.5 107.5t-98 166.5t-34 215q0 128 36 229t102.5 171.5t160.5 107.5t210 37q111 0 200 -36.5t151 -105.5t95 -168t33 -225q0 -120 -34.5 -218.5t-98.5 -169.5t-156 -110t-208 -39zM594 937q-84 0 -152 -29t-116.5 -84.5t-74.5 -136
t-26 -182.5q0 -96 26 -173t73.5 -132t115.5 -84.5t152 -29.5q86 0 152 28.5t112 83t69.5 133.5t23.5 180q0 207 -92 316.5t-263 109.5zM755 1203l-161 234l-162 -234h-98l218 334h89l218 -334h-104z" />
    <glyph glyph-name="otilde" unicode="&#xf5;" horiz-adv-x="1174" 
d="M584 -24q-114 0 -204.5 38t-154.5 107.5t-98 166.5t-34 215q0 128 36 229t102.5 171.5t160.5 107.5t210 37q111 0 200 -36.5t151 -105.5t95 -168t33 -225q0 -120 -34.5 -218.5t-98.5 -169.5t-156 -110t-208 -39zM594 937q-84 0 -152 -29t-116.5 -84.5t-74.5 -136
t-26 -182.5q0 -96 26 -173t73.5 -132t115.5 -84.5t152 -29.5q86 0 152 28.5t112 83t69.5 133.5t23.5 180q0 207 -92 316.5t-263 109.5zM921 1440q0 -51 -12.5 -93t-35.5 -72.5t-56 -47.5t-75 -17q-68 0 -156 64q-70 49 -119 49q-95 0 -95 -128h-83q0 51 12.5 93t35.5 72
t56 46.5t75 16.5q68 0 154 -62q71 -51 123 -51q41 0 65.5 32.5t24.5 97.5h86z" />
    <glyph glyph-name="odieresis" unicode="&#xf6;" horiz-adv-x="1174" 
d="M584 -24q-114 0 -204.5 38t-154.5 107.5t-98 166.5t-34 215q0 128 36 229t102.5 171.5t160.5 107.5t210 37q111 0 200 -36.5t151 -105.5t95 -168t33 -225q0 -120 -34.5 -218.5t-98.5 -169.5t-156 -110t-208 -39zM594 937q-84 0 -152 -29t-116.5 -84.5t-74.5 -136
t-26 -182.5q0 -96 26 -173t73.5 -132t115.5 -84.5t152 -29.5q86 0 152 28.5t112 83t69.5 133.5t23.5 180q0 207 -92 316.5t-263 109.5zM770 1203q-33 0 -58.5 23.5t-25.5 61.5q0 37 24.5 60.5t57.5 23.5q36 0 62 -24t26 -60t-24.5 -60.5t-61.5 -24.5zM412 1203
q-18 0 -33.5 6.5t-27.5 18t-19 27t-7 33.5q0 37 25 60.5t59 23.5q18 0 34 -6.5t28 -17.5t19 -26.5t7 -33.5q0 -36 -25 -60.5t-60 -24.5z" />
    <glyph glyph-name="divide" unicode="&#xf7;" horiz-adv-x="1366" 
d="M688 867q-38 0 -64.5 26.5t-26.5 64.5q0 39 26 66t65 27q42 0 65.5 -24.5t23.5 -67.5q0 -40 -26 -66t-63 -26zM222 542v109h924v-109h-924zM686 143q-19 0 -36 7t-29.5 19t-19.5 28.5t-7 35.5q0 39 26.5 66.5t65.5 27.5q42 0 65 -24.5t23 -68.5q0 -19 -6.5 -35.5
t-18.5 -29t-28 -19.5t-35 -7z" />
    <glyph glyph-name="oslash" unicode="&#xf8;" horiz-adv-x="1174" 
d="M983 869q98 -140 98 -353q0 -123 -35 -222.5t-99.5 -170t-156.5 -109t-206 -38.5q-193 0 -318 107l-156 -172l-71 68l159 176q-105 141 -105 348q0 128 36 229t103 171t161 107.5t210 37.5q192 0 314 -106l167 183l73 -67zM833 851q-89 86 -239 86q-85 0 -153.5 -29.5
t-116.5 -85t-73.5 -136t-25.5 -181.5q0 -150 63 -255zM349 173q95 -87 242 -87q86 0 153 29t112.5 83.5t69.5 134t24 179.5q0 152 -56 258z" />
    <glyph glyph-name="ugrave" unicode="&#xf9;" horiz-adv-x="1128" 
d="M835 0v174h-4q-104 -198 -323 -198q-365 0 -365 446v602h128v-578q0 -184 65.5 -272t200.5 -88q66 0 120.5 25.5t94 72t61.5 111.5t22 144v585h128v-1024h-128zM568 1203l-255 328h136l227 -328h-108z" />
    <glyph glyph-name="uacute" unicode="&#xfa;" horiz-adv-x="1128" 
d="M835 0v174h-4q-104 -198 -323 -198q-365 0 -365 446v602h128v-578q0 -184 65.5 -272t200.5 -88q66 0 120.5 25.5t94 72t61.5 111.5t22 144v585h128v-1024h-128zM560 1203h-108l228 328h135z" />
    <glyph glyph-name="ucircumflex" unicode="&#xfb;" horiz-adv-x="1128" 
d="M835 0v174h-4q-104 -198 -323 -198q-365 0 -365 446v602h128v-578q0 -184 65.5 -272t200.5 -88q66 0 120.5 25.5t94 72t61.5 111.5t22 144v585h128v-1024h-128zM729 1203l-161 234l-162 -234h-98l218 334h89l218 -334h-104z" />
    <glyph glyph-name="udieresis" unicode="&#xfc;" horiz-adv-x="1128" 
d="M835 0v174h-4q-104 -198 -323 -198q-365 0 -365 446v602h128v-578q0 -184 65.5 -272t200.5 -88q66 0 120.5 25.5t94 72t61.5 111.5t22 144v585h128v-1024h-128zM752 1203q-33 0 -58.5 23.5t-25.5 61.5q0 37 24.5 60.5t57.5 23.5q36 0 62 -24t26 -60t-24.5 -60.5
t-61.5 -24.5zM394 1203q-18 0 -33.5 6.5t-27.5 18t-19 27t-7 33.5q0 37 25 60.5t59 23.5q18 0 34 -6.5t28 -17.5t19 -26.5t7 -33.5q0 -36 -25 -60.5t-60 -24.5z" />
    <glyph glyph-name="yacute" unicode="&#xfd;" horiz-adv-x="959" 
d="M462 -186q-60 -150 -138 -222.5t-189 -72.5q-55 0 -93 13v120q22 -8 44.5 -12t45.5 -4q63 0 109.5 39.5t80.5 119.5l89 210l-394 1019h142l293 -811q6 -16 11.5 -36.5t10.5 -40.5h5q5 17 9.5 34.5t12.5 38.5l311 815h135zM473 1203h-108l228 328h135z" />
    <glyph glyph-name="thorn" unicode="&#xfe;" horiz-adv-x="1175" 
d="M293 165v-636h-128v1987h128v-688h4q57 107 152.5 163.5t215.5 56.5q98 0 175.5 -35.5t131 -100.5t82 -158t28.5 -209q0 -127 -32 -231.5t-92 -179.5t-145.5 -116.5t-192.5 -41.5q-216 0 -323 189h-4zM293 426q0 -70 23.5 -131.5t65.5 -108t101.5 -73.5t131.5 -27
q77 0 139 32.5t105.5 92.5t67 145t23.5 190q0 90 -22 162.5t-62.5 123.5t-98 78t-128.5 27q-80 0 -144 -29.5t-109 -80.5t-69 -119.5t-24 -145.5v-136z" />
    <glyph glyph-name="ydieresis" unicode="&#xff;" horiz-adv-x="959" 
d="M462 -186q-60 -150 -138 -222.5t-189 -72.5q-55 0 -93 13v120q22 -8 44.5 -12t45.5 -4q63 0 109.5 39.5t80.5 119.5l89 210l-394 1019h142l293 -811q6 -16 11.5 -36.5t10.5 -40.5h5q5 17 9.5 34.5t12.5 38.5l311 815h135zM662 1203q-33 0 -58.5 23.5t-25.5 61.5
q0 37 24.5 60.5t57.5 23.5q36 0 62 -24t26 -60t-24.5 -60.5t-61.5 -24.5zM304 1203q-18 0 -33.5 6.5t-27.5 18t-19 27t-7 33.5q0 37 25 60.5t59 23.5q18 0 34 -6.5t28 -17.5t19 -26.5t7 -33.5q0 -36 -25 -60.5t-60 -24.5z" />
    <glyph glyph-name="dotlessi" unicode="&#x131;" horiz-adv-x="458" 
d="M165 0v1024h128v-1024h-128z" />
    <glyph glyph-name="OE" unicode="&#x152;" horiz-adv-x="1920" 
d="M1083 0q-48 -5 -122.5 -14.5t-178.5 -9.5q-160 0 -286 53.5t-214 149.5t-134.5 229t-46.5 293q0 172 48.5 311.5t139.5 238.5t221.5 153t293.5 54q41 0 85 -3t83 -7t68.5 -8t42.5 -6h679v-122h-565v-526h524v-120h-524v-545h598v-121h-712zM1063 1309q-143 28 -270 28
q-125 0 -227 -46.5t-174.5 -129t-112 -197t-39.5 -250.5t37.5 -249.5t108 -195.5t171 -127.5t227.5 -45.5q125 0 279 32v1181z" />
    <glyph glyph-name="oe" unicode="&#x153;" horiz-adv-x="1893" 
d="M1078 489q1 -95 25.5 -170t69.5 -126.5t109 -79t145 -27.5q176 0 328 121v-126q-147 -105 -354 -105q-282 0 -388 266h-4q-123 -266 -425 -266q-114 0 -205 38t-154.5 107.5t-97.5 166.5t-34 214q0 129 36.5 230.5t103.5 171.5t161 107t209 37q152 0 258 -68.5
t155 -197.5h4q117 266 396 266q97 0 172 -34.5t126.5 -98.5t78.5 -155.5t27 -205.5v-65h-742zM1687 601q-4 159 -76.5 247.5t-200.5 88.5q-66 0 -122.5 -24t-99.5 -68t-70.5 -106t-36.5 -138h606zM594 937q-85 0 -153 -29.5t-116 -85.5t-74 -136.5t-26 -182.5
q0 -95 25.5 -172t73 -131.5t115 -84t152.5 -29.5q86 0 152.5 28.5t112.5 83t69.5 133.5t23.5 179q0 103 -23.5 182.5t-69 134t-111.5 82.5t-151 28z" />
    <glyph glyph-name="Scaron" unicode="&#x160;" horiz-adv-x="1053" 
d="M130 210q36 -27 79.5 -48.5t89 -36t91.5 -22t88 -7.5q163 0 244 63t81 181q0 57 -19 99.5t-59 79.5t-101 73.5t-144 82.5q-92 50 -157.5 94.5t-107 91t-61 100.5t-19.5 123q0 87 37 156t100 117.5t147.5 74.5t180.5 26q169 0 283 -47v-147q-127 73 -298 73
q-64 0 -120.5 -15.5t-99 -45.5t-67 -74.5t-24.5 -103.5q0 -56 16.5 -96.5t53 -76.5t96 -71.5t145.5 -81.5q90 -48 157 -93.5t111.5 -95t66.5 -105t22 -123.5q0 -94 -35 -165.5t-98 -118.5t-150 -71t-191 -24q-34 0 -81 5.5t-95 16t-91.5 25t-70.5 31.5v156zM589 1551h-89
l-218 333h101l161 -235l162 235h100z" />
    <glyph glyph-name="scaron" unicode="&#x161;" horiz-adv-x="832" 
d="M107 184q29 -23 63 -41t70 -31t72.5 -19.5t69.5 -6.5q228 0 228 171q0 39 -16 67.5t-46 52t-72 43.5t-95 42q-71 29 -122 59t-84 65.5t-49 78t-16 96.5q0 68 29.5 121t79.5 90t115.5 56.5t137.5 19.5q133 0 232 -50v-135q-115 74 -248 74q-48 0 -87.5 -12t-67.5 -34
t-43.5 -52.5t-15.5 -67.5q0 -38 12 -66.5t37.5 -51.5t66 -44t98.5 -45q74 -30 128 -59.5t89 -64t52 -77t17 -98.5q0 -69 -28.5 -123t-79 -91t-118.5 -56t-148 -19q-155 0 -261 65v143zM456 1203h-89l-218 333h101l161 -235l162 235h100z" />
    <glyph glyph-name="Ydieresis" unicode="&#x178;" horiz-adv-x="1119" 
d="M617 537v-537h-133v534l-450 900h151l328 -670q6 -12 16 -36t24 -61h3q6 18 17 42t27 54l343 671h142zM732 1551q-33 0 -58.5 23.5t-25.5 61.5q0 37 24.5 60.5t57.5 23.5q36 0 62 -24t26 -60t-24.5 -60.5t-61.5 -24.5zM374 1551q-18 0 -33.5 6.5t-27.5 18t-19 27t-7 33.5
q0 37 25 60.5t59 23.5q18 0 34 -6.5t28 -17.5t19 -26.5t7 -33.5q0 -36 -25 -60.5t-60 -24.5z" />
    <glyph glyph-name="Zcaron" unicode="&#x17d;" horiz-adv-x="1167" 
d="M249 121h839v-121h-1039v39l851 1273h-783v122h988v-34zM667 1551h-89l-218 333h101l161 -235l162 235h100z" />
    <glyph glyph-name="zcaron" unicode="&#x17e;" horiz-adv-x="938" 
d="M240 112h631v-112h-826v43l643 869h-590v112h788v-36zM549 1203h-89l-218 333h101l161 -235l162 235h100z" />
    <glyph glyph-name="florin" unicode="&#x192;" horiz-adv-x="1079" 
d="M931 1302q-39 21 -88 21q-162 0 -189 -181l-32 -219h169v-110h-185l-94 -677q-30 -214 -114 -314t-214 -100q-17 0 -37 3t-44 11v113q37 -17 77 -17q161 0 204 307l94 674h-104v110h121l40 265q9 60 36 105.5t66.5 77t89.5 47.5t105 16q54 0 99 -15v-117z" />
    <glyph glyph-name="quoteright" unicode="&#x2019;" horiz-adv-x="453" 
d="M207 998h-96l118 448h126z" />
    <glyph glyph-name="quoteright" unicode="&#x2bc;" horiz-adv-x="453" 
d="M207 998h-96l118 448h126z" />
    <glyph glyph-name="circumflex" unicode="&#x2c6;" horiz-adv-x="763" 
d="M531 1203l-161 234l-162 -234h-98l218 334h89l218 -334h-104z" />
    <glyph glyph-name="caron" unicode="&#x2c7;" horiz-adv-x="763" 
d="M431 1203h-89l-218 333h101l161 -235l162 235h100z" />
    <glyph glyph-name="breve" unicode="&#x2d8;" horiz-adv-x="616" 
d="M579 1446q-7 -55 -30 -99.5t-59 -76.5t-83.5 -49.5t-102.5 -17.5q-57 0 -104.5 17t-82.5 48.5t-56 76.5t-24 101h92q6 -76 52 -116.5t125 -40.5q34 0 64 11.5t54 32t39.5 49.5t20.5 64h95z" />
    <glyph glyph-name="ring" unicode="&#x2da;" horiz-adv-x="584" 
d="M290 1182q-40 0 -76 13t-64 37t-44.5 59t-16.5 78q0 42 16 77t44 60.5t65 39.5t80 14q39 0 75.5 -13t64.5 -37.5t45 -59.5t17 -78q0 -41 -16.5 -75.5t-45 -60t-65.5 -40t-79 -14.5zM290 1486q-53 0 -86 -32t-33 -83q0 -55 32 -85t87 -30q27 0 49.5 8.5t39 24t25.5 36.5
t9 46q0 53 -35 84t-88 31z" />
    <glyph glyph-name="tilde" unicode="&#x2dc;" horiz-adv-x="669" 
d="M670 1440q0 -51 -12.5 -93t-35.5 -72.5t-56 -47.5t-75 -17q-68 0 -156 64q-70 49 -119 49q-95 0 -95 -128h-83q0 51 12.5 93t35.5 72t56 46.5t75 16.5q68 0 154 -62q71 -51 123 -51q41 0 65.5 32.5t24.5 97.5h86z" />
    <glyph glyph-name="uni0900" unicode="&#x900;" 
d="M74 1712q-15 73 -37.5 134t-59 104.5t-89 67.5t-126.5 24q-43 0 -90.5 -11t-90.5 -46t-77.5 -100t-51.5 -173l-124 27q18 115 59.5 196.5t99 133t128 75t146.5 23.5t144 -24t124 -75.5t98 -133t67 -195.5zM-352 1748q0 51 31 83.5t79 32.5q24 0 45 -9t36.5 -25t24.5 -38
t9 -49q0 -52 -31 -84t-79 -32q-50 0 -82.5 33.5t-32.5 87.5z" />
    <glyph glyph-name="uni0901" unicode="&#x901;" 
d="M-552 2098q15 -73 37.5 -134t59 -104.5t89 -67.5t126.5 -24q43 0 90.5 11t90.5 46t77.5 100t51.5 173l124 -27q-18 -116 -59.5 -197t-99.5 -132.5t-128 -75t-146 -23.5q-77 0 -144.5 24t-123.5 75.5t-98 133t-67 195.5zM-351 2067q0 51 31 83.5t79 32.5q24 0 45 -9
t36.5 -25t24.5 -38t9 -49q0 -52 -31 -84t-79 -32q-50 0 -82.5 33.5t-32.5 87.5z" />
    <glyph glyph-name="uni0902" unicode="&#x902;" 
d="M-352 1792q0 53 32 86.5t82 33.5q25 0 47 -9.5t38 -26t25 -39.5t9 -50q0 -54 -32.5 -87t-81.5 -33q-26 0 -47.5 9t-37.5 25.5t-25 39.5t-9 51z" />
    <glyph glyph-name="uni0903" unicode="&#x903;" horiz-adv-x="506" 
d="M126 384q0 53 32 86.5t82 33.5q25 0 47 -9.5t38 -26t25 -39.5t9 -50q0 -54 -32.5 -87t-81.5 -33q-26 0 -47.5 9t-37.5 25.5t-25 39.5t-9 51zM126 989q0 53 32 86.5t82 33.5q25 0 47 -9.5t38 -26t25 -39.5t9 -50q0 -54 -32.5 -87t-81.5 -33q-26 0 -47.5 9t-37.5 25.5
t-25 39.5t-9 51z" />
    <glyph glyph-name="uni0904" unicode="&#x904;" horiz-adv-x="1644" 
d="M824 931q70 -32 115 -74q37 -7 71 -11t66 -4q75 0 140 27t128 94v528h335v-114h-207v-1377h-128v805l-6 1q-51 -41 -105 -57.5t-109 -16.5q-27 0 -54 3.5t-54 9.5q11 -29 16.5 -60t5.5 -66q0 -79 -25.5 -145t-72.5 -114t-113.5 -74.5t-148.5 -26.5q-102 0 -181.5 37
t-140.5 94t-104 126t-72 133t-44.5 115t-21.5 73l101 47q18 -54 39.5 -112t49 -114.5t62 -107t79.5 -89t101.5 -61t127.5 -22.5q64 0 110.5 19t76.5 51t44 75.5t14 93.5q0 54 -17 98.5t-56 76.5t-101.5 49.5t-152.5 17.5q-6 0 -17.5 -0.5t-22.5 -2.5v121q7 -1 10.5 -1h8.5
q77 0 134 21.5t95 56t57 78t19 87.5q0 41 -15 73t-41 53.5t-62 33t-79 11.5q-44 0 -98.5 -15t-135.5 -54l-56 103q78 38 149.5 59.5t141.5 21.5q69 0 127 -21t99 -59.5t64 -91.5t23 -117q0 -87 -42.5 -157.5t-126.5 -123.5v-4zM1345 1464q-6 107 -30 167t-64.5 89t-97.5 37
t-129 12q-62 3 -123.5 10.5t-115.5 39t-95.5 98.5t-61.5 189l96 24q15 -86 48 -133t78 -69.5t99 -27.5t111 -7q46 -2 91 -7t86 -19.5t76.5 -42t63.5 -74.5t46.5 -117t24.5 -169h-103z" />
    <glyph glyph-name="uni0905" unicode="&#x905;" horiz-adv-x="1644" 
d="M824 931q70 -32 115 -74q37 -7 71 -11t66 -4q75 0 140 27t128 94v528h335v-114h-207v-1377h-128v805l-6 1q-51 -41 -105 -57.5t-109 -16.5q-27 0 -54 3.5t-54 9.5q11 -29 16.5 -60t5.5 -66q0 -79 -25.5 -145t-72.5 -114t-113.5 -74.5t-148.5 -26.5q-102 0 -181.5 37
t-140.5 94t-104 126t-72 133t-44.5 115t-21.5 73l101 47q18 -54 39.5 -112t49 -114.5t62 -107t79.5 -89t101.5 -61t127.5 -22.5q64 0 110.5 19t76.5 51t44 75.5t14 93.5q0 54 -17 98.5t-56 76.5t-101.5 49.5t-152.5 17.5q-6 0 -17.5 -0.5t-22.5 -2.5v121q7 -1 10.5 -1h8.5
q77 0 134 21.5t95 56t57 78t19 87.5q0 41 -15 73t-41 53.5t-62 33t-79 11.5q-44 0 -98.5 -15t-135.5 -54l-56 103q78 38 149.5 59.5t141.5 21.5q69 0 127 -21t99 -59.5t64 -91.5t23 -117q0 -87 -42.5 -157.5t-126.5 -123.5v-4z" />
    <glyph glyph-name="uni0906" unicode="&#x906;" horiz-adv-x="2146" 
d="M824 931q70 -32 115 -74q37 -7 71 -11t66 -4q75 0 140 27t128 94v528h335v-114h-207v-1377h-128v805l-6 1q-51 -41 -105 -57.5t-109 -16.5q-27 0 -54 3.5t-54 9.5q11 -29 16.5 -60t5.5 -66q0 -79 -25.5 -145t-72.5 -114t-113.5 -74.5t-148.5 -26.5q-102 0 -181.5 37
t-140.5 94t-104 126t-72 133t-44.5 115t-21.5 73l101 47q18 -54 39.5 -112t49 -114.5t62 -107t79.5 -89t101.5 -61t127.5 -22.5q64 0 110.5 19t76.5 51t44 75.5t14 93.5q0 54 -17 98.5t-56 76.5t-101.5 49.5t-152.5 17.5q-6 0 -17.5 -0.5t-22.5 -2.5v121q7 -1 10.5 -1h8.5
q77 0 134 21.5t95 56t57 78t19 87.5q0 41 -15 73t-41 53.5t-62 33t-79 11.5q-44 0 -98.5 -15t-135.5 -54l-56 103q78 38 149.5 59.5t141.5 21.5q69 0 127 -21t99 -59.5t64 -91.5t23 -117q0 -87 -42.5 -157.5t-126.5 -123.5v-4zM2181 1377h-210v-1377h-128v1377h-239v114h577
v-114z" />
    <glyph glyph-name="uni0907" unicode="&#x907;" horiz-adv-x="1138" 
d="M650 109q75 -82 164.5 -152.5t195.5 -128.5l-54 -91q-61 32 -124 76.5t-122 93.5t-111.5 99.5t-92.5 94.5q-90 11 -149 35.5t-93 54.5t-47.5 63t-13.5 62q0 21 6.5 41.5t20 36.5t35 25.5t51.5 9.5q66 0 136.5 -50.5t141.5 -156.5q134 22 206.5 90t72.5 186q0 43 -11 71.5
t-34.5 45t-61 23t-91.5 6.5h-255q-72 0 -125 27t-88.5 70t-53 96.5t-17.5 105.5q0 55 18.5 90.5t51.5 56.5t78.5 29.5t99.5 8.5h363v249h-782v114h1208v-114h-298v-363h-480q-78 0 -108 -21t-30 -73q0 -35 11.5 -64t32.5 -50t51 -32.5t67 -11.5h255q90 0 151 -20t98.5 -56
t53.5 -87t16 -112q0 -69 -19.5 -128.5t-61.5 -107t-107 -82.5t-156 -56z" />
    <glyph glyph-name="uni0908" unicode="&#x908;" horiz-adv-x="1138" 
d="M650 109q75 -82 164.5 -152.5t195.5 -128.5l-54 -91q-61 32 -124 76.5t-122 93.5t-111.5 99.5t-92.5 94.5q-90 11 -149 35.5t-93 54.5t-47.5 63t-13.5 62q0 21 6.5 41.5t20 36.5t35 25.5t51.5 9.5q66 0 136.5 -50.5t141.5 -156.5q134 22 206.5 90t72.5 186q0 43 -11 71.5
t-34.5 45t-61 23t-91.5 6.5h-255q-72 0 -125 27t-88.5 70t-53 96.5t-17.5 105.5q0 55 18.5 90.5t51.5 56.5t78.5 29.5t99.5 8.5h363v249h-782v114h1208v-114h-298v-363h-480q-78 0 -108 -21t-30 -73q0 -35 11.5 -64t32.5 -50t51 -32.5t67 -11.5h255q90 0 151 -20t98.5 -56
t53.5 -87t16 -112q0 -69 -19.5 -128.5t-61.5 -107t-107 -82.5t-156 -56zM1112 1951q-42 53 -84.5 77.5t-97.5 24.5q-43 0 -78.5 -15t-60.5 -44.5t-39 -72t-14 -96.5q0 -86 33.5 -175t95.5 -170h-127q-60 86 -91.5 175t-31.5 178q0 82 26 146t69.5 108t101 66.5t120.5 22.5
q81 0 148 -36.5t121 -105.5z" />
    <glyph glyph-name="uni0909" unicode="&#x909;" horiz-adv-x="1438" 
d="M1473 1377h-339q29 -59 46.5 -122t17.5 -124q0 -51 -13 -98.5t-38 -89.5t-62 -76.5t-86 -58.5v-5q60 -29 108.5 -72t83 -96.5t53 -115.5t18.5 -128q0 -76 -24.5 -149t-76 -130t-131 -92t-189.5 -35q-117 0 -213 42t-173.5 111.5t-136.5 158.5t-101.5 184t-69 187.5
t-38.5 168.5l108 36q15 -88 43.5 -179.5t69.5 -177.5t93.5 -162t116 -133t137 -90t156.5 -33q52 0 106 15t98 49.5t72.5 91.5t28.5 140q0 90 -33 156.5t-89.5 110.5t-131.5 65.5t-159 21.5q-22 0 -41.5 -1.5t-39.5 -3.5v123q3 0 15 -0.5t32 -0.5q108 0 181.5 22t118.5 60
t64.5 88.5t19.5 106.5q0 67 -22.5 125.5t-57.5 109.5h-1030v114h1508v-114z" />
    <glyph glyph-name="uni090A" unicode="&#x90a;" horiz-adv-x="1932" 
d="M1967 1377h-833q29 -59 46.5 -122t17.5 -124q0 -51 -13 -98.5t-38 -89.5t-62 -76.5t-86 -58.5v-5q54 -26 98 -63t78 -84q28 37 61.5 67.5t71 53t80 35t90.5 12.5q73 0 133 -29.5t102.5 -79.5t66 -116.5t23.5 -140.5q0 -72 -21.5 -137.5t-58 -123t-86 -107.5t-105.5 -90
l-73 94q55 44 97 85.5t69.5 85t41.5 91.5t14 104q0 59 -14.5 104t-40 75t-61.5 45.5t-79 15.5q-44 0 -82 -14.5t-69.5 -37t-56.5 -49.5t-44 -53q28 -76 28 -155q0 -76 -24.5 -149t-76 -130t-131 -92t-189.5 -35q-117 0 -213 42t-173.5 111.5t-136.5 158.5t-101.5 184
t-69 187.5t-38.5 168.5l108 36q15 -88 43.5 -179.5t69.5 -177.5t94 -162t116.5 -133t137 -90t156.5 -33q52 0 106 15t98 49.5t72 91.5t28 140q0 90 -33 156.5t-89.5 110.5t-131.5 65.5t-159 21.5q-22 0 -41.5 -1.5t-39.5 -3.5v123q3 0 15 -0.5t32 -0.5q108 0 181.5 22
t118.5 60t64.5 88.5t19.5 106.5q0 67 -22.5 125.5t-57.5 109.5h-1030v114h2002v-114z" />
    <glyph glyph-name="uni090B" unicode="&#x90b;" horiz-adv-x="1823" 
d="M125 1085q27 3 66.5 6.5t79.5 6t74 4.5t50 2q49 0 98.5 -19.5t100.5 -52t103.5 -75.5t108.5 -91l4 2v509h-845v114h1893v-114h-921v-591q45 1 87 11.5t78 25.5t64 33t43 35q-28 62 -28 135q0 39 9 75t27 64.5t46 45.5t67 17q34 0 58 -13t39.5 -35t23 -51t7.5 -61
q0 -29 -6 -59.5t-16.5 -58t-26 -52t-34.5 -41.5q87 -53 144.5 -106.5t92 -107t49 -106.5t14.5 -103q0 -90 -38.5 -160.5t-105 -125.5t-155.5 -94.5t-189 -67.5l-34 119q12 3 46.5 14t79 29.5t93 45t89 62t66.5 80t26 99.5q0 53 -25 106t-64.5 99.5t-89.5 83.5t-100 59
q-37 -24 -74 -44t-77.5 -34.5t-86 -23.5t-99.5 -12v-670h-127v612l-558 -451l-87 100l637 482q-48 38 -97 79t-99 75.5t-101.5 56.5t-103.5 22q-16 0 -49 -2t-73 -5t-81.5 -7t-72.5 -7v131z" />
    <glyph glyph-name="uni090C" unicode="&#x90c;" horiz-adv-x="1486" 
d="M741 938q26 56 63 94t88 55v290h-927v114h1556v-114h-502v-276q75 -5 130 -34.5t91 -74t53.5 -99.5t17.5 -111q0 -51 -14 -92.5t-36 -77.5t-50.5 -67t-56.5 -59q-26 -26 -49.5 -50.5t-42 -50.5t-29.5 -54t-11 -60t10.5 -54.5t28 -36.5t40 -21t45.5 -7q34 0 69 13
t67.5 33.5t61.5 46t50 49.5l79 -87q-30 -32 -64.5 -62t-73 -53t-82 -37.5t-92.5 -14.5q-50 0 -96.5 15.5t-83 45.5t-58.5 75t-22 104q0 45 12.5 81t33.5 67t47.5 58t53.5 53t53.5 53t47 58t33 67.5t12.5 81.5q0 40 -11.5 74.5t-34.5 59.5t-58 39t-82 14q-56 0 -93.5 -20
t-59.5 -55.5t-31 -85t-9 -108.5q0 -17 1 -35t3 -35h-123q-3 55 -14.5 114t-36 107.5t-64 79.5t-98.5 31q-39 0 -76.5 -16t-67 -49.5t-47 -85t-17.5 -123.5q0 -73 18.5 -137.5t49.5 -122t72.5 -108t87 -94.5t93 -83t90.5 -73l-68 -97q-30 20 -76.5 56.5t-98.5 86
t-104.5 112.5t-94 136.5t-68 156.5t-26.5 174q0 87 25 158.5t69 122.5t104.5 79t131.5 28q54 0 96 -15.5t73 -39.5t52.5 -52.5t34.5 -54.5h5z" />
    <glyph glyph-name="uni090D" unicode="&#x90d;" horiz-adv-x="1126" 
d="M828 1377h-506v-749q0 -74 20.5 -123.5t64 -88.5t110.5 -74.5t161 -81.5q88 -43 159 -82t121 -81t77 -90t27 -110q0 -19 -5.5 -41.5t-16 -46t-26 -47t-34.5 -43.5l-96 72q19 23 34 51t15 60q0 40 -23 72.5t-65.5 62.5t-102 60.5t-131.5 65.5q-68 33 -125 61.5
t-103.5 58.5t-81.5 63.5t-59 75.5t-36 96t-12 124v735h-229v114h1196v-114h-205v-700q0 -73 -21 -117t-52.5 -68t-67 -32t-65.5 -8q-35 0 -68 8.5t-64 22.5v123q21 -13 52.5 -22.5t63.5 -9.5q30 0 48.5 11t28.5 31.5t13.5 50.5t3.5 68v642zM282 2098q14 -73 36 -134
t57 -104.5t86 -67.5t123 -24q41 0 87 11t88 46t75 100t50 173l124 -27q-18 -116 -58.5 -197t-97 -132.5t-125 -75t-142.5 -23.5q-75 0 -141 24t-120.5 75.5t-96 133t-65.5 195.5z" />
    <glyph glyph-name="uni090E" unicode="&#x90e;" horiz-adv-x="1126" 
d="M828 1377h-506v-749q0 -74 20.5 -123.5t64 -88.5t110.5 -74.5t161 -81.5q88 -43 159 -82t121 -81t77 -90t27 -110q0 -19 -5.5 -41.5t-16 -46t-26 -47t-34.5 -43.5l-96 72q19 23 34 51t15 60q0 40 -23 72.5t-65.5 62.5t-102 60.5t-131.5 65.5q-68 33 -125 61.5
t-103.5 58.5t-81.5 63.5t-59 75.5t-36 96t-12 124v735h-229v114h1196v-114h-205v-700q0 -73 -21 -117t-52.5 -68t-67 -32t-65.5 -8q-35 0 -68 8.5t-64 22.5v123q21 -13 52.5 -22.5t63.5 -9.5q30 0 48.5 11t28.5 31.5t13.5 50.5t3.5 68v642zM839 1464q-6 107 -30 167
t-64.5 89t-97.5 37t-129 12q-62 3 -123.5 10.5t-115.5 39t-95.5 98.5t-61.5 189l96 24q15 -86 48 -133t78 -69.5t99 -27.5t111 -7q46 -2 91 -7t86 -19.5t76.5 -42t63.5 -74.5t46.5 -117t24.5 -169h-103z" />
    <glyph glyph-name="uni090F" unicode="&#x90f;" horiz-adv-x="1126" 
d="M828 1377h-506v-749q0 -74 20.5 -123.5t64 -88.5t110.5 -74.5t161 -81.5q88 -43 159 -82t121 -81t77 -90t27 -110q0 -19 -5.5 -41.5t-16 -46t-26 -47t-34.5 -43.5l-96 72q19 23 34 51t15 60q0 40 -23 72.5t-65.5 62.5t-102 60.5t-131.5 65.5q-68 33 -125 61.5
t-103.5 58.5t-81.5 63.5t-59 75.5t-36 96t-12 124v735h-229v114h1196v-114h-205v-700q0 -73 -21 -117t-52.5 -68t-67 -32t-65.5 -8q-35 0 -68 8.5t-64 22.5v123q21 -13 52.5 -22.5t63.5 -9.5q30 0 48.5 11t28.5 31.5t13.5 50.5t3.5 68v642z" />
    <glyph glyph-name="uni0910" unicode="&#x910;" horiz-adv-x="1126" 
d="M828 1377h-506v-749q0 -74 20.5 -123.5t64 -88.5t110.5 -74.5t161 -81.5q88 -43 159 -82t121 -81t77 -90t27 -110q0 -19 -5.5 -41.5t-16 -46t-26 -47t-34.5 -43.5l-96 72q19 23 34 51t15 60q0 40 -23 72.5t-65.5 62.5t-102 60.5t-131.5 65.5q-68 33 -125 61.5
t-103.5 58.5t-81.5 63.5t-59 75.5t-36 96t-12 124v735h-229v114h1196v-114h-205v-700q0 -73 -21 -117t-52.5 -68t-67 -32t-65.5 -8q-35 0 -68 8.5t-64 22.5v123q21 -13 52.5 -22.5t63.5 -9.5q30 0 48.5 11t28.5 31.5t13.5 50.5t3.5 68v642zM837 1440q-65 120 -114 206
t-88 145t-71.5 94t-64 54t-65.5 25t-76 6h-197v136h194q53 0 97.5 -10.5t86 -38t83 -74.5t89.5 -119.5t105.5 -174t131.5 -236.5z" />
    <glyph glyph-name="uni0911" unicode="&#x911;" horiz-adv-x="2146" 
d="M824 931q70 -32 115 -74q37 -7 71 -11t66 -4q75 0 140 27t128 94v528h335v-114h-207v-1377h-128v805l-6 1q-51 -41 -105 -57.5t-109 -16.5q-27 0 -54 3.5t-54 9.5q11 -29 16.5 -60t5.5 -66q0 -79 -25.5 -145t-72.5 -114t-113.5 -74.5t-148.5 -26.5q-102 0 -181.5 37
t-140.5 94t-104 126t-72 133t-44.5 115t-21.5 73l101 47q18 -54 39.5 -112t49 -114.5t62 -107t79.5 -89t101.5 -61t127.5 -22.5q64 0 110.5 19t76.5 51t44 75.5t14 93.5q0 54 -17 98.5t-56 76.5t-101.5 49.5t-152.5 17.5q-6 0 -17.5 -0.5t-22.5 -2.5v121q7 -1 10.5 -1h8.5
q77 0 134 21.5t95 56t57 78t19 87.5q0 41 -15 73t-41 53.5t-62 33t-79 11.5q-44 0 -98.5 -15t-135.5 -54l-56 103q78 38 149.5 59.5t141.5 21.5q69 0 127 -21t99 -59.5t64 -91.5t23 -117q0 -87 -42.5 -157.5t-126.5 -123.5v-4zM2181 1377h-210v-1377h-128v1377h-239v114h577
v-114zM1604 2098q14 -73 36 -134t57 -104.5t86 -67.5t123 -24q41 0 87 11t88 46t75 100t50 173l124 -27q-18 -116 -58.5 -197t-97 -132.5t-125 -75t-142.5 -23.5q-75 0 -141 24t-120.5 75.5t-96 133t-65.5 195.5z" />
    <glyph glyph-name="uni0912" unicode="&#x912;" horiz-adv-x="2146" 
d="M824 931q70 -32 115 -74q37 -7 71 -11t66 -4q75 0 140 27t128 94v528h335v-114h-207v-1377h-128v805l-6 1q-51 -41 -105 -57.5t-109 -16.5q-27 0 -54 3.5t-54 9.5q11 -29 16.5 -60t5.5 -66q0 -79 -25.5 -145t-72.5 -114t-113.5 -74.5t-148.5 -26.5q-102 0 -181.5 37
t-140.5 94t-104 126t-72 133t-44.5 115t-21.5 73l101 47q18 -54 39.5 -112t49 -114.5t62 -107t79.5 -89t101.5 -61t127.5 -22.5q64 0 110.5 19t76.5 51t44 75.5t14 93.5q0 54 -17 98.5t-56 76.5t-101.5 49.5t-152.5 17.5q-6 0 -17.5 -0.5t-22.5 -2.5v121q7 -1 10.5 -1h8.5
q77 0 134 21.5t95 56t57 78t19 87.5q0 41 -15 73t-41 53.5t-62 33t-79 11.5q-44 0 -98.5 -15t-135.5 -54l-56 103q78 38 149.5 59.5t141.5 21.5q69 0 127 -21t99 -59.5t64 -91.5t23 -117q0 -87 -42.5 -157.5t-126.5 -123.5v-4zM2181 1377h-210v-1377h-128v1377h-239v114h577
v-114zM1859 1464q-6 107 -30 167t-64.5 89t-97.5 37t-129 12q-62 3 -123.5 10.5t-115.5 39t-95.5 98.5t-61.5 189l96 24q15 -86 48 -133t78 -69.5t99 -27.5t111 -7q46 -2 91 -7t86 -19.5t76.5 -42t63.5 -74.5t46.5 -117t24.5 -169h-103z" />
    <glyph glyph-name="uni0913" unicode="&#x913;" horiz-adv-x="2146" 
d="M824 931q70 -32 115 -74q37 -7 71 -11t66 -4q75 0 140 27t128 94v528h335v-114h-207v-1377h-128v805l-6 1q-51 -41 -105 -57.5t-109 -16.5q-27 0 -54 3.5t-54 9.5q11 -29 16.5 -60t5.5 -66q0 -79 -25.5 -145t-72.5 -114t-113.5 -74.5t-148.5 -26.5q-102 0 -181.5 37
t-140.5 94t-104 126t-72 133t-44.5 115t-21.5 73l101 47q18 -54 39.5 -112t49 -114.5t62 -107t79.5 -89t101.5 -61t127.5 -22.5q64 0 110.5 19t76.5 51t44 75.5t14 93.5q0 54 -17 98.5t-56 76.5t-101.5 49.5t-152.5 17.5q-6 0 -17.5 -0.5t-22.5 -2.5v121q7 -1 10.5 -1h8.5
q77 0 134 21.5t95 56t57 78t19 87.5q0 41 -15 73t-41 53.5t-62 33t-79 11.5q-44 0 -98.5 -15t-135.5 -54l-56 103q78 38 149.5 59.5t141.5 21.5q69 0 127 -21t99 -59.5t64 -91.5t23 -117q0 -87 -42.5 -157.5t-126.5 -123.5v-4zM2181 1377h-210v-1377h-128v1377h-239v114h577
v-114zM1857 1440q-65 120 -114 206t-88 145t-71.5 94t-64 54t-65.5 25t-76 6h-197v136h194q53 0 97.5 -10.5t86 -38t83 -74.5t89.5 -119.5t105.5 -174t131.5 -236.5z" />
    <glyph glyph-name="uni0914" unicode="&#x914;" horiz-adv-x="2146" 
d="M824 931q70 -32 115 -74q37 -7 71 -11t66 -4q75 0 140 27t128 94v528h335v-114h-207v-1377h-128v805l-6 1q-51 -41 -105 -57.5t-109 -16.5q-27 0 -54 3.5t-54 9.5q11 -29 16.5 -60t5.5 -66q0 -79 -25.5 -145t-72.5 -114t-113.5 -74.5t-148.5 -26.5q-102 0 -181.5 37
t-140.5 94t-104 126t-72 133t-44.5 115t-21.5 73l101 47q18 -54 39.5 -112t49 -114.5t62 -107t79.5 -89t101.5 -61t127.5 -22.5q64 0 110.5 19t76.5 51t44 75.5t14 93.5q0 54 -17 98.5t-56 76.5t-101.5 49.5t-152.5 17.5q-6 0 -17.5 -0.5t-22.5 -2.5v121q7 -1 10.5 -1h8.5
q77 0 134 21.5t95 56t57 78t19 87.5q0 41 -15 73t-41 53.5t-62 33t-79 11.5q-44 0 -98.5 -15t-135.5 -54l-56 103q78 38 149.5 59.5t141.5 21.5q69 0 127 -21t99 -59.5t64 -91.5t23 -117q0 -87 -42.5 -157.5t-126.5 -123.5v-4zM2181 1377h-210v-1377h-128v1377h-239v114h577
v-114zM1862 1466q-96 83 -166 140t-121.5 94t-88 57t-64.5 29.5t-51 11t-48 1.5h-207v122h188q59 0 106.5 -16t97 -48t107 -79.5t136.5 -110.5l5 4q-53 87 -94.5 151.5t-75 110.5t-61 75.5t-53.5 47t-51.5 24t-54.5 6.5h-201v124h191q49 0 88 -10.5t76.5 -39t77.5 -80
t91 -134.5t117 -201t155 -279h-99z" />
    <glyph glyph-name="uni0915" unicode="&#x915;" horiz-adv-x="1717" 
d="M1752 1377h-806v-456l6 -2q61 88 141.5 129t166.5 41q75 0 136 -29t104.5 -77.5t67 -113.5t23.5 -137q0 -65 -20 -132t-63 -130.5t-110 -120t-161 -100.5l-64 108q78 37 134 84.5t91.5 99.5t52.5 105.5t17 103.5q0 46 -13.5 86t-38.5 69.5t-61 46.5t-81 17t-92.5 -18
t-92 -54t-82 -90t-61.5 -125v-682h-128v411l-5 2q-59 -62 -129 -96.5t-161 -34.5q-96 0 -169 37.5t-122.5 98t-74.5 135.5t-25 150q0 72 23.5 141.5t69.5 124t112.5 87.5t152.5 33q95 0 177.5 -39t145.5 -101l5 1v427h-853v114h1787v-114zM819 802q-65 77 -144.5 122
t-167.5 45q-64 0 -111 -24t-78.5 -63t-47 -89t-15.5 -101q0 -55 17 -108t49 -95t78.5 -67.5t105.5 -25.5q48 0 103.5 19t102 59.5t77.5 103.5t31 150v74z" />
    <glyph glyph-name="uni0916" unicode="&#x916;" horiz-adv-x="1668" 
d="M1237 37q-15 -6 -37 -14t-52.5 -14.5t-69.5 -11.5t-87 -5q-162 0 -287 58.5t-229 166.5t-195 260.5t-187 341.5l102 56q37 -72 73 -100.5t81 -28.5q72 0 113.5 59t41.5 159q0 44 -8.5 95t-26 104.5t-44 108t-62.5 105.5h-398v114h1738v-114h-210v-1377h-128v520l-4 1
q-54 -58 -121 -85.5t-142 -27.5q-88 0 -154.5 33t-111.5 87t-67.5 123.5t-22.5 141.5q0 69 21.5 134t63.5 116t104 81.5t143 30.5q44 0 82.5 -9.5t73 -27.5t67 -43t64.5 -56l4 1v357h-866q68 -112 100 -218.5t32 -197.5q0 -73 -20 -136t-57.5 -109t-91 -72.5t-119.5 -26.5
l-2 -4q74 -146 152 -240.5t157 -149.5t159 -77t159 -22q45 0 84 5.5t73 13.5t62 17.5t50 17.5v-141zM1365 854q-20 27 -47 58.5t-61 59t-76 45.5t-93 18q-54 0 -95.5 -21.5t-70 -56.5t-43 -80t-14.5 -92q0 -48 14.5 -93.5t43 -81.5t70.5 -58t96 -22q40 0 88 14.5t90 49
t70 90.5t28 139v31z" />
    <glyph glyph-name="uni0917" unicode="&#x917;" horiz-adv-x="1242" 
d="M1277 1377h-210v-1377h-128v1377h-489v-777q0 -21 -2.5 -41t-10 -36t-21 -25.5t-36.5 -9.5q-22 0 -51.5 14.5t-60.5 38.5t-60.5 54.5t-53 63.5t-38 65t-14.5 59t12.5 42.5t34 23t51 9.5t63.5 2h59v517h-357v114h1312v-114z" />
    <glyph glyph-name="uni0918" unicode="&#x918;" horiz-adv-x="1287" 
d="M1322 1377h-210v-1377h-128v438l-4 1q-37 -50 -80 -85.5t-89 -58.5t-94 -34t-96 -11q-73 0 -139.5 24t-117 68t-80.5 106t-30 137q0 72 30 137.5t97 125.5l-1 4q-63 18 -111 51t-80 75t-48 91.5t-16 102.5t15.5 105t47.5 100h-223v114h1357v-114zM334 1377
q-83 -100 -83 -209q0 -52 17.5 -92.5t49.5 -68.5t76 -42.5t98 -14.5q69 0 149 24l26 -126q-17 -2 -44.5 -8t-59.5 -18.5t-65 -32.5t-59.5 -49.5t-43.5 -69.5t-17 -92q0 -50 17 -89.5t47.5 -66.5t72.5 -41.5t91 -14.5q74 0 134.5 29t108 72t81 92t54.5 88v730h-650z" />
    <glyph glyph-name="uni0919" unicode="&#x919;" horiz-adv-x="1680" 
d="M1349 844q0 54 31 87t79 33q24 0 45 -9t37 -25.5t25 -40t9 -51.5q0 -53 -31 -86t-79 -33q-51 0 -83.5 34.5t-32.5 90.5zM1715 1377h-529v-382h-505q-42 0 -70 -5.5t-45.5 -18t-24.5 -32t-7 -47.5q0 -25 6 -53.5t23.5 -53t47.5 -40.5t78 -16h281q90 0 152.5 -23.5
t101.5 -64t56 -96t17 -118.5q0 -86 -29.5 -166t-86.5 -141.5t-141.5 -98t-194.5 -36.5q-122 0 -233.5 46t-205 128.5t-164.5 196t-111 248.5l107 40q36 -107 94 -205.5t134.5 -173.5t170 -120t200.5 -45q75 0 137 23.5t107 66t69.5 103t24.5 135.5q0 53 -13 88t-39.5 56
t-67.5 29.5t-96 8.5h-254q-77 0 -132 28.5t-91 72.5t-53 98.5t-17 105.5q0 58 19.5 96t54 60.5t82 32t102.5 9.5h388v264h-1093v114h1750v-114z" />
    <glyph glyph-name="uni091A" unicode="&#x91a;" horiz-adv-x="1351" 
d="M1386 1377h-210v-1377h-128v480l-4 3q-59 -60 -117.5 -94t-109.5 -51.5t-91.5 -22t-65.5 -4.5q-89 0 -156 28t-111.5 74t-67 104.5t-22.5 119.5q0 75 33 145.5t98 121.5l-1 4h-330v116h807v-116h-101q-100 0 -172.5 -25t-119.5 -64.5t-69.5 -89.5t-22.5 -101
q0 -40 14 -77t41.5 -65t69.5 -44.5t99 -16.5q67 0 127 23t111 59.5t91.5 81.5t69.5 90v698h-1083v114h1421v-114z" />
    <glyph glyph-name="uni091B" unicode="&#x91b;" horiz-adv-x="1577" 
d="M994 1377h-1029v114h1647v-114h-487v-237q54 -11 103 -41t86 -81t59 -123.5t22 -169.5q0 -100 -24 -194t-69 -177t-108 -151.5t-140.5 -117.5t-168 -76.5t-189.5 -27.5q-107 0 -185.5 30t-130 78t-76.5 108.5t-25 122.5q0 54 19 106t52 97l-2 5q-77 28 -120 71t-64.5 87
t-26.5 82t-5 58q0 67 24.5 118t65 85.5t93 52t108.5 17.5q46 0 92.5 -12t89.5 -35v-116q-36 18 -81.5 29.5t-88.5 11.5q-35 0 -67 -8.5t-56.5 -27.5t-39.5 -49.5t-15 -74.5q0 -47 16.5 -83.5t42.5 -61.5t57.5 -38.5t61.5 -13.5q21 0 47.5 5.5t54 14t52.5 17t43 14.5l37 -119
q-69 -14 -119 -38.5t-82.5 -56.5t-47.5 -69.5t-15 -77.5q0 -44 17.5 -82t53 -66t88 -44t123.5 -16q96 0 181.5 30t156 83t123 125t83.5 156q-6 -1 -18 -1.5t-26 -0.5q-101 0 -177 32t-126.5 83.5t-75.5 116.5t-25 131q0 49 13.5 95t40.5 84t66.5 65.5t90.5 38.5v237z
M1270 711q0 68 -14.5 126t-41 100t-63.5 66t-81 24q-36 0 -65.5 -15.5t-50.5 -41.5t-33 -60t-12 -70q0 -41 16 -82t51 -74t89.5 -53.5t132.5 -20.5q14 0 30.5 0.5t33.5 2.5q4 25 6 48.5t2 49.5z" />
    <glyph glyph-name="uni091C" unicode="&#x91c;" horiz-adv-x="1502" 
d="M1537 1377h-210v-1377h-128v902h-380l-1 -5q91 -97 137 -192t46 -192q0 -60 -18.5 -114t-56 -94t-93 -63.5t-129.5 -23.5q-83 0 -152 29.5t-125.5 79t-101 114.5t-79.5 136t-60.5 143.5t-44 137t-29.5 116t-17 81.5l109 27q34 -178 83.5 -317t111.5 -235t136.5 -146.5
t159.5 -50.5q48 0 83 16t57.5 43t33 62.5t10.5 74.5q0 51 -17 103.5t-49.5 103t-80.5 97t-110 84.5v99h577v361h-1234v114h1572v-114z" />
    <glyph glyph-name="uni091D" unicode="&#x91d;" horiz-adv-x="1530" 
d="M650 109q75 -78 164 -149.5t196 -131.5l-54 -91q-61 32 -123 76t-120.5 92.5t-111.5 99t-95 96.5q-86 10 -144.5 34t-93.5 54.5t-50 64t-15 62.5q0 22 6.5 42.5t20.5 36t36 25t52 9.5q61 0 131.5 -49t144.5 -158q137 22 208 92t71 190q0 42 -10.5 69t-33 42.5t-56.5 21
t-82 5.5h-267q-73 0 -127 27.5t-90 71t-53.5 97t-17.5 105.5q0 55 18.5 90.5t51.5 56.5t78.5 29.5t99.5 8.5h352v249h-771v114h1600v-114h-210v-1377h-128v640l-4 1q-51 -35 -98.5 -47.5t-104.5 -12.5q-20 0 -39 3q5 -22 8.5 -46t3.5 -49q0 -141 -81.5 -237t-261.5 -139v-4z
M864 1014h-469q-39 0 -65.5 -5.5t-42.5 -17t-23 -30t-7 -43.5q0 -24 7 -51.5t26.5 -51t54 -39.5t89.5 -16h248q87 0 146.5 -19.5t95.5 -56.5h19q35 0 70.5 4t71 15.5t71 32.5t71.5 55v586h-363v-363z" />
    <glyph glyph-name="uni091E" unicode="&#x91e;" horiz-adv-x="1571" 
d="M401 930q69 57 145.5 85t150.5 28q67 0 126.5 -22.5t104.5 -65.5t71.5 -104t28.5 -137q39 0 74 8.5t65.5 22t56 30t44.5 32.5v570h-1303v114h1641v-114h-210v-1377h-128v661q-45 -31 -100.5 -44.5t-126.5 -13.5h-29q-17 -56 -49.5 -100.5t-77 -75.5t-99 -47.5
t-115.5 -16.5q-96 0 -181 38t-159 98.5t-136 136t-111 149.5l89 69q51 -83 107.5 -152t118 -119t126.5 -77.5t133 -27.5q57 0 102.5 19.5t77.5 53t49.5 79t17.5 98.5q0 52 -16.5 90t-44.5 63t-64.5 37t-76.5 12q-62 0 -121.5 -25.5t-111.5 -70.5z" />
    <glyph glyph-name="uni091F" unicode="&#x91f;" horiz-adv-x="1167" 
d="M1026 193q-71 -42 -157.5 -64.5t-176.5 -22.5q-117 0 -213.5 39.5t-166 109t-107.5 165.5t-38 210q0 106 33 186.5t91.5 135t138.5 82t173 27.5h202v316h-840v114h1237v-114h-269v-430h-301q-76 0 -139 -22.5t-108 -65.5t-70 -105t-25 -141q0 -85 28.5 -156.5t80 -123
t124 -80.5t161.5 -29q97 0 183.5 30t158.5 80v-141z" />
    <glyph glyph-name="uni0920" unicode="&#x920;" horiz-adv-x="1311" 
d="M759 1218v159h-793v114h1381v-114h-460v-182q0 -57 -19 -113t-61 -95q82 -29 146.5 -76t109.5 -109t69 -138t24 -162q0 -108 -36.5 -203t-104 -166.5t-162 -113t-209.5 -41.5q-114 0 -206 41t-156.5 112.5t-99 166.5t-34.5 203q0 87 21 153t55 115.5t77 84.5t87.5 59
t86 39t73.5 25q43 14 81 28.5t67 40t46 66t17 106.5zM639 97q89 0 162 33t124.5 90t80 133.5t28.5 163.5q0 80 -22 140t-55.5 103t-74.5 70.5t-78 43.5t-65.5 23t-38.5 8q-23 -12 -63.5 -23.5t-88 -29.5t-97 -45.5t-89.5 -70.5t-65.5 -105.5t-25.5 -150.5q0 -90 28 -161.5
t77.5 -120.5t117 -75t145.5 -26z" />
    <glyph glyph-name="uni0921" unicode="&#x921;" horiz-adv-x="1435" 
d="M1470 1377h-294v-382h-505q-42 0 -70 -5.5t-45.5 -18t-24.5 -32t-7 -47.5q0 -25 6 -53.5t23.5 -53t47.5 -40.5t78 -16h281q90 0 152.5 -23.5t101.5 -64t56 -96t17 -118.5q0 -86 -29 -166t-86 -141.5t-140.5 -98t-192.5 -36.5q-121 0 -231.5 46t-203.5 128.5t-163 196
t-110 248.5l107 40q35 -107 92.5 -205.5t133.5 -173.5t168.5 -120t198.5 -45q74 0 135.5 23.5t105.5 66t68.5 103t24.5 135.5q0 53 -13 88t-39.5 56t-67.5 29.5t-96 8.5h-254q-77 0 -132 28.5t-91 72.5t-53 98.5t-17 105.5q0 58 19.5 96t54 60.5t82 32t102.5 9.5h388v264
h-1083v114h1505v-114z" />
    <glyph glyph-name="uni0922" unicode="&#x922;" horiz-adv-x="1314" 
d="M641 110q-32 47 -47.5 100.5t-15.5 111.5q0 72 23.5 127t63 91.5t90.5 55t106 18.5q68 0 121.5 -26t91 -68.5t57.5 -97.5t20 -113q0 -62 -23.5 -121.5t-71.5 -106.5t-122.5 -76t-176.5 -29q-70 0 -140.5 15t-136 46t-122 78.5t-99 112.5t-66.5 147.5t-24 183.5
q0 121 35 214t97 155t146.5 94t183.5 32h220v323h-886v114h1384v-114h-370v-437h-323q-92 0 -160 -31.5t-113.5 -85.5t-68 -125.5t-22.5 -151.5q0 -91 27 -166t74 -131.5t110.5 -94t135.5 -53.5zM1028 315q0 34 -11.5 66t-33 57t-52 39.5t-67.5 14.5q-32 0 -61 -11.5
t-52 -35t-36.5 -59.5t-13.5 -85q0 -53 17 -108t50 -102q67 3 116 24t81 52.5t47.5 70t15.5 77.5z" />
    <glyph glyph-name="uni0923" unicode="&#x923;" horiz-adv-x="1472" 
d="M1507 1377h-210v-1377h-128v1377h-276v-644q0 -101 -26 -175t-71 -122t-107 -71t-134 -23q-80 0 -146.5 26.5t-114.5 78.5t-74.5 128.5t-26.5 176.5v625h-228v114h1542v-114zM324 1377v-680q0 -47 11.5 -91t37 -77.5t67.5 -54t103 -20.5q62 0 104.5 20.5t68.5 54
t37.5 77.5t11.5 91v680h-441z" />
    <glyph glyph-name="uni0924" unicode="&#x924;" horiz-adv-x="1239" 
d="M1274 1377h-210v-1377h-127v910h-346q-71 0 -129.5 -9t-100.5 -37t-65 -80t-23 -137q0 -72 16 -134t42.5 -116t62 -101t74 -87.5t78 -75.5t75.5 -66l-78 -88q-6 4 -37.5 27t-76 64.5t-94.5 100.5t-92 134t-70 166t-28 197q0 105 29.5 173.5t83.5 109.5t130.5 57.5
t171.5 16.5h377v352h-972v114h1309v-114z" />
    <glyph glyph-name="uni0925" unicode="&#x925;" horiz-adv-x="1257" 
d="M601 1192q0 -72 -19 -137t-56 -120t-92.5 -97.5t-127.5 -69.5q15 -72 44 -123t68 -84t87.5 -48.5t102.5 -15.5q49 0 97.5 11.5t93.5 33.5t84.5 54t70.5 72v823h338v-114h-210v-1377h-128v502l-4 1q-27 -23 -59 -45t-72.5 -39.5t-90 -28.5t-110.5 -11q-114 0 -194 40
t-133.5 106.5t-83 152.5t-41.5 179q87 17 146 51t95 78t51.5 96t15.5 105q0 92 -37 145.5t-97 53.5q-25 0 -46 -9.5t-36.5 -25.5t-24 -38t-8.5 -46q0 -38 23 -77.5t77 -66.5l-62 -99q-43 20 -74.5 47.5t-52 59.5t-30.5 67t-10 71q0 46 16.5 89t48 75t76.5 51.5t103 19.5
q64 0 112.5 -23.5t81.5 -65t50 -99t17 -124.5z" />
    <glyph glyph-name="uni0926" unicode="&#x926;" horiz-adv-x="1251" 
d="M1286 1377h-346v-429h-326q-167 0 -250.5 -82t-83.5 -232q0 -98 32.5 -165t84 -108t116 -59t128.5 -18q38 0 78.5 6.5t72.5 21.5q-5 18 -7 39t-2 42q0 40 8.5 80.5t27 73.5t47.5 54t69 21q29 0 52 -11t38.5 -30.5t24 -45.5t8.5 -57q0 -51 -26.5 -110t-91.5 -115
q26 -72 83 -137.5t142 -131.5l-94 -99q-59 53 -100.5 104.5t-68.5 94t-42.5 73.5t-22.5 43q-44 -16 -91 -24t-95 -8q-91 0 -179.5 30t-158.5 90.5t-113 151.5t-43 212q0 104 32.5 181t90.5 127.5t137.5 75.5t172.5 25h222v316h-847v114h1321v-114z" />
    <glyph glyph-name="uni0927" unicode="&#x927;" horiz-adv-x="1247" 
d="M472 1136q20 26 32 55t12 62q0 25 -8 48t-23 40.5t-37.5 28t-51.5 10.5t-58 -11.5t-52 -36t-37.5 -62.5t-14.5 -90q0 -61 20.5 -106t56.5 -74.5t84 -44t103 -14.5q64 0 133 18l24 -123q-76 -12 -132 -40t-92.5 -65.5t-54.5 -81t-18 -86.5q0 -38 14.5 -73t42 -61.5
t68.5 -42.5t94 -16q69 0 127 26t104.5 64t80.5 82.5t55 81.5v867h338v-114h-210v-1377h-128v423l-4 1q-38 -46 -81 -78.5t-88 -52.5t-91 -29.5t-90 -9.5q-82 0 -148 28t-112 74.5t-70.5 106t-24.5 122.5q0 74 35.5 143.5t110.5 119.5l-1 3q-72 18 -123 51t-83.5 76.5
t-47.5 95.5t-15 106q0 68 21.5 126.5t60 101.5t92 67.5t118.5 24.5q60 0 104.5 -21t74 -55t43.5 -77.5t14 -87.5q0 -54 -18.5 -100t-48.5 -86z" />
    <glyph glyph-name="uni0928" unicode="&#x928;" horiz-adv-x="1182" 
d="M1217 1377h-210v-1377h-122v788h-476v-103q0 -34 -2 -60.5t-8.5 -44.5t-20 -27t-35.5 -9q-46 0 -89 32t-76.5 77t-53.5 93t-20 80q0 26 12 41t33 23t49 10t59 2h628v475h-920v114h1252v-114z" />
    <glyph glyph-name="uni0929" unicode="&#x929;" horiz-adv-x="1182" 
d="M1217 1377h-210v-1377h-122v788h-476v-103q0 -34 -2 -60.5t-8.5 -44.5t-20 -27t-35.5 -9q-46 0 -89 32t-76.5 77t-53.5 93t-20 80q0 26 12 41t33 23t49 10t59 2h628v475h-920v114h1252v-114zM431 299q0 53 32 86.5t82 33.5q25 0 47 -9.5t38 -26t25 -39.5t9 -50
q0 -54 -32.5 -87t-81.5 -33q-26 0 -47.5 9t-37.5 25.5t-25 39.5t-9 51z" />
    <glyph glyph-name="uni092A" unicode="&#x92a;" horiz-adv-x="1212" 
d="M1247 1377h-210v-1377h-128v521l-4 1q-139 -136 -338 -136q-100 0 -171.5 31.5t-117.5 84.5t-67.5 122.5t-21.5 146.5v606h-224v114h1282v-114zM909 1377h-592v-586q0 -57 11 -109t38 -91t73.5 -62t117.5 -23q57 0 107.5 14.5t95 40t82 60.5t67.5 77v679z" />
    <glyph glyph-name="uni092B" unicode="&#x92b;" horiz-adv-x="1759" 
d="M978 921l6 -2q61 88 142.5 131.5t169.5 43.5q75 0 137 -29.5t106.5 -79.5t69 -116t24.5 -139q0 -63 -20.5 -130t-63.5 -130.5t-110 -120.5t-160 -100l-64 108q78 37 134 85t91.5 100t52.5 105t17 101q0 47 -14.5 88t-41 72t-63.5 48.5t-82 17.5t-93 -19t-93 -56
t-83 -91.5t-62 -125.5v-682h-128v523l-3 1q-69 -66 -144.5 -95t-163.5 -29q-167 0 -259 97t-92 289v591h-223v114h1829v-114h-816v-456zM850 1377h-534v-581q0 -66 10.5 -117.5t35.5 -86.5t66 -53.5t102 -18.5q53 0 99 13.5t85.5 37.5t73 57.5t62.5 73.5v675z" />
    <glyph glyph-name="uni092C" unicode="&#x92c;" horiz-adv-x="1250" 
d="M947 383l-5 2q-63 -61 -145 -94.5t-191 -33.5q-118 0 -206 38.5t-147 101t-88.5 142t-29.5 161.5q0 85 30.5 163t87.5 137t138.5 94t183.5 35q112 0 202.5 -41.5t164.5 -109.5l5 1v398h-982v114h1320v-114h-210v-1377h-128v383zM256 691q0 -63 22 -121t64 -102t102.5 -70
t137.5 -26q37 0 72.5 6.5t67.5 17.5l-357 541q-54 -45 -81.5 -109.5t-27.5 -136.5zM947 815q-81 91 -170 142.5t-198 51.5q-29 0 -54.5 -3.5t-49.5 -10.5l356 -539q54 42 85 99.5t31 123.5v136z" />
    <glyph glyph-name="uni092D" unicode="&#x92d;" horiz-adv-x="1417" 
d="M1452 1377h-210v-1377h-128v579h-563v-143q0 -38 -13.5 -62t-46.5 -24q-22 0 -50 12.5t-57.5 33t-58 48t-51 58t-36 62t-13.5 59.5q0 38 29 54t98 16h78v571q0 60 -28.5 91t-67.5 31q-25 0 -45.5 -8.5t-35.5 -23t-23 -34.5t-8 -42q0 -37 20 -74.5t68 -69.5l-62 -87
q-38 21 -66 48.5t-46.5 58.5t-27.5 64.5t-9 66.5q0 45 15 86t44.5 72t73 49.5t101.5 18.5q105 0 163 -67.5t58 -192.5v-558h560v798h338v-114z" />
    <glyph glyph-name="uni092E" unicode="&#x92e;" horiz-adv-x="1339" 
d="M1374 1377h-210v-1377h-128v579h-588v-100q0 -36 -3 -61t-12 -40t-24.5 -22t-40.5 -7q-22 0 -49 12.5t-55 34t-55 49.5t-48 58.5t-33.5 61.5t-12.5 59q0 25 9 39t24 20.5t34 7.5t40 1h98v685h-355v114h1409v-114zM448 1377v-685h588v685h-588z" />
    <glyph glyph-name="uni092F" unicode="&#x92f;" horiz-adv-x="1243" 
d="M1278 1377h-210v-1377h-128v493l-5 1q-26 -22 -60.5 -45t-79 -41.5t-99 -30t-120.5 -11.5q-119 0 -202 39.5t-137.5 106.5t-86 155t-47.5 184q134 26 193.5 88.5t59.5 148.5q0 63 -27 137t-76 152h-288v114h1313v-114zM388 1377q43 -77 67 -153t24 -149
q0 -53 -13.5 -101.5t-42 -89t-73 -72t-105.5 -50.5q41 -146 119.5 -212t200.5 -66q52 0 105.5 12t103 34.5t92 55.5t74.5 75v716h-552z" />
    <glyph glyph-name="uni0930" unicode="&#x930;" horiz-adv-x="964" 
d="M999 1377h-394q27 -43 50.5 -91t40.5 -100t27 -106t10 -108q0 -65 -19 -126.5t-58 -109.5t-98 -77t-138 -29h-29l-2 -7q41 -72 95 -143t117 -139.5t135 -132t149 -120.5l-83 -95q-131 95 -240 209.5t-196 232.5t-152.5 230t-108.5 201l106 57q19 -39 40 -69.5t45 -52.5
t53 -33.5t64 -11.5q46 0 81.5 19t60.5 51.5t38 74.5t13 88q0 53 -12 104.5t-32 100.5t-46 95t-53 88h-498v114h1034v-114z" />
    <glyph glyph-name="uni0931" unicode="&#x931;" horiz-adv-x="964" 
d="M999 1377h-394q27 -43 50.5 -91t40.5 -100t27 -106t10 -108q0 -65 -19 -126.5t-58 -109.5t-98 -77t-138 -29h-29l-2 -7q41 -72 95 -143t117 -139.5t135 -132t149 -120.5l-83 -95q-131 95 -240 209.5t-196 232.5t-152.5 230t-108.5 201l106 57q19 -39 40 -69.5t45 -52.5
t53 -33.5t64 -11.5q46 0 81.5 19t60.5 51.5t38 74.5t13 88q0 53 -12 104.5t-32 100.5t-46 95t-53 88h-498v114h1034v-114zM130 152q0 53 32 86.5t82 33.5q25 0 47 -9.5t38 -26t25 -39.5t9 -50q0 -54 -32.5 -87t-81.5 -33q-26 0 -47.5 9t-37.5 25.5t-25 39.5t-9 51z" />
    <glyph glyph-name="uni0932" unicode="&#x932;" horiz-adv-x="1413" 
d="M1448 1377h-210v-1377h-128v960q-31 13 -62.5 19.5t-60.5 6.5q-48 0 -84.5 -18t-62 -50t-38.5 -76.5t-13 -97.5q0 -13 1 -28.5t3 -29.5h-120q-9 66 -21 123t-33.5 98t-55.5 64.5t-87 23.5q-50 0 -87.5 -21t-62.5 -58t-37.5 -88.5t-12.5 -111.5q0 -114 40.5 -207.5
t108.5 -170.5t156.5 -137.5t183.5 -108.5l-64 -107q-36 16 -91 48.5t-117 80t-124.5 110t-112.5 139.5t-81.5 167.5t-31.5 194.5q0 89 24 161.5t66.5 124t101.5 79.5t129 28q46 0 84.5 -12.5t70.5 -34.5t57 -53t44 -68l5 1q19 43 46 73t59 49t68.5 27t74.5 8q35 0 70 -7
t67 -21v297h-1145v114h1483v-114z" />
    <glyph glyph-name="uni0933" unicode="&#x933;" horiz-adv-x="1723" 
d="M1182 1377h-1215v114h1791v-114h-449v-316q64 -14 117 -49t90 -85.5t57.5 -114t20.5 -134.5q0 -101 -34 -183.5t-90.5 -141.5t-128.5 -91.5t-148 -32.5q-102 0 -191.5 47t-178.5 138q-26 -38 -57 -70.5t-69 -56.5t-84 -37.5t-103 -13.5q-83 0 -152 31.5t-118.5 88
t-77 133t-27.5 166.5q0 97 30 176t82.5 135t122.5 86t150 30q106 0 201 -56t191 -160q23 38 50 71.5t60 60t72.5 44t87.5 23.5v312zM531 962q-64 0 -115 -25t-86.5 -67.5t-54.5 -98.5t-19 -118q0 -54 15.5 -107.5t47 -97t78 -70.5t109.5 -27q50 0 89.5 18t71.5 49t58 73
t49 89.5t45.5 98.5t46.5 101q-78 92 -163 137t-172 45zM1171 348q61 0 116 20.5t96.5 60.5t66 100t24.5 140q0 50 -13 100.5t-41 91.5t-71.5 67t-104.5 26q-53 0 -94 -20t-73.5 -54t-59 -79.5t-50.5 -97t-48 -106t-51 -105.5q27 -29 60 -55t70.5 -45.5t81 -31.5t91.5 -12z
" />
    <glyph glyph-name="uni0934" unicode="&#x934;" horiz-adv-x="1723" 
d="M1182 1377h-1215v114h1791v-114h-449v-316q64 -14 117 -49t90 -85.5t57.5 -114t20.5 -134.5q0 -101 -34 -183.5t-90.5 -141.5t-128.5 -91.5t-148 -32.5q-102 0 -191.5 47t-178.5 138q-26 -38 -57 -70.5t-69 -56.5t-84 -37.5t-103 -13.5q-83 0 -152 31.5t-118.5 88
t-77 133t-27.5 166.5q0 97 30 176t82.5 135t122.5 86t150 30q106 0 201 -56t191 -160q23 38 50 71.5t60 60t72.5 44t87.5 23.5v312zM531 962q-64 0 -115 -25t-86.5 -67.5t-54.5 -98.5t-19 -118q0 -54 15.5 -107.5t47 -97t78 -70.5t109.5 -27q50 0 89.5 18t71.5 49t58 73
t49 89.5t45.5 98.5t46.5 101q-78 92 -163 137t-172 45zM1171 348q61 0 116 20.5t96.5 60.5t66 100t24.5 140q0 50 -13 100.5t-41 91.5t-71.5 67t-104.5 26q-53 0 -94 -20t-73.5 -54t-59 -79.5t-50.5 -97t-48 -106t-51 -105.5q27 -29 60 -55t70.5 -45.5t81 -31.5t91.5 -12z
M751 -58q0 53 32 86.5t82 33.5q25 0 47 -9.5t38 -26t25 -39.5t9 -50q0 -54 -32.5 -87t-81.5 -33q-26 0 -47.5 9t-37.5 25.5t-25 39.5t-9 51z" />
    <glyph glyph-name="uni0935" unicode="&#x935;" horiz-adv-x="1185" 
d="M882 383l-5 2q-57 -61 -135 -94.5t-177 -33.5q-106 0 -186.5 37.5t-134.5 98.5t-81.5 139.5t-27.5 160.5q0 85 28.5 162t81 135t127.5 92.5t168 34.5q103 0 186 -40t151 -106l5 1v405h-917v114h1255v-114h-210v-1377h-128v383zM882 811q-72 87 -153 136.5t-178 49.5
q-70 0 -124.5 -25.5t-92 -69t-57.5 -100.5t-20 -120q0 -64 20.5 -120.5t58 -99t91.5 -67t122 -24.5q67 0 127 24t106 66t73 98t27 120v132z" />
    <glyph glyph-name="uni0936" unicode="&#x936;" horiz-adv-x="1549" 
d="M643 811q-17 -2 -33 -3t-30 -1q-84 0 -150.5 27t-113 74.5t-71.5 111t-25 137.5q0 63 18.5 115.5t55.5 99.5l-1 5h-328v114h1619v-114h-210v-1377h-128v1377h-418l-1 -5q30 -30 56.5 -69t45.5 -84.5t30 -97t11 -105.5q0 -82 -25.5 -156.5t-72 -139.5t-110.5 -120
t-141 -98v-4q51 -42 110 -99.5t117 -118.5t109 -119.5t86 -103.5l-87 -74q-29 35 -75 90.5t-104.5 119t-127 129t-141.5 119.5q-29 -14 -70.5 -21.5t-86.5 -7.5q-41 0 -80.5 7.5t-71 24t-50.5 43.5t-19 65q0 57 40.5 85.5t104.5 28.5q53 0 114.5 -20.5t125.5 -65.5
q50 19 108.5 55.5t108 90.5t82.5 126t33 164q0 64 -17.5 127.5t-53 114.5t-88.5 83t-125 32q-56 0 -97.5 -19.5t-68.5 -51.5t-40.5 -73t-13.5 -84q0 -45 15 -86t45 -72t75 -49.5t105 -18.5q12 0 28 1t32 4v-113z" />
    <glyph glyph-name="uni0937" unicode="&#x937;" horiz-adv-x="1212" 
d="M1247 1377h-210v-1377h-128v521l-4 1q-139 -136 -338 -136q-100 0 -171.5 31.5t-117.5 84.5t-67.5 122.5t-21.5 146.5v606h-224v114h1282v-114zM557 506q72 0 134.5 23t114.5 62l-486 694l-3 -1v-493q0 -57 11 -109t38 -91t73.5 -62t117.5 -23zM909 1377h-507l492 -699
l15 20v679z" />
    <glyph glyph-name="uni0938" unicode="&#x938;" horiz-adv-x="1423" 
d="M1458 1491v-114h-210v-1377h-128v694h-624q-29 -17 -55 -24t-58 -9l-2 -5q95 -168 226.5 -307.5t293.5 -260.5l-83 -95q-131 96 -240.5 210t-198 230.5t-157 229.5t-117.5 208l106 57q19 -42 36.5 -69t36 -42.5t39 -21.5t45.5 -6q75 0 110.5 55t35.5 145q0 57 -11 112.5
t-28 105.5t-37.5 93.5t-38.5 76.5h-434v114h1493zM1120 1377h-587q49 -97 78.5 -195.5t29.5 -193.5q0 -48 -9.5 -93.5t-28.5 -85.5l1 -2h516v570z" />
    <glyph glyph-name="uni0939" unicode="&#x939;" horiz-adv-x="1203" 
d="M732 266q30 9 63.5 23t62 37.5t47.5 57.5t19 83t-19.5 86.5t-56.5 62.5t-89 37.5t-116 12.5q-55 0 -113 -11t-105 -40.5t-77.5 -81t-30.5 -132.5t31 -149.5t80 -125t109.5 -101.5t119 -79t109 -57.5t80.5 -37.5l-49 -99q-69 32 -140.5 68t-138.5 78.5t-126 93.5
t-103 112.5t-69.5 134.5t-25.5 161q0 82 22 143.5t61 106.5q-54 57 -86 128t-32 137q0 41 14 77t44.5 63t78.5 42.5t116 15.5h470v264h-917v114h1273v-114h-229v-382h-590q-38 0 -64 -8.5t-42.5 -23.5t-23.5 -35t-7 -42t6 -45t16 -45t23.5 -42.5t28.5 -36.5
q59 35 131.5 51.5t150.5 16.5q89 0 164 -20t129.5 -60.5t85 -101t30.5 -141.5t-28 -135.5t-69.5 -89.5t-88 -55t-83.5 -32z" />
    <glyph glyph-name="uni093A" unicode="&#x93a;" 
d="M-170 1844v-381h-128v381h128z" />
    <glyph glyph-name="uni093B" unicode="&#x93b;" horiz-adv-x="507" 
d="M542 1377h-210v-1377h-128v1377h-239v114h577v-114zM333 1844v-381h-128v381h128z" />
    <glyph glyph-name="uni093C" unicode="&#x93c;" 
d="M-352 -268q0 53 32 86.5t82 33.5q25 0 47 -9.5t38 -26t25 -39.5t9 -50q0 -54 -32.5 -87t-81.5 -33q-26 0 -47.5 9t-37.5 25.5t-25 39.5t-9 51z" />
    <glyph glyph-name="uni093D" unicode="&#x93d;" horiz-adv-x="1160" 
d="M956 1377h-443q-47 0 -85 -5.5t-64.5 -22t-41 -45.5t-14.5 -76q0 -59 21.5 -103.5t61 -82.5t95 -72.5t124.5 -72.5q44 -25 90.5 -52t90 -58.5t82.5 -69.5t68 -84.5t46 -102.5t17 -124q0 -91 -31 -168t-85 -133.5t-128 -88t-160 -31.5q-83 0 -156 27t-133 66.5t-105.5 84
t-72.5 78.5l88 77q82 -103 175.5 -158t196.5 -55q65 0 118 22.5t91 62t58.5 93.5t20.5 117q0 79 -30.5 139t-79 106.5t-109 84t-120.5 72.5q-71 41 -135.5 82.5t-114 92t-78.5 114.5t-29 150q0 58 15.5 104t51.5 78.5t94.5 50t145.5 17.5h464v-114z" />
    <glyph glyph-name="uni093E" unicode="&#x93e;" horiz-adv-x="507" 
d="M542 1377h-210v-1377h-128v1377h-239v114h577v-114z" />
    <glyph glyph-name="uni093F" unicode="&#x93f;" horiz-adv-x="507" 
d="M542 1377h-210v-1377h-128v1377h-239v114h234q-28 68 -41.5 131t-13.5 120q0 71 22 131t67.5 103t115 67t163.5 24q134 0 265.5 -49t258.5 -130.5t248.5 -187.5t235.5 -220h-150q-24 23 -70 66.5t-108.5 95t-139.5 105.5t-163.5 98t-179 72t-187.5 28q-74 0 -122.5 -17.5
t-77 -48t-40.5 -71t-12 -85.5q0 -94 48 -232h224v-114z" />
    <glyph glyph-name="uni0940" unicode="&#x940;" horiz-adv-x="507" 
d="M542 1377h-210v-1377h-128v1377h-239v114h242q-18 107 -44 182t-57 125.5t-64.5 79.5t-66 44t-61 19t-49.5 4q-53 0 -90.5 -13.5t-61 -36.5t-34.5 -54t-11 -67t10 -74.5t28 -77t44 -75t58 -67.5h-126q-66 75 -101.5 149.5t-35.5 155.5q0 62 21 114t61 89.5t98.5 58
t132.5 20.5q108 0 188 -44t136.5 -121.5t90.5 -182.5t51 -228h218v-114z" />
    <glyph glyph-name="uni0941" unicode="&#x941;" 
d="M-493 -33q63 41 132.5 62t138.5 21q66 0 121 -19.5t94 -54.5t61 -83.5t22 -106.5q0 -57 -22.5 -109.5t-68 -92.5t-114.5 -64t-163 -24q-113 0 -202 33.5t-160.5 84.5t-126.5 112.5t-98 117.5l88 72q54 -65 106.5 -119t110 -93t124 -61t149.5 -22q70 0 118.5 15t78.5 39
t43.5 54t13.5 61q0 59 -43.5 97.5t-126.5 38.5q-38 0 -92 -13t-124 -55z" />
    <glyph glyph-name="uni0942" unicode="&#x942;" 
d="M299 -508q-54 83 -110.5 161t-120 138t-137 96.5t-160.5 36.5q-54 0 -95.5 -14t-69 -37t-42 -53t-14.5 -61q0 -29 11.5 -54.5t34 -45t55.5 -31t76 -11.5q34 0 73 7t77 21l30 -121q-42 -16 -85 -23.5t-84 -7.5q-66 0 -123 20t-99 56t-66 86.5t-24 112.5q0 69 29.5 121.5
t77.5 87.5t110 53t127 18q82 0 154 -26t134 -68.5t114 -96.5t94 -110t74 -108.5t54 -92.5z" />
    <glyph glyph-name="uni0943" unicode="&#x943;" 
d="M-175 -82h-109q-52 0 -90.5 -13t-64 -34.5t-38 -49.5t-12.5 -58q0 -31 13.5 -58t40 -46.5t66.5 -30.5t94 -11q46 0 89 8t94 25l30 -120q-48 -17 -94 -27t-101 -10q-77 0 -142.5 20t-112.5 57t-73.5 90.5t-26.5 119.5q0 69 27.5 118.5t73 82t103 47.5t117.5 15h116v-125z
" />
    <glyph glyph-name="uni0944" unicode="&#x944;" 
d="M-175 260h-122q-52 0 -90.5 -11t-64 -30t-38 -43.5t-12.5 -52.5q0 -29 12.5 -50.5t34.5 -35.5t52.5 -21t65.5 -7q40 0 82.5 7.5t77.5 18.5l28 -121q-51 -8 -98.5 -20t-84 -31.5t-58.5 -47.5t-22 -68q0 -29 11.5 -49.5t32.5 -34t49.5 -20t61.5 -6.5q44 0 88 10t78 25
l39 -116q-102 -43 -194 -43q-59 0 -111.5 17.5t-92 50t-62.5 79t-23 103.5q0 49 16.5 85.5t48.5 71.5l-1 4q-75 38 -114.5 89.5t-39.5 126.5q0 65 27.5 111.5t73 76t103 43.5t117.5 14h129v-125z" />
    <glyph glyph-name="uni0945" unicode="&#x945;" 
d="M-542 2098q14 -73 36 -134t57 -104.5t86 -67.5t123 -24q41 0 87 11t88 46t75 100t50 173l124 -27q-18 -116 -58.5 -197t-97 -132.5t-125 -75t-142.5 -23.5q-75 0 -141 24t-120.5 75.5t-96 133t-65.5 195.5z" />
    <glyph glyph-name="uni0946" unicode="&#x946;" 
d="M-287 1464q-6 107 -30 167t-64.5 89t-97.5 37t-129 12q-62 3 -123.5 10.5t-115.5 39t-95.5 98.5t-61.5 189l96 24q15 -86 48 -133t78 -69.5t99 -27.5t111 -7q46 -2 91 -7t86 -19.5t76.5 -42t63.5 -74.5t46.5 -117t24.5 -169h-103z" />
    <glyph glyph-name="uni0947" unicode="&#x947;" 
d="M-289 1440q-65 120 -114 206t-88 145t-71.5 94t-64 54t-65.5 25t-76 6h-197v136h194q53 0 97.5 -10.5t86 -38t83 -74.5t89.5 -119.5t105.5 -174t131.5 -236.5z" />
    <glyph glyph-name="uni0948" unicode="&#x948;" 
d="M-284 1466q-96 83 -166 140t-121.5 94t-88 57t-64.5 29.5t-51 11t-48 1.5h-207v122h188q59 0 106.5 -16t97 -48t107 -79.5t136.5 -110.5l5 4q-53 87 -94.5 151.5t-75 110.5t-61 75.5t-53.5 47t-51.5 24t-54.5 6.5h-201v124h191q49 0 88 -10.5t76.5 -39t77.5 -80
t91 -134.5t117 -201t155 -279h-99z" />
    <glyph glyph-name="uni0949" unicode="&#x949;" horiz-adv-x="507" 
d="M542 1377h-210v-1377h-128v1377h-239v114h577v-114zM-39 2098q14 -73 36 -134t57 -104.5t86 -67.5t123 -24q41 0 87 11t88 46t75 100t50 173l124 -27q-18 -116 -58.5 -197t-97 -132.5t-125 -75t-142.5 -23.5q-75 0 -141 24t-120.5 75.5t-96 133t-65.5 195.5z" />
    <glyph glyph-name="uni094A" unicode="&#x94a;" horiz-adv-x="507" 
d="M542 1377h-210v-1377h-128v1377h-239v114h577v-114zM220 1464q-6 107 -30 167t-64.5 89t-97.5 37t-129 12q-62 3 -123.5 10.5t-115.5 39t-95.5 98.5t-61.5 189l96 24q15 -86 48 -133t78 -69.5t99 -27.5t111 -7q46 -2 91 -7t86 -19.5t76.5 -42t63.5 -74.5t46.5 -117
t24.5 -169h-103z" />
    <glyph glyph-name="uni094B" unicode="&#x94b;" horiz-adv-x="507" 
d="M542 1377h-210v-1377h-128v1377h-239v114h577v-114zM218 1440q-65 120 -114 206t-88 145t-71.5 94t-64 54t-65.5 25t-76 6h-197v136h194q53 0 97.5 -10.5t86 -38t83 -74.5t89.5 -119.5t105.5 -174t131.5 -236.5z" />
    <glyph glyph-name="uni094C" unicode="&#x94c;" horiz-adv-x="507" 
d="M542 1377h-210v-1377h-128v1377h-239v114h577v-114zM223 1466q-96 83 -166 140t-121.5 94t-88 57t-64.5 29.5t-51 11t-48 1.5h-207v122h188q59 0 106.5 -16t97 -48t107 -79.5t136.5 -110.5l5 4q-53 87 -94.5 151.5t-75 110.5t-61 75.5t-53.5 47t-51.5 24t-54.5 6.5h-201
v124h191q49 0 88 -10.5t76.5 -39t77.5 -80t91 -134.5t117 -201t155 -279h-99z" />
    <glyph glyph-name="uni094D" unicode="&#x94d;" 
d="M67 -494l-400 374l74 83l403 -371z" />
    <glyph glyph-name="uni094E" unicode="&#x94e;" horiz-adv-x="517" 
d="M552 1377h-210v-1377h-128v1491h338v-114z" />
    <glyph glyph-name="uni094F" unicode="&#x94f;" horiz-adv-x="507" 
d="M255 1587q2 16 2.5 30.5t0.5 37.5q0 50 -19 85t-50 60.5t-71 43.5t-82 35.5t-83 36.5t-74 45q-22 18 -41 40.5t-32.5 52.5t-21.5 67.5t-8 84.5q0 17 1.5 35.5t5.5 39.5l97 -12q-1 -7 -1 -12v-11q0 -63 18 -105t48 -70.5t69.5 -48t82.5 -37t86 -37t81 -49.5q22 -17 40 -39
t31 -49.5t20 -62.5t7 -78q0 -76 -25 -179h205v-114h-210v-1377h-128v1377h-239v114h224q-24 46 -48 77.5t-49 51t-51.5 27.5t-55.5 8q-41 0 -81 -12.5t-81 -27t-82.5 -27t-84.5 -12.5q-33 0 -67.5 9t-69 30.5t-69.5 58t-68 90.5l82 58q46 -66 94 -92.5t98 -26.5
q39 0 77.5 12t78.5 26.5t81.5 26.5t86.5 12q33 0 68 -9.5t70 -32t68.5 -60t63.5 -92.5z" />
    <glyph glyph-name="uni0950" unicode="&#x950;" horiz-adv-x="2101" 
d="M1520 218q0 32 0.5 58t0.5 58q13 -2 31 -3t29 -1q68 0 119 24t85 66.5t51 102t17 130.5q0 60 -11.5 102.5t-30.5 69.5t-44.5 39.5t-52.5 12.5q-39 0 -71 -21.5t-62.5 -54t-61 -70.5t-66.5 -70.5t-79 -54t-97 -21.5q-20 0 -42 3.5t-46 11.5l-2 -2q19 -55 27 -110t8 -104
q0 -75 -19.5 -148t-64.5 -131t-118.5 -93.5t-181.5 -35.5q-92 0 -172 26.5t-148 72.5t-124 107.5t-100.5 130.5t-78.5 143t-57.5 144t-36.5 133.5t-17 112.5l102 34q12 -91 39.5 -184t68.5 -180.5t95 -164t119.5 -133.5t141.5 -90t162 -33q44 0 91 11.5t86 44.5t64.5 92
t25.5 154q0 173 -99 262t-310 89h-29t-32 -2v117q5 0 26 -0.5t41 -0.5q111 0 183.5 22.5t114.5 60t59 86t17 101.5q0 112 -60 172.5t-164 60.5q-42 0 -99.5 -13.5t-137.5 -53.5l-56 103q75 39 147 60t141 21q79 0 144 -27t111 -75.5t71.5 -115.5t25.5 -146
q0 -113 -51.5 -189.5t-146.5 -124.5v-6q32 -18 58.5 -39.5t50.5 -37.5q26 -17 57.5 -26.5t67.5 -9.5q58 0 100 23t76 57t64.5 74t64.5 74t75.5 57t99.5 23q59 0 108 -26.5t84.5 -73.5t55 -112.5t19.5 -144.5q0 -88 -25 -165t-73 -134.5t-118.5 -91t-161.5 -33.5
q-19 0 -41.5 1.5t-36.5 4.5zM1156 1927q15 -73 37.5 -134t59 -104.5t89 -67.5t127.5 -24q42 0 89.5 11.5t90.5 46.5t77.5 100t51.5 172l124 -27q-18 -116 -59.5 -197t-99.5 -132.5t-128 -75t-146 -23.5q-77 0 -144.5 24t-123.5 75.5t-98 133t-67 195.5zM1357 1896
q0 51 31 83.5t79 32.5q24 0 45 -9t36.5 -25t24.5 -38t9 -49q0 -52 -31 -84t-79 -32q-50 0 -82.5 33.5t-32.5 87.5z" />
    <glyph glyph-name="uni0951" unicode="&#x951;" 
d="M-300 1658v474h121v-474h-121z" />
    <glyph glyph-name="uni0952" unicode="&#x952;" 
d="M-844 -179h729v-114h-729v114z" />
    <glyph glyph-name="uni0953" unicode="&#x953;" 
d="M-219 1670l-401 373l74 83l404 -370z" />
    <glyph glyph-name="uni0954" unicode="&#x954;" 
d="M-336 1756l403 370l74 -83l-400 -373z" />
    <glyph glyph-name="uni0955" unicode="&#x955;" 
d="M-542 2295q14 -73 36 -134t57 -104.5t86 -67.5t123 -24q41 0 87 11t88 46t75 100t50 173l124 -27q-18 -116 -58.5 -197t-97 -132.5t-125 -75t-142.5 -23.5q-75 0 -141 24t-120.5 75.5t-96 133t-65.5 195.5zM-599 1725h729v-114h-729v114z" />
    <glyph glyph-name="uni0956" unicode="&#x956;" 
d="M-150 -221q-62 -21 -116 -36t-106.5 -24t-107.5 -13.5t-121 -4.5t-123 4.5t-111.5 13.5t-109.5 24t-117 36v116q62 -21 115.5 -36t106 -24t108 -13.5t121.5 -4.5t122.5 4.5t111 13.5t109.5 24t118 36v-116z" />
    <glyph glyph-name="uni0957" unicode="&#x957;" 
d="M-150 -221q-62 -21 -116 -36t-106.5 -24t-107.5 -13.5t-121 -4.5t-123 4.5t-111.5 13.5t-109.5 24t-117 36v116q62 -21 115.5 -36t106 -24t108 -13.5t121.5 -4.5t122.5 4.5t111 13.5t109.5 24t118 36v-116zM-150 -481q-62 -21 -116 -36t-106.5 -24t-107.5 -13.5
t-121 -4.5t-123 4.5t-111.5 13.5t-109.5 24t-117 36v116q62 -21 115.5 -36t106 -24t108 -13.5t121.5 -4.5t122.5 4.5t111 13.5t109.5 24t118 36v-116z" />
    <glyph glyph-name="uni0958" unicode="&#x958;" horiz-adv-x="1717" 
d="M1752 1377h-806v-456l6 -2q61 88 141.5 129t166.5 41q75 0 136 -29t104.5 -77.5t67 -113.5t23.5 -137q0 -65 -20 -132t-63 -130.5t-110 -120t-161 -100.5l-64 108q78 37 134 84.5t91.5 99.5t52.5 105.5t17 103.5q0 46 -13.5 86t-38.5 69.5t-61 46.5t-81 17t-92.5 -18
t-92 -54t-82 -90t-61.5 -125v-682h-128v411l-5 2q-59 -62 -129 -96.5t-161 -34.5q-96 0 -169 37.5t-122.5 98t-74.5 135.5t-25 150q0 72 23.5 141.5t69.5 124t112.5 87.5t152.5 33q95 0 177.5 -39t145.5 -101l5 1v427h-853v114h1787v-114zM819 802q-65 77 -144.5 122
t-167.5 45q-64 0 -111 -24t-78.5 -63t-47 -89t-15.5 -101q0 -55 17 -108t49 -95t78.5 -67.5t105.5 -25.5q48 0 103.5 19t102 59.5t77.5 103.5t31 150v74zM356 36q0 53 32 86.5t82 33.5q25 0 47 -9.5t38 -26t25 -39.5t9 -50q0 -54 -32.5 -87t-81.5 -33q-26 0 -47.5 9
t-37.5 25.5t-25 39.5t-9 51z" />
    <glyph glyph-name="uni0959" unicode="&#x959;" horiz-adv-x="1668" 
d="M1237 37q-15 -6 -37 -14t-52.5 -14.5t-69.5 -11.5t-87 -5q-162 0 -287 58.5t-229 166.5t-195 260.5t-187 341.5l102 56q37 -72 73 -100.5t81 -28.5q72 0 113.5 59t41.5 159q0 44 -8.5 95t-26 104.5t-44 108t-62.5 105.5h-398v114h1738v-114h-210v-1377h-128v520l-4 1
q-54 -58 -121 -85.5t-142 -27.5q-88 0 -154.5 33t-111.5 87t-67.5 123.5t-22.5 141.5q0 69 21.5 134t63.5 116t104 81.5t143 30.5q44 0 82.5 -9.5t73 -27.5t67 -43t64.5 -56l4 1v357h-866q68 -112 100 -218.5t32 -197.5q0 -73 -20 -136t-57.5 -109t-91 -72.5t-119.5 -26.5
l-2 -4q74 -146 152 -240.5t157 -149.5t159 -77t159 -22q45 0 84 5.5t73 13.5t62 17.5t50 17.5v-141zM1365 854q-20 27 -47 58.5t-61 59t-76 45.5t-93 18q-54 0 -95.5 -21.5t-70 -56.5t-43 -80t-14.5 -92q0 -48 14.5 -93.5t43 -81.5t70.5 -58t96 -22q40 0 88 14.5t90 49
t70 90.5t28 139v31zM137 0q0 53 32 86.5t82 33.5q25 0 47 -9.5t38 -26t25 -39.5t9 -50q0 -54 -32.5 -87t-81.5 -33q-26 0 -47.5 9t-37.5 25.5t-25 39.5t-9 51z" />
    <glyph glyph-name="uni095A" unicode="&#x95a;" horiz-adv-x="1240" 
d="M1277 1377h-210v-1377h-128v1377h-489v-777q0 -21 -2.5 -41t-10 -36t-21 -25.5t-36.5 -9.5q-22 0 -51.5 14.5t-60.5 38.5t-60.5 54.5t-53 63.5t-38 65t-14.5 59t12.5 42.5t34 23t51 9.5t63.5 2h59v517h-357v114h1312v-114zM458 169q0 53 32 86.5t82 33.5q25 0 47 -9.5
t38 -26t25 -39.5t9 -50q0 -54 -32.5 -87t-81.5 -33q-26 0 -47.5 9t-37.5 25.5t-25 39.5t-9 51z" />
    <glyph glyph-name="uni095B" unicode="&#x95b;" horiz-adv-x="1502" 
d="M1537 1377h-210v-1377h-128v902h-380l-1 -5q91 -97 137 -192t46 -192q0 -60 -18.5 -114t-56 -94t-93 -63.5t-129.5 -23.5q-83 0 -152 29.5t-125.5 79t-101 114.5t-79.5 136t-60.5 143.5t-44 137t-29.5 116t-17 81.5l109 27q34 -178 83.5 -317t111.5 -235t136.5 -146.5
t159.5 -50.5q48 0 83 16t57.5 43t33 62.5t10.5 74.5q0 51 -17 103.5t-49.5 103t-80.5 97t-110 84.5v99h577v361h-1234v114h1572v-114zM521 -48q0 53 32 86.5t82 33.5q25 0 47 -9.5t38 -26t25 -39.5t9 -50q0 -54 -32.5 -87t-81.5 -33q-26 0 -47.5 9t-37.5 25.5t-25 39.5
t-9 51z" />
    <glyph glyph-name="uni095C" unicode="&#x95c;" horiz-adv-x="1435" 
d="M1470 1377h-294v-382h-505q-42 0 -70 -5.5t-45.5 -18t-24.5 -32t-7 -47.5q0 -25 6 -53.5t23.5 -53t47.5 -40.5t78 -16h281q90 0 152.5 -23.5t101.5 -64t56 -96t17 -118.5q0 -86 -29 -166t-86 -141.5t-140.5 -98t-192.5 -36.5q-121 0 -231.5 46t-203.5 128.5t-163 196
t-110 248.5l107 40q35 -107 92.5 -205.5t133.5 -173.5t168.5 -120t198.5 -45q74 0 135.5 23.5t105.5 66t68.5 103t24.5 135.5q0 53 -13 88t-39.5 56t-67.5 29.5t-96 8.5h-254q-77 0 -132 28.5t-91 72.5t-53 98.5t-17 105.5q0 58 19.5 96t54 60.5t82 32t102.5 9.5h388v264
h-1083v114h1505v-114zM728 -268q0 53 32 86.5t82 33.5q25 0 47 -9.5t38 -26t25 -39.5t9 -50q0 -54 -32.5 -87t-81.5 -33q-26 0 -47.5 9t-37.5 25.5t-25 39.5t-9 51z" />
    <glyph glyph-name="uni095D" unicode="&#x95d;" horiz-adv-x="1314" 
d="M641 110q-32 47 -47.5 100.5t-15.5 111.5q0 72 23.5 127t63 91.5t90.5 55t106 18.5q68 0 121.5 -26t91 -68.5t57.5 -97.5t20 -113q0 -62 -23.5 -121.5t-71.5 -106.5t-122.5 -76t-176.5 -29q-70 0 -140.5 15t-136 46t-122 78.5t-99 112.5t-66.5 147.5t-24 183.5
q0 121 35 214t97 155t146.5 94t183.5 32h220v323h-886v114h1384v-114h-370v-437h-323q-92 0 -160 -31.5t-113.5 -85.5t-68 -125.5t-22.5 -151.5q0 -91 27 -166t74 -131.5t110.5 -94t135.5 -53.5zM1028 315q0 34 -11.5 66t-33 57t-52 39.5t-67.5 14.5q-32 0 -61 -11.5
t-52 -35t-36.5 -59.5t-13.5 -85q0 -53 17 -108t50 -102q67 3 116 24t81 52.5t47.5 70t15.5 77.5zM656 -268q0 53 32 86.5t82 33.5q25 0 47 -9.5t38 -26t25 -39.5t9 -50q0 -54 -32.5 -87t-81.5 -33q-26 0 -47.5 9t-37.5 25.5t-25 39.5t-9 51z" />
    <glyph glyph-name="uni095E" unicode="&#x95e;" horiz-adv-x="1759" 
d="M978 921l6 -2q61 88 142.5 131.5t169.5 43.5q75 0 137 -29.5t106.5 -79.5t69 -116t24.5 -139q0 -63 -20.5 -130t-63.5 -130.5t-110 -120.5t-160 -100l-64 108q78 37 134 85t91.5 100t52.5 105t17 101q0 47 -14.5 88t-41 72t-63.5 48.5t-82 17.5t-93 -19t-93 -56
t-83 -91.5t-62 -125.5v-682h-128v523l-3 1q-69 -66 -144.5 -95t-163.5 -29q-167 0 -259 97t-92 289v591h-223v114h1829v-114h-816v-456zM850 1377h-534v-581q0 -66 10.5 -117.5t35.5 -86.5t66 -53.5t102 -18.5q53 0 99 13.5t85.5 37.5t73 57.5t62.5 73.5v675zM413 12
q0 53 32 86.5t82 33.5q25 0 47 -9.5t38 -26t25 -39.5t9 -50q0 -54 -32.5 -87t-81.5 -33q-26 0 -47.5 9t-37.5 25.5t-25 39.5t-9 51z" />
    <glyph glyph-name="uni095F" unicode="&#x95f;" horiz-adv-x="1243" 
d="M1278 1377h-210v-1377h-128v493l-5 1q-26 -22 -60.5 -45t-79 -41.5t-99 -30t-120.5 -11.5q-119 0 -202 39.5t-137.5 106.5t-86 155t-47.5 184q134 26 193.5 88.5t59.5 148.5q0 63 -27 137t-76 152h-288v114h1313v-114zM388 1377q43 -77 67 -153t24 -149
q0 -53 -13.5 -101.5t-42 -89t-73 -72t-105.5 -50.5q41 -146 119.5 -212t200.5 -66q52 0 105.5 12t103 34.5t92 55.5t74.5 75v716h-552zM431 100q0 53 32 86.5t82 33.5q25 0 47 -9.5t38 -26t25 -39.5t9 -50q0 -54 -32.5 -87t-81.5 -33q-26 0 -47.5 9t-37.5 25.5t-25 39.5
t-9 51z" />
    <glyph glyph-name="uni0960" unicode="&#x960;" horiz-adv-x="1847" 
d="M932 803q34 -17 63.5 -22.5t61.5 -5.5q21 0 44 3t48 12t52.5 24.5t58.5 40.5q-9 26 -13.5 54.5t-4.5 57.5q0 43 10 83t30 71.5t50 50.5t70 19q31 0 53 -12t36 -32.5t21 -48t7 -58.5q0 -32 -6.5 -65t-19 -64t-30 -58.5t-39.5 -47.5l163 -229q-90 -69 -151.5 -119.5
t-98.5 -92.5t-53 -79.5t-16 -80.5q0 -41 13.5 -77t39 -63t63 -43t85.5 -16q75 0 151 41.5t158 119.5l81 -88q-52 -50 -99 -85.5t-92.5 -58t-90 -33t-90.5 -10.5q-72 0 -134.5 22.5t-108 64t-72 100t-26.5 131.5q0 67 22 121t59.5 100.5t86.5 88t103 83.5l-99 141
q-73 -48 -134 -66t-110 -18q-31 0 -69 5.5t-73 21.5v-687h-127v622l-558 -451l-87 100l637 482q-48 38 -97 79t-99 75.5t-101.5 56.5t-103.5 22q-16 0 -49 -2t-73 -5t-81.5 -7t-72.5 -7v131q27 3 66.5 6.5t79.5 6t74 4.5t50 2q49 0 98.5 -19.5t100.5 -52t103.5 -75.5
t108.5 -91l4 2v499h-840v114h1917v-114h-950v-574z" />
    <glyph glyph-name="uni0961" unicode="&#x961;" horiz-adv-x="1491" 
d="M618 -10q-31 21 -77.5 57.5t-98.5 86.5t-104.5 112.5t-94 135.5t-67.5 156t-26 174q0 87 25 158.5t69 122.5t104.5 79t131.5 28q53 0 94.5 -15t73 -38.5t53 -52.5t35.5 -56h5q25 55 62.5 93.5t88.5 55.5v290h-927v114h1561v-114h-507v-276q78 -6 133.5 -36t90.5 -75
t51.5 -99.5t16.5 -107.5q0 -54 -14.5 -97.5t-38.5 -80t-54 -68.5t-61 -62q-25 -24 -46.5 -47t-37.5 -46.5t-25.5 -47.5t-9.5 -51q0 -32 13 -54t35.5 -36.5t52.5 -21t65 -6.5q36 0 75 6t71 14l26 -119q-42 -3 -87 -11.5t-81.5 -26t-60.5 -46.5t-24 -74q0 -33 13.5 -55
t36 -35.5t51 -19t59.5 -5.5q39 0 77 7.5t65 19.5l39 -114q-41 -17 -83.5 -25.5t-84.5 -8.5q-57 0 -109.5 15.5t-93 46.5t-64.5 76.5t-24 105.5q0 51 17 91.5t44 70.5v3q-76 42 -111 93t-35 123q0 40 10.5 71.5t28.5 59.5t43 53.5t54 53.5q33 31 61 60t48 60.5t31.5 66.5
t11.5 78q0 46 -14 81t-39 58t-59.5 35t-75.5 12q-53 0 -89 -18.5t-59 -53t-33 -84t-10 -112.5q0 -17 1 -35t3 -36h-123q-4 58 -16 117t-36 107t-63 78t-97 30q-40 0 -77.5 -16t-67 -49.5t-47 -85t-17.5 -123.5q0 -73 18.5 -137.5t50 -122t73 -108t87 -95t92.5 -83.5t90 -72z
" />
    <glyph glyph-name="uni0962" unicode="&#x962;" 
d="M-459 -506q-32 19 -75 53.5t-82 80.5t-66 102.5t-27 119.5q0 48 15 85.5t41 63.5t62.5 40t78.5 14q48 0 87 -21.5t62 -60.5h2q27 43 66 62t82 19q47 0 83.5 -17t62 -43.5t38.5 -59.5t13 -64q0 -51 -19 -86t-42 -61t-42 -47t-19 -44t16 -38.5t36 -15.5q19 0 36.5 8
t33.5 21t30 28.5t26 30.5l79 -80q-17 -20 -36.5 -40t-43 -36t-53 -25.5t-67.5 -9.5t-68.5 14t-52.5 37t-34 53t-12 62q0 29 8 50.5t20 38.5t26.5 31.5t26.5 30.5t20 34.5t8 43.5q0 36 -23 53.5t-52 17.5q-24 0 -41 -10t-28 -26.5t-16 -37t-5 -41.5q0 -17 0.5 -27.5
t2.5 -19.5h-110q-3 30 -8 58.5t-15 51t-27 36t-45 13.5q-34 0 -57 -21.5t-23 -73.5q0 -42 15.5 -79t41.5 -69t60 -59.5t71 -51.5z" />
    <glyph glyph-name="uni0963" unicode="&#x963;" 
d="M120 -461q-30 -12 -64 -19t-66 -7q-37 0 -69.5 9.5t-56.5 27.5t-38 43t-14 56q0 25 9.5 50t27.5 42v2q-45 23 -64 51t-19 65q0 38 15.5 62.5t34 44t34 38t15.5 45.5q0 24 -21.5 42.5t-56.5 18.5q-24 0 -41.5 -10t-28.5 -26.5t-16 -37.5t-5 -44q0 -26 3 -44h-110
q-3 30 -8 59t-15 51t-27.5 35.5t-45.5 13.5q-33 0 -56 -21.5t-23 -73.5q0 -42 15.5 -79t41.5 -69t60 -59.5t71 -51.5l-61 -88q-32 19 -75 53t-82 80.5t-66 103t-27 121.5q0 46 15 83.5t41 63.5t62 40t77 14q51 0 89 -21t62 -61h2q27 43 65.5 62t84.5 19q45 0 81.5 -16.5
t62 -42.5t39.5 -58t14 -63q0 -41 -18 -66.5t-40 -46t-40 -39t-18 -44.5q0 -16 13.5 -29t55.5 -13q31 0 60 6.5t49 11.5l20 -95q-27 -3 -55.5 -7.5t-51.5 -13t-38 -20.5t-15 -30q0 -23 24 -32.5t54 -9.5q27 0 51.5 5.5t52.5 15.5z" />
    <glyph glyph-name="uni0964" unicode="&#x964;" horiz-adv-x="848" 
d="M598 0h-128v1491h128v-1491z" />
    <glyph glyph-name="uni0965" unicode="&#x965;" horiz-adv-x="1229" 
d="M598 0h-128v1491h128v-1491zM979 0h-128v1491h128v-1491z" />
    <glyph glyph-name="uni0966" unicode="&#x966;" horiz-adv-x="1023" 
d="M515 1065q-62 0 -113 -22t-88 -62t-57 -95.5t-20 -122.5q0 -70 22 -126.5t59.5 -97t87.5 -62.5t107 -22t106.5 22t86.5 62.5t58.5 97.5t21.5 128q0 67 -20 122.5t-55.5 95t-85.5 61t-110 21.5zM508 1185q86 0 159.5 -32t127 -88.5t83.5 -133.5t30 -168q0 -93 -31 -171.5
t-85 -135.5t-126 -88.5t-154 -31.5q-81 0 -153 31.5t-126.5 88.5t-86 136t-31.5 174q0 91 29 167.5t81.5 132.5t124.5 87.5t158 31.5z" />
    <glyph glyph-name="uni0967" unicode="&#x967;" horiz-adv-x="907" 
d="M392 853q-52 29 -97.5 65t-80 81t-54.5 98.5t-20 118.5q0 70 23.5 124t63 90.5t91.5 55.5t109 19q64 0 121.5 -23t101 -66.5t69 -107t25.5 -145.5q0 -89 -30.5 -171t-81 -160.5t-116 -155t-134.5 -152.5q113 -102 190.5 -175.5t125 -131.5t68.5 -105.5t21 -97.5
q0 -54 -21 -107.5t-59 -101.5l-103 65q16 23 27.5 41t18.5 34.5t10.5 34t3.5 40.5q0 19 -4 37.5t-19 43t-44 58.5t-79 83t-124.5 117t-179.5 160q118 123 196 215.5t125 166.5t66.5 136t19.5 125t-16 106t-42 70t-58 38.5t-64 11.5q-37 0 -69.5 -13.5t-57 -38t-38.5 -58
t-14 -72.5q0 -44 16.5 -83t43.5 -72t61 -60t69 -46z" />
    <glyph glyph-name="uni0968" unicode="&#x968;" horiz-adv-x="1074" 
d="M841 -201q-130 174 -233 353t-187 366q-59 4 -103 25.5t-73 52.5t-43 67t-14 70q0 24 7 45.5t20.5 38t33 26.5t45.5 10q25 0 51 -11t52 -35t50 -63t44 -96q53 16 106.5 44.5t96 74t69.5 109.5t27 151q0 90 -29 158t-80 114t-119.5 69t-147.5 23q-65 0 -134 -16t-139 -48
l-41 109q166 68 312 68q115 0 207.5 -39t157.5 -105.5t100.5 -154.5t35.5 -185q0 -81 -25 -155t-73 -136t-118 -110.5t-161 -78.5l-1 -3q43 -91 85.5 -173t89.5 -162t102 -161.5t122 -170.5z" />
    <glyph glyph-name="uni0969" unicode="&#x969;" horiz-adv-x="1054" 
d="M768 -205q-63 97 -132 188t-147 180q-73 3 -126 19t-87.5 41t-51 55t-16.5 62q0 48 32 76t81 28q27 0 57.5 -9.5t61.5 -30t62 -51.5t58 -74q28 5 67 21t74.5 48.5t60 85t24.5 129.5q0 72 -23 123.5t-63 84.5t-95 49t-118 16h-263v114h235q62 0 108 19.5t76 51t45 72
t15 81.5q0 42 -15.5 79t-50.5 64.5t-91 43.5t-137 16h-294v114h288q111 0 191 -27.5t131.5 -73t76 -104t24.5 -119.5q0 -45 -12 -83.5t-31.5 -70.5t-45 -58.5t-52.5 -47.5v-6q58 -24 100 -62.5t69.5 -85t41 -98t13.5 -101.5q0 -67 -21.5 -127.5t-59 -110.5t-88 -86.5
t-108.5 -54.5v-4q66 -77 125 -151t116 -159z" />
    <glyph glyph-name="uni096A" unicode="&#x96a;" horiz-adv-x="1159" 
d="M251 1491q-9 -32 -13 -62.5t-4 -57.5q0 -81 29.5 -150t77.5 -130.5t109.5 -117t125.5 -110.5q65 57 127.5 117.5t112 129t80 146.5t30.5 171q0 17 -1 33t-3 31h122q2 -20 3.5 -38.5t1.5 -38.5q0 -105 -34.5 -193t-89 -164t-123.5 -142.5t-138 -127.5q50 -45 94.5 -91.5
t78 -97.5t53 -107t19.5 -120q0 -76 -28 -133.5t-74.5 -96.5t-106.5 -59t-124 -20q-77 0 -138.5 27t-104.5 72t-66 103.5t-23 121.5q0 59 19 111.5t52 101t76.5 94t93.5 90.5q-68 58 -135 121t-120.5 136t-86.5 158.5t-33 188.5q0 50 9 104h132zM367 364q0 -60 23.5 -96
t56.5 -56t69 -26.5t61 -6.5q42 0 80 13.5t66.5 39.5t45.5 62.5t17 83.5q0 46 -16.5 88.5t-45 82.5t-67.5 79t-83 78q-44 -41 -81.5 -81.5t-65.5 -82.5t-44 -86t-16 -92z" />
    <glyph glyph-name="uni096B" unicode="&#x96b;" horiz-adv-x="1235" 
d="M361 1491q-23 -80 -40 -149.5t-27.5 -131.5t-15.5 -117.5t-5 -107.5q0 -118 23.5 -201t64 -136t95.5 -77.5t117 -24.5q44 0 79 10.5t61.5 26.5t45 34.5t30.5 34.5q-33 53 -49.5 110.5t-16.5 105.5q0 37 9 64t24 45t34 26.5t40 8.5q25 0 50.5 -13t46 -37.5t33 -61
t12.5 -83.5q0 -50 -13 -91.5t-31 -74.5q62 -195 150 -391t213 -399l-100 -62q-105 178 -189.5 362.5t-149.5 381.5q-38 -38 -75.5 -60.5t-73 -34.5t-66.5 -16t-55 -4q-98 0 -177.5 42.5t-136 117t-87.5 174.5t-31 215q0 39 4 94t13 121t24 142t37 157h133z" />
    <glyph glyph-name="uni096C" unicode="&#x96c;" horiz-adv-x="1199" 
d="M857 836h-233q-72 0 -122.5 -21t-82 -56t-45.5 -80t-14 -93q0 -62 22 -118t63 -98t98.5 -67t129.5 -25q27 0 64 4.5t66 17.5q-18 36 -30.5 84t-12.5 90q0 25 5 47.5t16.5 39t30 26t45.5 9.5q37 0 68.5 -20.5t55 -53t36.5 -73t13 -80.5t-14.5 -75.5t-46.5 -58.5
q101 -189 230 -373l-96 -68q-68 100 -125.5 197.5t-107.5 195.5q-47 -15 -91.5 -21t-81.5 -6q-99 0 -183 35.5t-145.5 96.5t-96.5 143.5t-35 175.5q0 82 31 148t106 126v6q-54 20 -94 52.5t-67 74t-40 89.5t-13 99q0 70 22.5 118t59.5 80t84 49.5t96 26t95.5 10t82.5 1.5
h221v-114h-214q-75 0 -135 -8t-102 -29t-64.5 -57.5t-22.5 -92.5q0 -63 26.5 -108t69.5 -74.5t97 -43.5t110 -14h271v-114z" />
    <glyph glyph-name="uni096D" unicode="&#x96d;" horiz-adv-x="1304" 
d="M984 533q-11 -1 -20.5 -2t-28.5 -1q-88 0 -161 28.5t-125.5 79t-81.5 119.5t-29 151q0 66 19 120.5t54 93.5t85 60.5t113 21.5q85 0 154.5 -40t118.5 -111t75.5 -170.5t26.5 -217.5q0 -132 -32.5 -240.5t-92 -186.5t-143.5 -121t-187 -43q-124 0 -217.5 57.5t-161.5 158
t-112 237t-70.5 294t-37.5 328.5t-11 342h122q0 -186 11 -354t35 -312.5t62 -261t92 -199t124.5 -127t159.5 -44.5q83 0 146 37.5t105 103t63.5 154t21.5 189.5q0 107 -22 184t-57 127t-78 73.5t-86 23.5q-25 0 -52.5 -9t-51 -30t-38.5 -56.5t-15 -88.5q0 -68 24.5 -116
t64 -78t88.5 -44t97 -14q11 0 24.5 1t24.5 3v-120z" />
    <glyph glyph-name="uni096E" unicode="&#x96e;" horiz-adv-x="1149" 
d="M880 1426q-139 -195 -241.5 -344t-173.5 -258.5t-113.5 -181t-61.5 -110.5q-24 -50 -35.5 -91t-11.5 -83q0 -55 19 -100.5t55 -78.5t86.5 -51t113.5 -18q72 0 130.5 24t109 67.5t95 102.5t88.5 130l109 -67q-56 -87 -111.5 -156.5t-118 -118t-134 -75t-158.5 -26.5
q-91 0 -166 28t-128.5 77.5t-83 117t-29.5 147.5q0 109 57 225q18 37 61.5 111t116 186.5t176 265t243.5 347.5z" />
    <glyph glyph-name="uni096F" unicode="&#x96f;" horiz-adv-x="1129" 
d="M478 877q49 20 90.5 46.5t71.5 60t47 75t17 92.5q0 46 -14.5 88.5t-43 75t-71 52t-98.5 19.5t-99 -19.5t-73 -54t-45.5 -80.5t-15.5 -100q0 -64 23.5 -123.5t73 -127t125.5 -150t182 -192.5q87 -91 156.5 -165t118 -137.5t74 -119t25.5 -107.5q0 -46 -20.5 -100
t-59.5 -105l-98 61q6 9 15 25t18 36.5t15.5 43t6.5 44.5q0 34 -18.5 72t-58 88.5t-101 116.5t-147.5 156q-110 114 -194.5 204.5t-142 170.5t-87 156t-29.5 161q0 82 26.5 149.5t73 115.5t110.5 74t140 26q82 0 147.5 -29.5t112 -79.5t71.5 -115.5t25 -137.5q0 -56 -16 -110
t-52 -103.5t-93.5 -91t-139.5 -71.5z" />
    <glyph glyph-name="uni0970" unicode="&#x970;" horiz-adv-x="899" 
d="M450 1393q-41 0 -75.5 -14.5t-59.5 -41.5t-39 -66t-14 -88q0 -50 15 -89.5t41 -67t60 -42t72 -14.5q37 0 71 14.5t59.5 42t41 67t15.5 89.5q0 49 -14 88t-39 66t-59.5 41.5t-74.5 14.5zM450 1511q64 0 119.5 -24.5t96.5 -68t64.5 -104t23.5 -131.5t-24.5 -131.5
t-66.5 -104t-97 -68t-116 -24.5t-116.5 24.5t-97.5 68t-66.5 104t-24.5 131.5t23.5 131.5t65 104t97 68t119.5 24.5z" />
    <glyph glyph-name="uni0971" unicode="&#x971;" horiz-adv-x="493" 
d="M130 1433q0 54 32 88t83 34q24 0 45.5 -9.5t37.5 -26t25.5 -39t9.5 -49.5q0 -54 -32 -87.5t-84 -33.5q-25 0 -46.5 9t-37 25.5t-24.5 39t-9 49.5z" />
    <glyph glyph-name="uni0972" unicode="&#x972;" horiz-adv-x="1644" 
d="M824 931q70 -32 115 -74q37 -7 71 -11t66 -4q75 0 140 27t128 94v528h335v-114h-207v-1377h-128v805l-6 1q-51 -41 -105 -57.5t-109 -16.5q-27 0 -54 3.5t-54 9.5q11 -29 16.5 -60t5.5 -66q0 -79 -25.5 -145t-72.5 -114t-113.5 -74.5t-148.5 -26.5q-102 0 -181.5 37
t-140.5 94t-104 126t-72 133t-44.5 115t-21.5 73l101 47q18 -54 39.5 -112t49 -114.5t62 -107t79.5 -89t101.5 -61t127.5 -22.5q64 0 110.5 19t76.5 51t44 75.5t14 93.5q0 54 -17 98.5t-56 76.5t-101.5 49.5t-152.5 17.5q-6 0 -17.5 -0.5t-22.5 -2.5v121q7 -1 10.5 -1h8.5
q77 0 134 21.5t95 56t57 78t19 87.5q0 41 -15 73t-41 53.5t-62 33t-79 11.5q-44 0 -98.5 -15t-135.5 -54l-56 103q78 38 149.5 59.5t141.5 21.5q69 0 127 -21t99 -59.5t64 -91.5t23 -117q0 -87 -42.5 -157.5t-126.5 -123.5v-4zM1117 2098q14 -73 36 -134t57 -104.5t86 -67.5
t123 -24q41 0 87 11t88 46t75 100t50 173l124 -27q-18 -116 -58.5 -197t-97 -132.5t-125 -75t-142.5 -23.5q-75 0 -141 24t-120.5 75.5t-96 133t-65.5 195.5z" />
    <glyph glyph-name="uni0973" unicode="&#x973;" horiz-adv-x="1644" 
d="M824 931q70 -32 115 -74q37 -7 71 -11t66 -4q75 0 140 27t128 94v528h335v-114h-207v-1377h-128v805l-6 1q-51 -41 -105 -57.5t-109 -16.5q-27 0 -54 3.5t-54 9.5q11 -29 16.5 -60t5.5 -66q0 -79 -25.5 -145t-72.5 -114t-113.5 -74.5t-148.5 -26.5q-102 0 -181.5 37
t-140.5 94t-104 126t-72 133t-44.5 115t-21.5 73l101 47q18 -54 39.5 -112t49 -114.5t62 -107t79.5 -89t101.5 -61t127.5 -22.5q64 0 110.5 19t76.5 51t44 75.5t14 93.5q0 54 -17 98.5t-56 76.5t-101.5 49.5t-152.5 17.5q-6 0 -17.5 -0.5t-22.5 -2.5v121q7 -1 10.5 -1h8.5
q77 0 134 21.5t95 56t57 78t19 87.5q0 41 -15 73t-41 53.5t-62 33t-79 11.5q-44 0 -98.5 -15t-135.5 -54l-56 103q78 38 149.5 59.5t141.5 21.5q69 0 127 -21t99 -59.5t64 -91.5t23 -117q0 -87 -42.5 -157.5t-126.5 -123.5v-4zM1472 1844v-381h-128v381h128z" />
    <glyph glyph-name="uni0974" unicode="&#x974;" horiz-adv-x="2146" 
d="M824 931q70 -32 115 -74q37 -7 71 -11t66 -4q75 0 140 27t128 94v528h335v-114h-207v-1377h-128v805l-6 1q-51 -41 -105 -57.5t-109 -16.5q-27 0 -54 3.5t-54 9.5q11 -29 16.5 -60t5.5 -66q0 -79 -25.5 -145t-72.5 -114t-113.5 -74.5t-148.5 -26.5q-102 0 -181.5 37
t-140.5 94t-104 126t-72 133t-44.5 115t-21.5 73l101 47q18 -54 39.5 -112t49 -114.5t62 -107t79.5 -89t101.5 -61t127.5 -22.5q64 0 110.5 19t76.5 51t44 75.5t14 93.5q0 54 -17 98.5t-56 76.5t-101.5 49.5t-152.5 17.5q-6 0 -17.5 -0.5t-22.5 -2.5v121q7 -1 10.5 -1h8.5
q77 0 134 21.5t95 56t57 78t19 87.5q0 41 -15 73t-41 53.5t-62 33t-79 11.5q-44 0 -98.5 -15t-135.5 -54l-56 103q78 38 149.5 59.5t141.5 21.5q69 0 127 -21t99 -59.5t64 -91.5t23 -117q0 -87 -42.5 -157.5t-126.5 -123.5v-4zM2181 1377h-210v-1377h-128v1377h-239v114h577
v-114zM1971 1844v-381h-128v381h128z" />
    <glyph glyph-name="uni0975" unicode="&#x975;" horiz-adv-x="2146" 
d="M824 931q70 -32 115 -74q37 -7 71 -11t66 -4q75 0 140 27t128 94v528h335v-114h-207v-1377h-128v805l-6 1q-51 -41 -105 -57.5t-109 -16.5q-27 0 -54 3.5t-54 9.5q11 -29 16.5 -60t5.5 -66q0 -79 -25.5 -145t-72.5 -114t-113.5 -74.5t-148.5 -26.5q-102 0 -181.5 37
t-140.5 94t-104 126t-72 133t-44.5 115t-21.5 73l101 47q18 -54 39.5 -112t49 -114.5t62 -107t79.5 -89t101.5 -61t127.5 -22.5q64 0 110.5 19t76.5 51t44 75.5t14 93.5q0 54 -17 98.5t-56 76.5t-101.5 49.5t-152.5 17.5q-6 0 -17.5 -0.5t-22.5 -2.5v121q7 -1 10.5 -1h8.5
q77 0 134 21.5t95 56t57 78t19 87.5q0 41 -15 73t-41 53.5t-62 33t-79 11.5q-44 0 -98.5 -15t-135.5 -54l-56 103q78 38 149.5 59.5t141.5 21.5q69 0 127 -21t99 -59.5t64 -91.5t23 -117q0 -87 -42.5 -157.5t-126.5 -123.5v-4zM1894 1587q2 16 2.5 30.5t0.5 37.5
q0 50 -19 85t-50 60.5t-71 43.5t-82 35.5t-83 36.5t-74 45q-22 18 -41 40.5t-32.5 52.5t-21.5 67.5t-8 84.5q0 17 1.5 35.5t5.5 39.5l97 -12q-1 -7 -1 -12v-11q0 -63 18 -105t48 -70.5t69.5 -48t82.5 -37t86 -37t81 -49.5q22 -17 40 -39t31 -49.5t20 -62.5t7 -78
q0 -76 -25 -179h205v-114h-210v-1377h-128v1377h-239v114h224q-24 46 -48 77.5t-49 51t-51.5 27.5t-55.5 8q-41 0 -81 -12.5t-81 -27t-82.5 -27t-84.5 -12.5q-33 0 -67.5 9t-69 30.5t-69.5 58t-68 90.5l82 58q46 -66 94 -92.5t98 -26.5q39 0 77.5 12t78.5 26.5t81.5 26.5
t86.5 12q33 0 68 -9.5t70 -32t68.5 -60t63.5 -92.5z" />
    <glyph glyph-name="uni0976" unicode="&#x976;" horiz-adv-x="1644" 
d="M824 931q70 -32 115 -74q37 -7 71 -11t66 -4q75 0 140 27t128 94v528h335v-114h-207v-1377h-128v805l-6 1q-51 -41 -105 -57.5t-109 -16.5q-27 0 -54 3.5t-54 9.5q11 -29 16.5 -60t5.5 -66q0 -79 -25.5 -145t-72.5 -114t-113.5 -74.5t-148.5 -26.5q-102 0 -181.5 37
t-140.5 94t-104 126t-72 133t-44.5 115t-21.5 73l101 47q18 -54 39.5 -112t49 -114.5t62 -107t79.5 -89t101.5 -61t127.5 -22.5q64 0 110.5 19t76.5 51t44 75.5t14 93.5q0 54 -17 98.5t-56 76.5t-101.5 49.5t-152.5 17.5q-6 0 -17.5 -0.5t-22.5 -2.5v121q7 -1 10.5 -1h8.5
q77 0 134 21.5t95 56t57 78t19 87.5q0 41 -15 73t-41 53.5t-62 33t-79 11.5q-44 0 -98.5 -15t-135.5 -54l-56 103q78 38 149.5 59.5t141.5 21.5q69 0 127 -21t99 -59.5t64 -91.5t23 -117q0 -87 -42.5 -157.5t-126.5 -123.5v-4zM1492 -221q-62 -21 -116 -36t-106.5 -24
t-107.5 -13.5t-121 -4.5t-123 4.5t-111.5 13.5t-109.5 24t-117 36v116q62 -21 115.5 -36t106 -24t108 -13.5t121.5 -4.5t122.5 4.5t111 13.5t109.5 24t118 36v-116z" />
    <glyph glyph-name="uni0977" unicode="&#x977;" horiz-adv-x="1644" 
d="M824 931q70 -32 115 -74q37 -7 71 -11t66 -4q75 0 140 27t128 94v528h335v-114h-207v-1377h-128v805l-6 1q-51 -41 -105 -57.5t-109 -16.5q-27 0 -54 3.5t-54 9.5q11 -29 16.5 -60t5.5 -66q0 -79 -25.5 -145t-72.5 -114t-113.5 -74.5t-148.5 -26.5q-102 0 -181.5 37
t-140.5 94t-104 126t-72 133t-44.5 115t-21.5 73l101 47q18 -54 39.5 -112t49 -114.5t62 -107t79.5 -89t101.5 -61t127.5 -22.5q64 0 110.5 19t76.5 51t44 75.5t14 93.5q0 54 -17 98.5t-56 76.5t-101.5 49.5t-152.5 17.5q-6 0 -17.5 -0.5t-22.5 -2.5v121q7 -1 10.5 -1h8.5
q77 0 134 21.5t95 56t57 78t19 87.5q0 41 -15 73t-41 53.5t-62 33t-79 11.5q-44 0 -98.5 -15t-135.5 -54l-56 103q78 38 149.5 59.5t141.5 21.5q69 0 127 -21t99 -59.5t64 -91.5t23 -117q0 -87 -42.5 -157.5t-126.5 -123.5v-4zM1492 -221q-62 -21 -116 -36t-106.5 -24
t-107.5 -13.5t-121 -4.5t-123 4.5t-111.5 13.5t-109.5 24t-117 36v116q62 -21 115.5 -36t106 -24t108 -13.5t121.5 -4.5t122.5 4.5t111 13.5t109.5 24t118 36v-116zM1492 -481q-62 -21 -116 -36t-106.5 -24t-107.5 -13.5t-121 -4.5t-123 4.5t-111.5 13.5t-109.5 24t-117 36
v116q62 -21 115.5 -36t106 -24t108 -13.5t121.5 -4.5t122.5 4.5t111 13.5t109.5 24t118 36v-116z" />
    <glyph glyph-name="uni0978" unicode="&#x978;" horiz-adv-x="1160" 
d="M446 884v-164q0 -51 -14 -83t-57 -32q-39 0 -83.5 27t-83 68t-63.5 88.5t-25 89.5q0 22 8 34.5t27 22.5q20 11 63 23.5t100 24.5v394h-353v114h1230v-114h-749v-371q48 8 96 12t90 4q112 0 187.5 -30.5t121 -82t64.5 -118.5t19 -140q0 -81 -19.5 -163.5t-51.5 -160.5
t-74 -149t-87 -128l-110 78q42 51 81.5 113.5t70 131t49 140t18.5 141.5q0 52 -12.5 97.5t-43 79t-82.5 52.5t-130 19q-37 0 -88 -4.5t-99 -13.5z" />
    <glyph glyph-name="uni0979" unicode="&#x979;" horiz-adv-x="1502" 
d="M1537 1377h-210v-1377h-128v902h-380l-1 -5q91 -97 137 -189.5t46 -189.5q0 -60 -18.5 -113t-56 -92.5t-93 -62t-129.5 -22.5q-83 0 -152 29t-125.5 78t-101 113t-79.5 134t-60.5 141.5t-44 135t-29.5 115t-17 81.5l109 27q34 -178 83 -315.5t111.5 -231.5t137 -143
t159.5 -49q48 0 83 15t57.5 41.5t33 61t10.5 73.5q0 51 -17 103t-49.5 101.5t-80.5 95t-110 83.5v99h577v361h-1234v114h1572v-114zM366 62q0 47 28 76.5t73 29.5t75.5 -29.5t30.5 -78.5q0 -47 -29 -75.5t-75 -28.5q-21 0 -40 8t-33 22t-22 33.5t-8 42.5zM813 62
q0 47 28 76.5t73 29.5t75.5 -29.5t30.5 -78.5q0 -47 -29 -75.5t-75 -28.5q-21 0 -40 8t-33 22t-22 33.5t-8 42.5zM590 -161q0 47 28 76.5t73 29.5t75.5 -29.5t30.5 -78.5q0 -47 -29 -75.5t-75 -28.5q-21 0 -40 8t-33 22t-22 33.5t-8 42.5z" />
    <glyph glyph-name="uni097A" unicode="&#x97a;" horiz-adv-x="1243" 
d="M1278 1377h-210v-1377h-128v493l-5 1q-26 -22 -61 -45t-79 -41.5t-98.5 -30t-120.5 -11.5q-119 0 -202 39.5t-137.5 106.5t-86 155t-47.5 184q134 26 193.5 88.5t59.5 148.5q0 63 -27 137t-76 152h-288v114h1313v-114zM388 1377q17 -31 30.5 -61t24.5 -59l497 -537v657
h-552zM245 762q41 -146 119.5 -212t200.5 -66q85 0 169.5 30t149.5 87l-406 441q-4 -48 -19.5 -91t-44 -79t-70.5 -64t-99 -46z" />
    <glyph glyph-name="uni097B" unicode="&#x97b;" horiz-adv-x="1242" 
d="M1277 1377h-210v-1377h-883v114h755v1263h-489v-777q0 -21 -2.5 -41t-10 -36t-21 -25.5t-36.5 -9.5q-22 0 -51.5 14.5t-60.5 38.5t-60.5 54.5t-53 63.5t-38 65t-14.5 59t12 42.5t33.5 23t50.5 9.5t63 2h61v517h-357v114h1312v-114z" />
    <glyph glyph-name="uni097C" unicode="&#x97c;" horiz-adv-x="1502" 
d="M1537 1377h-210v-1377h-1143v114h1015v806h-380l-1 -5q91 -97 137 -192t46 -192q0 -60 -18.5 -114t-56 -94t-93 -63.5t-129.5 -23.5q-83 0 -152 29.5t-125.5 79t-101 114.5t-79.5 136t-60.5 143.5t-44 137t-29.5 116t-17 81.5l109 27q34 -178 83.5 -317t111.5 -235
t136.5 -146.5t159.5 -50.5q48 0 83 16t57.5 43t33 62.5t10.5 74.5q0 51 -17 103.5t-49.5 103t-80.5 97t-110 84.5v99h577v343h-1234v114h1572v-114z" />
    <glyph glyph-name="uni097D" unicode="&#x97d;" horiz-adv-x="1090" 
d="M170 1430q75 38 153 56t151 18q96 0 176.5 -29t139.5 -81.5t92 -126t33 -163.5q0 -91 -33 -163t-90 -127t-134 -93.5t-164 -60.5v-660h-128v748q84 18 161.5 44.5t136.5 69t94 104.5t35 150q0 67 -23.5 118t-65 85t-98 51.5t-123.5 17.5q-81 0 -164 -23.5t-149 -65.5v131
z" />
    <glyph glyph-name="uni097E" unicode="&#x97e;" horiz-adv-x="1445" 
d="M1288 -114h-1104v114h1104v-114zM1480 1377h-294v-380h-501q-42 0 -70 -5t-45.5 -16t-24.5 -28.5t-7 -42.5q0 -22 6 -47.5t23.5 -47t47.5 -36t78 -14.5h282q90 0 152 -19.5t99.5 -53.5t54 -79.5t16.5 -97.5q0 -73 -29.5 -140t-86.5 -118.5t-141 -82t-193 -30.5
q-125 0 -239.5 41t-209.5 114.5t-167.5 175t-113.5 222.5l107 40q37 -94 95.5 -180.5t137 -152.5t175 -105.5t209.5 -39.5q73 0 134 17.5t105.5 50.5t69.5 79.5t25 104.5q0 39 -12 64.5t-38 41.5t-66 22.5t-95 6.5h-255q-77 0 -132 26.5t-91 68.5t-53 93t-17 100
q0 54 19.5 90t54 57t82 30t102.5 9h384v262h-1093v114h1515v-114z" />
    <glyph glyph-name="uni097F" unicode="&#x97f;" horiz-adv-x="1250" 
d="M947 403l-5 2q-63 -61 -145 -94.5t-191 -33.5q-118 0 -206 38.5t-147 101t-88.5 142t-29.5 161.5q0 85 30.5 163t87.5 137t138.5 94t183.5 35q112 0 202.5 -41.5t164.5 -109.5l5 1v378h-982v114h1320v-114h-210v-1377h-891v114h763v289zM256 711q0 -63 22 -121t64 -102
t102.5 -70t137.5 -26q37 0 72.5 6.5t67.5 17.5l-357 541q-54 -45 -81.5 -109.5t-27.5 -136.5zM947 835q-81 91 -170 142.5t-198 51.5q-29 0 -54.5 -3.5t-49.5 -10.5l356 -539q54 42 85 99.5t31 123.5v136z" />
    <glyph glyph-name="uni0980" unicode="&#x980;" horiz-adv-x="1282" 
d="M861 883q0 106 -19.5 193.5t-48.5 149.5t-65 96.5t-68 34.5q-75 0 -146.5 -45t-126 -121t-88 -176.5t-33.5 -212.5l8 -12q82 -22 156 -32.5t157 -10.5q77 0 147 9v-135q-66 -7 -140 -7q-87 0 -165.5 10.5t-157.5 33.5l-129 126q-4 16 -5.5 31.5t-1.5 30.5
q0 85 19.5 165.5t55.5 151t86 129.5t109.5 101t129 65.5t142.5 23.5q60 0 116.5 -44t99.5 -121.5t69 -183t26 -228.5v-516v-68.5t1 -44.5t2 -30t4 -24q28 21 62 21q22 0 41.5 -9t33.5 -24t22 -36t8 -45q0 -25 -11 -46.5t-29.5 -37.5t-44 -25.5t-54.5 -9.5q-36 0 -65.5 15
t-51.5 47.5t-34 84t-12 123.5z" />
    <glyph glyph-name="uni0981" unicode="&#x981;" 
d="M-453 1936q0 23 9 43.5t24.5 36t36 24.5t44.5 9t44.5 -9t36 -24.5t24.5 -36t9 -43.5t-9 -43.5t-24.5 -36t-36 -24.5t-44.5 -9t-44.5 9t-36 24.5t-24.5 36t-9 43.5zM40 1910q-16 -72 -49.5 -130t-82 -98.5t-110 -62.5t-133.5 -22q-62 0 -122.5 17.5t-113 54t-94 94
t-64.5 137.5l112 36q18 -64 49 -106.5t68.5 -68.5t79 -37t80.5 -11q51 0 94.5 16t78.5 46t60.5 72t40.5 95z" />
    <glyph glyph-name="uni0982" unicode="&#x982;" horiz-adv-x="954" 
d="M474 775q-57 0 -106.5 22.5t-85.5 60t-56.5 87.5t-20.5 104q0 57 22 105.5t59.5 84.5t87 56.5t103.5 20.5q56 0 105.5 -21.5t86.5 -58.5t58.5 -86.5t21.5 -104.5q0 -57 -22.5 -106t-60 -85.5t-87.5 -57.5t-105 -21zM476 1211q-34 0 -63 -13.5t-50.5 -36t-34 -52
t-12.5 -62.5t12.5 -63.5t34 -53.5t50.5 -36.5t63 -13.5t63.5 14t51.5 37.5t34.5 54t12.5 63.5q0 34 -13 63.5t-35.5 51.5t-51.5 34.5t-62 12.5zM701 -102q-27 93 -81.5 191t-125.5 187.5t-154.5 163.5t-170.5 120v12l93 72q97 -57 183.5 -134t157.5 -167t122.5 -189
t78.5 -199l-91 -57h-12z" />
    <glyph glyph-name="uni0983" unicode="&#x983;" horiz-adv-x="954" 
d="M477 775q-58 0 -107.5 22.5t-86 60t-57.5 87t-21 103.5q0 57 22 106t59.5 85t86 56.5t102.5 20.5q57 0 107 -21.5t87 -58t58.5 -85.5t21.5 -103q0 -57 -22 -107t-59.5 -87t-87 -58t-103.5 -21zM477 1211q-34 0 -63.5 -13t-51 -35.5t-34 -52t-12.5 -62.5q0 -34 12.5 -64.5
t34.5 -53.5t50.5 -36.5t61.5 -13.5q34 0 64 14t52 37.5t34.5 53.5t12.5 63q0 34 -13 64t-35 52t-51.5 34.5t-61.5 12.5zM477 28q-58 0 -107.5 22.5t-86 60t-57.5 87t-21 103.5q0 57 22 106t59.5 85t86 56.5t102.5 20.5q57 0 107 -21.5t87 -58t58.5 -85.5t21.5 -103
q0 -57 -22 -107t-59.5 -87t-87 -58t-103.5 -21zM477 464q-34 0 -63.5 -13t-51 -35.5t-34 -52t-12.5 -62.5q0 -34 12.5 -64.5t34.5 -53.5t50.5 -36.5t61.5 -13.5q34 0 64 14t52 37.5t34.5 53.5t12.5 63q0 34 -13 64t-35 52t-51.5 34.5t-61.5 12.5z" />
    <glyph glyph-name="uni0985" unicode="&#x985;" horiz-adv-x="1935" 
d="M1954 1377h-239v-1417h-80q-30 73 -66.5 136.5t-79.5 119.5t-94 107t-109 99q-68 -81 -172 -125t-237 -44q-140 0 -272.5 62.5t-246 186t-202.5 307t-142 424.5l110 64h4q64 -243 148 -415t181.5 -281t205.5 -159t221 -50q87 0 158 29t122 80.5t78.5 121.5t27.5 153
q0 79 -24 144.5t-65.5 113.5t-97 75t-117.5 29l-5 -8q27 -39 37.5 -73t10.5 -68q0 -38 -13.5 -71t-38 -58.5t-58 -40t-73.5 -14.5q-41 0 -77 15.5t-62.5 43t-42 66t-15.5 83.5q0 58 23.5 107.5t64.5 82.5q-36 49 -86 95t-104 79h-549v114h1976v-114zM733 1377
q26 -22 54.5 -52t51.5 -60q24 7 51 10.5t53 3.5q96 0 180.5 -36.5t148 -103t100 -159t36.5 -203.5q0 -63 -13.5 -126.5t-39.5 -120.5q57 -51 115 -111t111 -129h6v1087h-854z" />
    <glyph glyph-name="uni0986" unicode="&#x986;" horiz-adv-x="2367" 
d="M1715 1377v-1417h-80q-30 73 -66.5 136.5t-79.5 119.5t-94 107t-109 99q-68 -81 -172 -125t-237 -44q-140 0 -272.5 62.5t-246 186t-202.5 307t-142 424.5l110 64h4q64 -243 148 -415t181.5 -281t205.5 -159t221 -50q87 0 158 29t122 80.5t78.5 121.5t27.5 153
q0 79 -24 144.5t-65.5 113.5t-97 75t-117.5 29l-5 -8q27 -39 37.5 -73t10.5 -68q0 -38 -13.5 -71t-38 -58.5t-58 -40t-73.5 -14.5q-41 0 -77 15.5t-62.5 43t-42 66t-15.5 83.5q0 58 23.5 107.5t64.5 82.5q-36 49 -86 95t-104 79h-549v114h1906q72 0 140 -24.5t110 -71.5
q0 48 17.5 72t45.5 24h192v-114h-24q-79 0 -124 -42.5t-45 -109.5v-1225h-128v1225q0 32 -12.5 59.5t-36 48t-58 32.5t-77.5 12h-169zM733 1377q26 -22 54.5 -52t51.5 -60q24 7 51 10.5t53 3.5q96 0 180.5 -36.5t148 -103t100 -159t36.5 -203.5q0 -63 -13.5 -126.5
t-39.5 -120.5q57 -51 115 -111t111 -129h6v1087h-854z" />
    <glyph glyph-name="uni0987" unicode="&#x987;" horiz-adv-x="1142" 
d="M1148 -16q-95 117 -195 208t-218 159.5t-260 116t-319 78.5l13 128q39 -2 71 -7t64.5 -10.5t69.5 -10t86 -4.5q106 0 193.5 22t150 58.5t97 84t34.5 98.5q0 37 -17 70.5t-50.5 59.5t-82.5 43t-113 22q-3 -44 -24 -83.5t-54 -69.5t-75 -48t-87 -18q-62 0 -98.5 34.5
t-36.5 92.5q0 35 15 68t42 61.5t65 50t85 32.5q-5 17 -12.5 39t-16 43.5t-16.5 41.5t-15 33h-466v114h992q-15 58 -35 97.5t-48.5 64.5t-66.5 36t-88 11q-63 0 -114.5 -7.5t-98.5 -16.5t-94 -16.5t-101 -7.5q-167 0 -259.5 97.5t-100.5 295.5h130q7 -75 24.5 -126.5t47 -83
t72 -45t99.5 -13.5q35 0 83 7.5t100.5 16t104.5 16t96 7.5q163 0 257.5 -82t121.5 -251h64v-114h-582q13 -29 27.5 -67t27.5 -76q102 -4 181.5 -32.5t133.5 -74t82.5 -104t28.5 -121.5q0 -62 -28 -120t-79.5 -106.5t-126 -84.5t-167.5 -54v-6q86 -35 166.5 -83t154 -107
t138.5 -127t119 -142z" />
    <glyph glyph-name="uni0988" unicode="&#x988;" horiz-adv-x="1702" 
d="M376 1377q20 -15 46.5 -40t48.5 -54q36 6 77 6q93 0 169 -28t132.5 -80.5t92 -127t47.5 -168.5q53 51 115.5 97.5t126.5 85.5t125.5 68.5t114.5 46.5l110 -82q-60 -81 -106.5 -165t-78.5 -166.5t-48.5 -161t-16.5 -148.5q0 -116 35.5 -232t110.5 -228l-91 -81
q-90 106 -137 243t-47 296q0 134 43.5 271t141.5 285q-126 -69 -231.5 -159t-191.5 -201q-27 -75 -69.5 -134t-95.5 -100t-115.5 -62.5t-130.5 -21.5q-42 0 -81.5 8t-78 25t-76.5 44t-78 66l87 96q105 -108 225 -108q65 0 121.5 29.5t98.5 81t66.5 121t24.5 149.5
q0 67 -20.5 123.5t-58 97.5t-89.5 64t-115 23l-5 -9q20 -27 29.5 -59t9.5 -64q0 -36 -12.5 -68t-35.5 -56t-55.5 -38.5t-73.5 -14.5q-42 0 -77 16t-60 43t-39 63t-14 77q0 53 23.5 102t71.5 83q-14 19 -36 41.5t-46.5 43.5t-49.5 37.5t-43 23.5h-188v114h1471
q-26 106 -88 152t-172 46q-66 0 -146 -6.5t-161.5 -15t-158 -15t-134.5 -6.5q-194 0 -297.5 97t-112.5 302h131q8 -143 73 -206t196 -63q59 0 140.5 7t167.5 15.5t167 15.5t140 7q170 0 264 -80t121 -250h145v-114h-1348z" />
    <glyph glyph-name="uni0989" unicode="&#x989;" horiz-adv-x="1566" 
d="M1315 1491q-15 58 -35 97.5t-48.5 64.5t-66.5 36t-88 11q-66 0 -119.5 -7.5t-103.5 -16.5t-99 -16.5t-106 -7.5q-176 0 -274 97.5t-106 295.5h130q8 -75 27 -126.5t51 -83t77.5 -45t107.5 -13.5q37 0 87.5 7.5t105.5 16t110 16t101 7.5q163 0 257.5 -82t121.5 -251h143
v-114h-737v-475q0 -57 2.5 -91t8 -52.5t15 -24t24.5 -5.5q47 0 96 17t98.5 54t99.5 96.5t101 143.5h12q51 -49 90 -107.5t65.5 -122.5t39.5 -132t13 -136q0 -123 -39.5 -224t-111.5 -173.5t-172 -112t-221 -39.5q-167 0 -302.5 79.5t-243 232.5t-187 377t-133.5 513l99 72h3
q64 -307 142.5 -523t173.5 -353t207 -200t244 -63q91 0 166.5 32.5t129.5 90t84 136.5t30 172q0 69 -18.5 142.5t-55.5 133.5q-32 -50 -75.5 -92.5t-94 -73t-104.5 -47.5t-105 -17q-103 0 -156.5 64.5t-53.5 198.5v509h-744v114h1337z" />
    <glyph glyph-name="uni098A" unicode="&#x98a;" horiz-adv-x="1622" 
d="M988 -7q-121 0 -225 26t-192.5 85t-161.5 153t-133 229.5t-106.5 316t-81.5 411.5l102 61h6q44 -274 102 -472.5t128.5 -335t152.5 -217t174 -117.5l4 5q-75 63 -138.5 155.5t-116 222.5t-94.5 302.5t-73 395.5l102 61h6q45 -309 108 -527t141 -356t168.5 -201t189.5 -63
q83 0 154.5 31t124 87t82.5 135.5t30 177.5q0 69 -18.5 142.5t-55.5 133.5q-32 -50 -75.5 -92.5t-94 -73t-104.5 -47.5t-105 -17q-103 0 -156.5 64.5t-53.5 198.5v509h-800v114h1393q-15 58 -35 97.5t-48.5 64.5t-66.5 36t-88 11q-66 0 -119.5 -7.5t-103.5 -16.5t-99 -16.5
t-106 -7.5q-176 0 -274 97.5t-106 295.5h130q8 -75 27 -126.5t51 -83t77.5 -45t107.5 -13.5q37 0 87.5 7.5t105.5 16t110 16t101 7.5q163 0 257.5 -82t121.5 -251h143v-114h-737v-475q0 -57 2.5 -91t8 -52.5t15 -24t24.5 -5.5q47 0 96 17t98.5 54t99.5 96.5t101 143.5h12
q51 -49 90 -107.5t65.5 -122.5t39.5 -132t13 -136q0 -121 -38.5 -222t-112.5 -173.5t-183 -113t-250 -40.5z" />
    <glyph glyph-name="uni098B" unicode="&#x98b;" horiz-adv-x="1635" 
d="M1088 -40h-80q-49 109 -133.5 212t-195 192t-242 160t-275.5 117v219q80 51 157.5 94t155.5 79t157 67t162 58q-3 17 -11.5 38.5t-19.5 43t-24.5 41t-26.5 33.5q-24 -39 -61 -71.5t-82 -56.5t-96.5 -37t-104.5 -13q-54 0 -97.5 14t-74.5 39t-48 60t-17 77q0 33 11 61.5
t30.5 49.5t46.5 33t59 12q34 0 62 -11.5t48 -31.5t31.5 -46.5t11.5 -56.5q0 -18 -4 -37.5t-12 -39.5l-1 -3q45 0 86 17t75 48t57 74t32 95h13q86 -61 140.5 -137t80.5 -167l62 13v292h128v-946q35 -26 66 -52t60 -55t57 -62t57 -72h6v1187h323v-114h-195v-1377h-80
q-27 62 -57.5 115t-65.5 100t-77.5 89.5t-93.5 84.5v-429zM960 270v789q-78 -15 -164 -42.5t-175 -64.5t-180.5 -83t-179.5 -100v-20q108 -41 203.5 -89.5t181 -107t162 -128.5t146.5 -154h6z" />
    <glyph glyph-name="uni098C" unicode="&#x98c;" horiz-adv-x="1427" 
d="M1246 503q0 65 -29.5 110t-80.5 78t-120 57.5t-147 50t-162 55t-166 71.5t-157.5 101.5t-137 144t-104.5 198t-60 264.5l133 25q14 -142 55.5 -246t103 -180t137.5 -128t159 -90t169 -65.5t166 -54.5t150.5 -58t123 -75t83 -105.5t30.5 -149.5q0 -70 -26 -146t-80 -154.5
t-137.5 -158.5t-199.5 -159l-107 108q8 42 12.5 88.5t4.5 94.5q0 73 -14.5 143.5t-47.5 126t-86 89t-130 33.5q-59 0 -112 -23.5t-93.5 -67.5t-64.5 -107t-24 -142q0 -32 6.5 -60.5t20.5 -53.5l3 1q10 64 51.5 102t106.5 38q29 0 53.5 -10t42.5 -28t28.5 -42.5t10.5 -52.5
q0 -33 -14 -63t-38.5 -52.5t-59 -36t-74.5 -13.5q-63 0 -112.5 21t-83.5 59.5t-51.5 92t-17.5 119.5q0 97 32 180t88 143.5t132 94.5t165 34q96 0 174 -35t133.5 -102t85.5 -164.5t30 -221.5q0 -40 -3 -82q66 53 113.5 106t78 104t44.5 100t14 94z" />
    <glyph glyph-name="uni098F" unicode="&#x98f;" horiz-adv-x="1476" 
d="M105 528l95 -71v-7q-14 -29 -20.5 -55.5t-6.5 -49.5q0 -90 64 -140t182 -50q67 0 137.5 18t143 39.5t147.5 39.5t151 18q83 0 150 -27.5t132 -89.5h5v1214q-133 -12 -247 -61.5t-198 -123t-131.5 -164.5t-47.5 -186q0 -53 13.5 -103.5t39.5 -82.5l5 2q0 34 12 63.5
t33.5 52t51 35.5t64.5 13q31 0 57.5 -11.5t46 -31t30.5 -46t11 -56.5q0 -36 -14 -67t-39.5 -53.5t-63 -35.5t-83.5 -13q-66 0 -120 24t-92.5 68.5t-60 106.5t-21.5 138q0 83 29.5 164t81.5 154t124 134.5t158 107t181.5 71t195.5 25.5q27 0 55 -2.5t57 -7.5v-1585h-84
q-23 56 -58 99.5t-79.5 73t-96.5 45t-108 15.5q-57 0 -125.5 -17t-142.5 -37.5t-150 -37.5t-149 -17q-88 0 -157.5 22.5t-118 66t-74 106t-25.5 143.5q0 40 12 82.5t42 87.5h6z" />
    <glyph glyph-name="uni0990" unicode="&#x990;" horiz-adv-x="1838" 
d="M105 528l95 -71v-7q-14 -29 -20.5 -55.5t-6.5 -49.5q0 -90 64 -140t182 -50q67 0 137.5 18t143 39.5t147.5 39.5t151 18q83 0 150 -27.5t132 -89.5h5v1214q-133 -12 -247 -61.5t-198 -123t-131.5 -164.5t-47.5 -186q0 -53 13.5 -103.5t39.5 -82.5l5 2q0 34 12 63.5
t33.5 52t51 35.5t64.5 13q31 0 57.5 -11.5t46 -31t30.5 -46t11 -56.5q0 -36 -14 -67t-39.5 -53.5t-63 -35.5t-83.5 -13q-66 0 -120 24t-92.5 68.5t-60 106.5t-21.5 138q0 83 29.5 164t81.5 154t124 134.5t158 107t181.5 71t195.5 25.5q27 0 55 -2.5t57 -7.5v-415
q149 36 226 132.5t77 245.5q0 259 -242 259q-39 0 -93.5 -6t-112.5 -13.5t-114.5 -13.5t-100.5 -6q-95 0 -169 22.5t-125.5 69.5t-80 119t-32.5 170h127q4 -70 21.5 -119t51 -79.5t84 -44.5t119.5 -14q52 0 102.5 5.5t101.5 11.5t103 11.5t108 5.5q191 0 282.5 -98
t91.5 -296q0 -90 -26 -167.5t-79 -139t-133 -105t-187 -64.5v-1056h-84q-23 56 -58 99.5t-79.5 73t-96.5 45t-108 15.5q-57 0 -125.5 -17t-142.5 -37.5t-150 -37.5t-149 -17q-88 0 -157.5 22.5t-118 66t-74 106t-25.5 143.5q0 40 12 82.5t42 87.5h6z" />
    <glyph glyph-name="uni0993" unicode="&#x993;" horiz-adv-x="1383" 
d="M995 884q26 55 39.5 111.5t13.5 108.5q0 64 -17.5 117t-51.5 91.5t-82.5 59.5t-109.5 21q-42 0 -82.5 -9t-75.5 -25.5t-64 -39t-49 -49.5l6 -12q19 3 37 3q39 0 70 -12.5t53 -35t34 -52.5t12 -65q0 -33 -12 -61.5t-33.5 -49.5t-52.5 -33.5t-69 -12.5q-39 0 -75 15
t-63.5 42t-43.5 65t-16 83q0 77 31.5 144.5t87.5 118t134.5 80t171.5 29.5q90 0 162 -30t123 -83.5t78 -128t27 -162.5q0 -66 -15 -133.5t-45 -130.5q48 -29 85.5 -70.5t64 -93t40 -111.5t13.5 -125q0 -93 -31.5 -176t-92 -144.5t-148.5 -97.5t-200 -36q-123 0 -238.5 54.5
t-215 165.5t-179.5 278.5t-133 394.5l96 57h4q54 -211 129 -366t162 -257t181 -151.5t186 -49.5q82 0 148 26.5t112.5 71.5t71 105t24.5 128q0 42 -8.5 84.5t-24.5 80.5t-37.5 69.5t-48.5 51.5q-39 -92 -106 -141.5t-145 -49.5q-65 0 -106 35.5t-41 97.5q0 39 20 76.5
t56 66.5t86 47t110 18q22 0 43 -3z" />
    <glyph glyph-name="uni0994" unicode="&#x994;" horiz-adv-x="1659" 
d="M995 884q26 55 39.5 111.5t13.5 108.5q0 64 -17.5 117t-51.5 91.5t-82.5 59.5t-109.5 21q-42 0 -82.5 -9t-75.5 -25.5t-64 -39t-49 -49.5l6 -12q19 3 37 3q39 0 70 -12.5t53 -35t34 -52.5t12 -65q0 -33 -12 -61.5t-33.5 -49.5t-52.5 -33.5t-69 -12.5q-39 0 -75 15
t-63.5 42t-43.5 65t-16 83q0 77 31.5 144.5t87.5 118t134.5 80t171.5 29.5q90 0 162 -30t123 -83.5t78 -128t27 -162.5q0 -100 -33 -196q88 31 146.5 72.5t93.5 87t50 92t15 88.5q0 76 -28.5 130t-77.5 92t-114.5 63t-139 44.5t-151.5 36t-151.5 37t-139 47.5t-114.5 68
t-78 98.5t-29 138.5h116q0 -62 28.5 -104.5t77.5 -73t114.5 -51.5t139.5 -39t151.5 -35t151.5 -40.5t139.5 -55t114.5 -78.5t77.5 -111.5t28.5 -153.5q0 -76 -22 -142.5t-70 -123.5t-123.5 -104.5t-182.5 -86.5q73 -62 113 -157t40 -207q0 -93 -31.5 -176t-92 -144.5
t-148.5 -97.5t-200 -36q-123 0 -238.5 54.5t-215 165.5t-179.5 278.5t-133 394.5l96 57h4q54 -211 129 -366t162 -257t181 -151.5t186 -49.5q82 0 148 26.5t112.5 71.5t71 105t24.5 128q0 42 -8.5 84.5t-24.5 80.5t-37.5 69.5t-48.5 51.5q-39 -92 -106 -141.5t-145 -49.5
q-65 0 -106 35.5t-41 97.5q0 39 20 76.5t56 66.5t86 47t110 18q22 0 43 -3z" />
    <glyph glyph-name="uni0995" unicode="&#x995;" horiz-adv-x="1759" 
d="M957 -40q-69 130 -159 240t-193.5 197.5t-216.5 151.5t-227 102v209q208 145 391.5 224t356.5 105v188h-931v114h1803v-114h-744v-185q142 0 257.5 -35.5t197.5 -98t126.5 -146t44.5 -179.5q0 -72 -24 -132t-66 -104t-99 -68.5t-123 -24.5q-41 0 -75.5 12t-59.5 33.5
t-39.5 51t-14.5 65.5q0 30 10.5 55t28.5 43.5t43.5 28.5t55.5 10q69 0 112 -43t47 -112l9 -4q39 26 60 72t21 98q0 72 -33.5 135.5t-98.5 111t-160.5 75.5t-219.5 28v-1104h-80zM909 260v799q-137 -21 -296.5 -92t-342.5 -198v-20q100 -42 188.5 -92t166.5 -110.5
t147 -131.5t131 -155h6z" />
    <glyph glyph-name="uni0996" unicode="&#x996;" horiz-adv-x="1358" 
d="M103 1296q0 35 12.5 64.5t34.5 51t51 33.5t62 12q35 0 64 -11.5t49.5 -32t31.5 -49t11 -62.5q0 -23 -4 -44t-13 -37l4 -5q57 6 110.5 30t97.5 61t75.5 85t44.5 102h13q75 -54 111.5 -126t36.5 -150q0 -83 -30.5 -157.5t-94 -137.5t-161.5 -112t-232 -82v-12
q214 -72 381 -183.5t295 -263.5h6v1221h321v-114h-193v-1417h-80q-46 108 -126 206t-189 183t-245.5 154.5t-294.5 119.5v210q129 25 225.5 65t161 90t96.5 109t32 123q0 29 -9 68q-27 -42 -70 -78.5t-96 -64t-114 -43t-122 -15.5q-59 0 -106 15.5t-79.5 43.5t-50 66.5
t-17.5 83.5z" />
    <glyph glyph-name="uni0997" unicode="&#x997;" horiz-adv-x="1431" 
d="M1132 1118v373h321v-114h-193v-1377h-128v813q-70 174 -134 289.5t-125.5 184.5t-123 97.5t-126.5 28.5q-119 0 -214.5 -75t-155.5 -221q57 32 123.5 49.5t131.5 17.5q82 0 148 -23t112 -65.5t71 -102t25 -132.5q0 -57 -22 -120.5t-71 -138.5t-128 -162t-194 -190l-92 96
q196 170 287 297t91 220q0 42 -15 76.5t-44.5 59.5t-72.5 39t-99 14q-79 0 -162 -26t-157 -73l-65 108q14 103 60 191.5t114.5 153.5t154.5 102t181 37q66 0 129 -19t124 -67.5t121.5 -131t122.5 -209.5h5z" />
    <glyph glyph-name="uni0998" unicode="&#x998;" horiz-adv-x="1294" 
d="M291 786q42 25 86 48.5t80 39.5q-132 26 -197 107t-65 214q0 42 6 86t20 96h-243v114h1338v-114h-193v-1417h-80q-40 108 -117 206.5t-178 178.5t-218.5 138.5t-238.5 85.5v217zM404 674q83 -25 165.5 -65.5t159 -92t143 -111.5t117.5 -125h6v1097h-644q-14 -42 -23 -84
t-9 -82q0 -120 58.5 -178.5t170.5 -58.5q21 0 46.5 3.5t53.5 9t57.5 13.5t56.5 17l71 -114q-60 -27 -123 -58t-121.5 -60t-106.5 -55t-78 -44v-12z" />
    <glyph glyph-name="uni0999" unicode="&#x999;" horiz-adv-x="1540" 
d="M1069 1699q63 0 114 -17.5t86 -49t54 -77t19 -100.5q0 -66 -29.5 -125.5t-84 -104.5t-132 -71t-172.5 -26q-37 0 -83.5 7.5t-88.5 21.5q0 -101 24 -185.5t60.5 -146t80 -95.5t83.5 -34q33 0 72.5 36t77.5 92t69.5 123t49.5 129h13q50 -21 92.5 -66t73.5 -109t48.5 -143
t17.5 -168q0 -131 -41 -239.5t-113.5 -186.5t-171 -121.5t-213.5 -43.5q-137 0 -263 66t-235.5 196t-199 323t-153.5 448l99 62h6q69 -247 153 -428t178.5 -299.5t198 -176t211.5 -57.5q88 0 164 35t131.5 96.5t87 146t31.5 183.5q0 72 -14 141.5t-43 134.5
q-23 -63 -61 -119t-83.5 -98t-95 -67t-94.5 -25q-58 0 -123.5 42t-120.5 120.5t-91 191t-36 253.5v23.5t1 23.5q-109 68 -181.5 171t-117.5 245l108 56l6 -1q26 -108 78 -193.5t127 -141.5q24 81 66.5 145.5t98.5 109.5t122.5 69t138.5 24zM1217 1463q0 51 -36.5 81
t-111.5 30q-50 0 -99 -18.5t-91 -55.5t-74 -91t-49 -126q83 -34 165 -34q68 0 122.5 16.5t93 45.5t59.5 68t21 84z" />
    <glyph glyph-name="uni099A" unicode="&#x99a;" horiz-adv-x="1194" 
d="M1096 735q0 -84 -24.5 -173t-67 -173.5t-99 -159.5t-121.5 -131t-135 -89t-138 -33q-62 0 -118 34.5t-99 105t-68 178t-25 253.5v830h-223v114h1238v-114h-887v-208q63 -75 126.5 -128.5t131.5 -87t142.5 -49t160.5 -15.5q39 0 83 3q34 -8 57.5 -19.5t38 -29.5t21 -44.5
t6.5 -63.5zM963 760q-19 -2 -37.5 -3t-37.5 -1q-162 0 -305 61.5t-254 170.5v-442q0 -113 15 -195.5t41 -136.5t62 -80.5t77 -26.5q45 0 95.5 27.5t100 74.5t95 110.5t80 134.5t55 146.5t20.5 147.5z" />
    <glyph glyph-name="uni099B" unicode="&#x99b;" horiz-adv-x="1271" 
d="M285 1246q51 -51 113 -76.5t120 -25.5q33 0 70.5 6t76 13.5t74 14t64.5 6.5q96 0 173 -26.5t131 -74t82.5 -113t28.5 -143.5q0 -85 -29.5 -166.5t-87 -154.5t-142.5 -136t-197 -110q157 -60 310.5 -168.5t290.5 -274.5l-96 -81q-125 130 -242.5 219t-243 145.5t-268 86.5
t-317.5 42v118q38 0 69 -0.5t61 -2.5t61 -5t68 -9q78 0 154.5 19t146 53t129 80t103 100t68 113.5t24.5 119.5q0 119 -74 183t-220 64q2 -13 2 -20.5v-15.5q0 -68 -15 -132.5t-41.5 -122t-63 -105t-79 -82t-89 -53.5t-94.5 -19q-50 0 -94.5 23.5t-78 66t-53.5 102t-20 131.5
v542h-182v114h1318v-114h-1011v-131zM655 1042q-17 -4 -35 -7.5t-35 -6t-32 -4t-25 -1.5q-64 0 -122 19.5t-121 66.5v-281q0 -46 10 -83t27.5 -62.5t40 -39t48.5 -13.5q39 0 82 33t79.5 87.5t60 125t23.5 146.5v10t-1 10z" />
    <glyph glyph-name="uni099C" unicode="&#x99c;" horiz-adv-x="1852" 
d="M1796 967q-160 -283 -160 -556q0 -136 36.5 -271t111.5 -267l-95 -78q-92 133 -137.5 291t-45.5 325q0 141 29.5 274.5t88.5 251.5q-132 3 -234.5 35.5t-175.5 90t-117 137t-59 177.5h-73q-63 -39 -113.5 -91t-86 -112.5t-54 -126t-18.5 -131.5q0 -53 12.5 -94t34.5 -69
t52 -42.5t64 -14.5q41 0 82.5 14t82.5 45.5t82.5 81.5t82.5 122h12q43 -35 77.5 -80t59.5 -99t38.5 -115.5t13.5 -127.5q0 -119 -35.5 -218t-100 -170t-156 -110.5t-203.5 -39.5q-143 0 -264.5 70t-222.5 218t-182 377t-144 546l99 61h6q46 -216 96.5 -384t106 -294.5
t114.5 -214.5t122.5 -142.5t130.5 -79t137 -24.5q76 0 142.5 28t116 80t77.5 126t28 167q0 51 -12.5 106.5t-41.5 110.5q-65 -92 -152 -141.5t-178 -49.5q-68 0 -124 26t-96.5 74.5t-62.5 117.5t-22 155q0 57 14 117t39.5 118t62.5 112t83 98h-787v114h1896v-114h-711
q30 -164 163 -245.5t380 -81.5z" />
    <glyph glyph-name="uni099D" unicode="&#x99d;" horiz-adv-x="1583" 
d="M1037 -40h-80q-69 130 -159 240t-193.5 197.5t-216.5 151.5t-227 102v209q208 145 391.5 224t356.5 105v188h-931v114h1059v-946q70 -51 126.5 -108.5t112.5 -135.5h6v1190h323v-114h-195v-1360h-80q-27 59 -56.5 109.5t-65 95.5t-78 86t-93.5 81v-429zM909 260v799
q-137 -21 -296.5 -92t-342.5 -198v-20q101 -42 189.5 -92.5t166.5 -111t146.5 -131.5t130.5 -154h6z" />
    <glyph glyph-name="uni099E" unicode="&#x99e;" horiz-adv-x="2220" 
d="M115 528l95 -71v-7q-14 -29 -20.5 -55.5t-6.5 -49.5q0 -90 64 -140t182 -50q67 0 137.5 18t143 39.5t147.5 39.5t151 18q83 0 150 -27.5t132 -89.5h5v1214q-133 -12 -247 -61.5t-198 -123t-131.5 -164.5t-47.5 -186q0 -53 13.5 -103.5t39.5 -82.5l5 2q0 34 12 63.5
t33.5 52t51 35.5t64.5 13q31 0 57.5 -11.5t46 -31t30.5 -46t11 -56.5q0 -36 -14 -67t-39.5 -53.5t-63 -35.5t-83.5 -13q-66 0 -120 24t-92.5 68.5t-60 106.5t-21.5 138q0 83 29.5 164t81.5 154t124 134.5t158 107t181.5 71t195.5 25.5q27 0 55 -2.5t57 -7.5v-399
q96 100 195.5 155t202.5 55q69 0 126 -27.5t97 -73t62 -104.5t22 -123q0 -66 -20 -127.5t-64 -114.5q38 -44 60.5 -104.5t22.5 -126.5q0 -69 -22 -128.5t-62.5 -103.5t-97 -69t-125.5 -25q-44 0 -94.5 13.5t-103 39.5t-103.5 63.5t-96 84.5v-470h-84q-23 56 -58 99.5
t-79.5 73t-96.5 45t-108 15.5q-57 0 -125.5 -17t-142.5 -37.5t-150 -37.5t-149 -17q-88 0 -157.5 22.5t-118 66t-74 106t-25.5 143.5q0 40 12 82.5t42 87.5h6zM1423 538q94 -120 196.5 -178.5t193.5 -58.5q40 0 74 15t58.5 41.5t38 62.5t13.5 79q0 33 -11.5 65t-38.5 61
q-29 -21 -64.5 -32.5t-71.5 -11.5q-35 0 -64.5 10.5t-50.5 29t-33 43t-12 53.5q0 31 11.5 57t32.5 45t51.5 29.5t68.5 10.5q35 0 69 -10t63 -29q26 32 37.5 66.5t11.5 71.5q0 42 -14 78.5t-38.5 63.5t-58 42.5t-72.5 15.5q-81 0 -180 -61.5t-210 -182.5v-376z" />
    <glyph glyph-name="uni099F" unicode="&#x99f;" horiz-adv-x="1233" 
d="M1012 1491q-15 58 -35 97.5t-48.5 64.5t-66.5 36t-88 11q-66 0 -119.5 -7.5t-103.5 -16.5t-99 -16.5t-106 -7.5q-176 0 -274 97.5t-106 295.5h130q8 -75 27 -126.5t51 -83t77.5 -45t107.5 -13.5q37 0 87.5 7.5t105.5 16t110 16t101 7.5q163 0 257.5 -82t121.5 -251h113
v-114h-918v-833q0 -99 20.5 -179.5t52.5 -137.5t71.5 -88.5t77.5 -31.5q54 0 109 20t105 55.5t93.5 85.5t75 110t50 128.5t18.5 141.5q0 58 -13 109t-41 89l-7 -3q0 -34 -11.5 -63t-31.5 -50.5t-48.5 -34t-61.5 -12.5q-34 0 -63.5 11t-51 32t-33.5 50t-12 65q0 39 16 72
t44.5 57t68.5 37.5t88 13.5q64 0 117 -24t90.5 -70t58 -114.5t20.5 -156.5q0 -96 -22 -184t-62 -163.5t-95.5 -137t-122.5 -105t-143 -67t-157 -23.5q-58 0 -117 38.5t-107 111.5t-78.5 179.5t-30.5 243.5v828h-226v114h1034z" />
    <glyph glyph-name="uni09A0" unicode="&#x9a0;" horiz-adv-x="1304" 
d="M690 1888q-134 -6 -134 -122q0 -21 10.5 -51t31 -66t50 -76.5t67.5 -81.5h611v-114h-523q100 -127 172 -239t118.5 -212.5t68.5 -191t22 -173.5q0 -131 -40 -238.5t-111.5 -184.5t-170 -119.5t-214.5 -42.5q-102 0 -186 35.5t-144 98.5t-92.5 150.5t-32.5 191.5
q0 17 0.5 35t1.5 36q132 40 226 96.5t154 133t88.5 173.5t28.5 217q0 57 -6.5 115t-26.5 119h-681v114h599q-38 50 -64.5 91.5t-42.5 77t-23 67.5t-7 62q0 99 66 156t188 58zM642 103q85 0 160 32.5t131.5 92t89 143t32.5 184.5q0 134 -57.5 284.5t-178.5 310.5h-6
q0 -272 -120.5 -449t-381.5 -264q6 -83 32.5 -145.5t69.5 -104.5t101 -63t128 -21z" />
    <glyph glyph-name="uni09A1" unicode="&#x9a1;" horiz-adv-x="1566" 
d="M1588 1491v-114h-765v-475q0 -57 2.5 -91t8 -52.5t15 -24t24.5 -5.5q47 0 96 17t98.5 54t99.5 96.5t101 143.5h12q51 -49 90 -107.5t65.5 -122.5t39.5 -132t13 -136q0 -123 -39.5 -224t-111.5 -173.5t-172 -112t-221 -39.5q-167 0 -302.5 79.5t-243 232.5t-187 377
t-133.5 513l99 72h3q64 -307 142.5 -523t173.5 -353t207 -200t244 -63q91 0 166.5 32.5t129.5 90t84 136.5t30 172q0 69 -18.5 142.5t-55.5 133.5q-32 -50 -75.5 -92.5t-94 -73t-104.5 -47.5t-105 -17q-103 0 -156.5 64.5t-53.5 198.5v509h-716v114h1610z" />
    <glyph glyph-name="uni09A2" unicode="&#x9a2;" horiz-adv-x="1233" 
d="M537 -24q-58 0 -117 38.5t-107 111.5t-78.5 179.5t-30.5 243.5v828h-226v114h1277v-114h-918v-833q0 -99 20.5 -179.5t52.5 -137.5t71.5 -88.5t77.5 -31.5q54 0 109 20t105 55.5t93.5 85.5t75 110t50 128.5t18.5 141.5q0 58 -13 109t-41 89l-7 -3q0 -34 -11.5 -63
t-31.5 -50.5t-48.5 -34t-61.5 -12.5q-34 0 -63.5 11t-51 32t-33.5 50t-12 65q0 39 16 72t44.5 57t68.5 37.5t88 13.5q64 0 117 -24t90.5 -70t58 -114.5t20.5 -156.5q0 -96 -22 -184t-62 -163.5t-95.5 -137t-122.5 -105t-143 -67t-157 -23.5z" />
    <glyph glyph-name="uni09A3" unicode="&#x9a3;" horiz-adv-x="1251" 
d="M946 1491h327v-114h-194v-1377h-133v784q-54 180 -107 299.5t-108 190.5t-113.5 100.5t-122.5 29.5q-60 0 -110.5 -24t-87 -65t-57 -96t-20.5 -117q0 -60 16.5 -107t48.5 -79l5 2q1 36 13 66t33 51t49.5 33t61.5 12q30 0 55.5 -10.5t45 -29.5t30.5 -44t11 -54
q0 -33 -14 -63.5t-38.5 -54t-58.5 -37t-73 -13.5q-68 0 -125 24t-98 68.5t-64.5 108.5t-23.5 144q0 90 31 166.5t85.5 132t128 86.5t158.5 31q66 0 127 -21t116.5 -67t105.5 -119t94 -176h6v339z" />
    <glyph glyph-name="uni09A4" unicode="&#x9a4;" horiz-adv-x="1516" 
d="M1538 1491v-114h-1560v114h1560zM147 1234q67 -264 152 -451t182.5 -305.5t205 -173t219.5 -54.5q88 0 164 33t131.5 90.5t87 135.5t31.5 167q0 82 -24 149.5t-67 116t-101 76t-126 29.5l-4 -6q29 -33 42 -70.5t13 -76.5q0 -46 -16.5 -86t-45 -70t-67.5 -47.5t-85 -17.5
q-47 0 -87.5 18t-70 48.5t-46.5 72.5t-17 90q0 59 24 111t68.5 91t108.5 62t144 23q110 0 200.5 -38.5t155 -105.5t100 -157.5t35.5 -193.5q0 -121 -37 -225.5t-107.5 -182t-173.5 -122t-234 -44.5q-134 0 -261 62t-239 191.5t-204.5 328t-155.5 471.5l99 61h6z" />
    <glyph glyph-name="uni09A5" unicode="&#x9a5;" horiz-adv-x="1286" 
d="M987 280v1211h321v-114h-193v-1417h-80q-94 231 -302 402t-523 266v202q118 12 213 46t162 85t103 114.5t36 133.5q0 47 -18 86t-51 66.5t-79.5 43t-102.5 15.5q-58 0 -110 -19t-89 -52l3 -6q30 0 57.5 -12t47.5 -33.5t32 -51t12 -63.5q0 -33 -12 -61.5t-33.5 -49.5
t-51 -33t-64.5 -12q-37 0 -68.5 13t-54.5 37.5t-36 59t-13 77.5q0 67 28.5 125.5t79 102t120 68t150.5 24.5q83 0 152.5 -23.5t119.5 -67t77.5 -104.5t27.5 -137q0 -81 -32.5 -156.5t-96.5 -138.5t-157.5 -110t-216.5 -72v-8q108 -41 197.5 -86t167 -98t144 -115.5
t127.5 -137.5h6z" />
    <glyph glyph-name="uni09A6" unicode="&#x9a6;" horiz-adv-x="1305" 
d="M978 998q-76 -36 -159 -94t-165 -131t-158.5 -156.5t-139.5 -169.5h-6l-72 89v841h-300v114h1349v-114h-921v-663h6q74 82 156 154t166.5 130t168.5 100t161 63l92 -87q-35 -59 -62 -127t-45.5 -139t-28 -144t-9.5 -142q0 -87 10 -162t29.5 -142t49.5 -127t69 -118
l-93 -81q-44 50 -80 119t-62 147.5t-40.5 163.5t-14.5 168q0 65 6 131.5t18 131.5t30.5 127t44.5 118z" />
    <glyph glyph-name="uni09A7" unicode="&#x9a7;" horiz-adv-x="1177" 
d="M927 -40q-69 130 -159 240t-193.5 197.5t-216.5 151.5t-227 102v209q48 33 93.5 62t90.5 55q-69 45 -107 110.5t-38 153.5q0 72 26 131.5t68 101.5t95 65t107 23q48 0 84 -13.5t60 -37t36 -53.5t12 -63q0 -29 -10.5 -55t-30 -45.5t-47 -30.5t-61.5 -11t-59.5 13t-42.5 32
t-26.5 40t-10.5 37l-12 7q-41 -26 -57.5 -65.5t-16.5 -77.5q0 -65 36 -119t97 -86q122 63 235.5 100.5t225.5 54.5v302h321v-114h-193v-1417h-79zM879 260v799q-137 -21 -296.5 -92t-342.5 -198v-20q105 -44 193.5 -95t166 -111t144.5 -130t129 -153h6z" />
    <glyph glyph-name="uni09A8" unicode="&#x9a8;" horiz-adv-x="1322" 
d="M1023 481v896h-1045v114h1366v-114h-193v-1416h-80q-47 199 -106.5 358.5t-127.5 277t-141.5 192t-147.5 103.5l-10 -16q22 -33 32.5 -67.5t10.5 -68.5q0 -39 -14 -75t-40 -63t-64.5 -43t-86.5 -16q-45 0 -84 17t-68 46t-46 69t-17 87q0 62 21 113t60 87.5t94 56.5
t123 20q75 0 152 -34t149.5 -103t138 -174t118.5 -247h6z" />
    <glyph glyph-name="uni09AA" unicode="&#x9aa;" horiz-adv-x="1602" 
d="M1302 678q-29 70 -52 121t-44.5 93t-43.5 79.5t-49 80.5q-69 -6 -144.5 -37t-149 -84t-140 -126.5t-117.5 -164.5l-97 74q10 27 18.5 43.5t15 29t10 24t3.5 28.5q0 116 -45.5 168t-129.5 52q-32 0 -74 -11.5t-74 -30.5l-83 90q24 92 75.5 170t124 135t162 89t189.5 32
q91 0 175 -32t162.5 -100t153.5 -175t149 -258q1 0 2.5 0.5t2.5 0.5v522h322v-114h-194v-1377h-128v678zM658 1405q-65 0 -126 -17.5t-114 -49.5t-96.5 -78.5t-72.5 -103.5q22 8 53.5 13t62.5 5q117 0 179.5 -61t74.5 -189q39 45 89 85t106 71t115 52t116 30
q-87 126 -184 184.5t-203 58.5z" />
    <glyph glyph-name="uni09AB" unicode="&#x9ab;" horiz-adv-x="1769" 
d="M229 1377q94 -23 178.5 -63t155 -95t125.5 -125t90 -152q-50 -19 -107.5 -43.5t-116 -51.5t-114 -55.5t-101.5 -55.5v-8q99 -41 182 -86.5t154 -99.5t132.5 -118.5t118.5 -143.5h6v949h128q168 0 288.5 -28.5t197.5 -81t113.5 -128t36.5 -170.5q0 -69 -24 -127.5
t-66 -101t-99 -66.5t-123 -24q-41 0 -75.5 12t-59.5 33.5t-39.5 51t-14.5 65.5q0 30 10.5 55t28.5 43.5t43.5 28.5t55.5 10q69 0 112 -43t47 -112l9 -4q38 26 59.5 72t21.5 100q0 66 -29.5 120t-92.5 91.5t-162 58t-238 20.5v-1144h-79q-51 117 -129 221.5t-175.5 189.5
t-212.5 147.5t-240 94.5v215q88 51 180 97.5t191 88.5q-26 39 -68.5 75t-98.5 67.5t-124.5 56.5t-146.5 41v123h-179v114h1813v-114h-1562z" />
    <glyph glyph-name="uni09AC" unicode="&#x9ac;" horiz-adv-x="1208" 
d="M1037 -40h-80q-69 130 -159 240t-193.5 197.5t-216.5 151.5t-227 102v209q208 145 391.5 224t356.5 105v188h-931v114h1252v-114h-193v-1417zM909 260v799q-137 -21 -296.5 -92t-342.5 -198v-20q97 -41 183.5 -89t164.5 -107.5t148.5 -132t136.5 -160.5h6z" />
    <glyph glyph-name="uni09AD" unicode="&#x9ad;" horiz-adv-x="1574" 
d="M-22 1377v114h1618v-114h-1618zM1499 576q0 -135 -41.5 -245t-116 -188t-177 -120.5t-225.5 -42.5q-128 0 -252 61t-233.5 190.5t-200.5 330.5t-154 481l99 61h6q66 -267 148.5 -455.5t177.5 -308t199.5 -175t213.5 -55.5q91 0 169 34t135 97t89.5 151.5t32.5 197.5
q0 68 -16 135.5t-51 125.5q-36 -60 -86 -108t-110.5 -81.5t-129.5 -51.5t-142 -18q-63 0 -120 20.5t-99.5 57t-68 86.5t-25.5 109q0 49 16.5 90.5t45 71.5t68 47t86.5 17q40 0 76.5 -15.5t64 -43t43.5 -65t16 -80.5q0 -45 -12.5 -87t-32.5 -69l3 -4q54 4 108.5 29
t103.5 68.5t88.5 102.5t64.5 131h14q54 -35 95.5 -85t70.5 -111.5t44 -134t15 -151.5z" />
    <glyph glyph-name="uni09AE" unicode="&#x9ae;" horiz-adv-x="1360" 
d="M482 315q-46 0 -85 14.5t-67 40t-44 59.5t-16 74q0 39 16.5 74t45.5 62t70 42.5t91 15.5q32 0 58 -5t64 -19q0 222 -105.5 371t-331.5 217v116h-200v114h1404v-114h-193v-1417h-62q-32 71 -77.5 141.5t-99.5 135t-115 120.5t-124 98q-29 -63 -90.5 -101.5t-138.5 -38.5z
M1061 290v1087h-809q140 -50 234.5 -128t151.5 -178.5t81 -220t24 -252.5q92 -67 169 -142t143 -166h6z" />
    <glyph glyph-name="uni09AF" unicode="&#x9af;" horiz-adv-x="1225" 
d="M974 -40q-48 117 -125 221.5t-176 189.5t-215 147.5t-241 94.5v215q88 51 180 97.5t191 88.5q-26 39 -68.5 75t-98.5 67.5t-124.5 56.5t-146.5 41v123h-172v114h1269v-114h-194v-1417h-79zM771 942q-50 -19 -107.5 -43.5t-116 -51.5t-114 -55.5t-101.5 -55.5v-8
q104 -43 188.5 -90t155 -101.5t130 -118t113.5 -138.5h6v1097h-703q94 -23 178.5 -63t155 -95t125.5 -125t90 -152z" />
    <glyph glyph-name="uni09B0" unicode="&#x9b0;" horiz-adv-x="1208" 
d="M1037 -40h-80q-69 130 -159 240t-193.5 197.5t-216.5 151.5t-227 102v209q208 145 391.5 224t356.5 105v188h-931v114h1252v-114h-193v-1417zM909 260v799q-137 -21 -296.5 -92t-342.5 -198v-20q97 -41 183.5 -89t164.5 -107.5t148.5 -132t136.5 -160.5h6zM304 197
q0 23 8.5 43t23.5 34.5t35 23t43 8.5t43.5 -8.5t35.5 -23t23.5 -34.5t8.5 -43t-8.5 -42.5t-23.5 -34t-35.5 -23t-43.5 -8.5t-43 8.5t-35 23t-23.5 34t-8.5 42.5z" />
    <glyph glyph-name="uni09B2" unicode="&#x9b2;" horiz-adv-x="1427" 
d="M712 771q-31 66 -62 111.5t-63 73t-66 40t-72 12.5q-53 0 -98 -20.5t-78 -57.5t-51.5 -88.5t-18.5 -113.5q0 -48 12.5 -93t36.5 -81l6 2q4 37 18.5 68.5t37.5 54t52.5 35t63.5 12.5q32 0 59.5 -12t48 -33t32 -50.5t11.5 -64.5q0 -36 -14.5 -67.5t-41.5 -55t-65 -37
t-86 -13.5q-65 0 -120.5 25t-96 70.5t-63.5 110.5t-23 146q0 84 29 156.5t80.5 125t122 82.5t152.5 30q69 0 130 -28t113 -87h6q47 55 111.5 85.5t140.5 30.5q94 0 172 -51v288h-1150v114h1471v-114h-193v-1377h-128v921q-29 42 -76.5 65.5t-99.5 23.5q-93 0 -173 -92
q9 -14 15.5 -25t12 -21.5t10.5 -22.5t11 -27l-109 -51h-7z" />
    <glyph glyph-name="uni09B6" unicode="&#x9b6;" horiz-adv-x="1431" 
d="M-8 1377v114h50q42 0 82 -7t86.5 -26.5t103 -53.5t130.5 -87q63 57 113 95t90.5 61.5t73.5 33t62 9.5q39 0 76 -18.5t78 -66t88.5 -129t108.5 -207.5v396h319v-114h-191v-1377h-128v805q-54 117 -97.5 204.5t-78.5 150t-63.5 102.5t-51.5 63.5t-42.5 32.5t-36.5 9
q-27 0 -73 -28.5t-122 -99.5q79 -60 132 -108.5t84 -90.5t44 -78.5t13 -71.5q0 -33 -13 -64t-35.5 -55.5t-53 -39.5t-64.5 -15t-66.5 11.5t-61 32.5t-51 51t-36.5 68h-6q-16 -38 -39.5 -68t-52.5 -51t-61 -32.5t-65 -11.5q-35 0 -65 14t-53 38t-36 56.5t-13 69.5
q0 38 9.5 70.5t38.5 70t81.5 86t139.5 118.5q-37 32 -77 57.5t-78 43.5t-72.5 27.5t-60.5 9.5h-59z" />
    <glyph glyph-name="uni09B7" unicode="&#x9b7;" horiz-adv-x="1255" 
d="M1004 -40q-51 117 -129 221.5t-175.5 189.5t-212.5 147.5t-240 94.5v215q79 51 163.5 97.5t172.5 88.5q-48 47 -96.5 85t-101 67.5t-110.5 51t-125 36.5v123h-172v114h1299v-114h-194v-1417h-79zM955 1377h-733q73 -17 152.5 -58.5t169 -112t191.5 -172t220 -238.5v581z
M687 910q-41 -19 -84 -40.5t-85.5 -44t-82 -45t-73.5 -44.5v-8q99 -41 182 -86.5t154 -99.5t132.5 -118.5t118.5 -143.5h6v333q-34 42 -66 79.5t-64.5 73t-66.5 71t-71 73.5z" />
    <glyph glyph-name="uni09B8" unicode="&#x9b8;" horiz-adv-x="1436" 
d="M143 1377h-165v114h1480v-114h-193v-1377h-128v712q-62 78 -113 110t-86 32q-46 0 -86 -35t-79.5 -88t-80 -114t-87 -114t-100.5 -88t-121 -35q-90 0 -154 61t-91 182l101 67q16 -48 33 -81t36 -53.5t39 -29t42 -8.5q44 0 100 53.5t136 177.5q-38 201 -158.5 327
t-324.5 168v133zM1137 1377h-919q97 -32 173.5 -76t137 -103.5t107.5 -138t87 -179.5q42 57 94 87.5t105 30.5t108.5 -29.5t106.5 -81.5v490z" />
    <glyph glyph-name="uni09B9" unicode="&#x9b9;" horiz-adv-x="1243" 
d="M1267 1491v-114h-685q13 -29 27.5 -67t27.5 -76q119 -4 211.5 -33.5t155.5 -77.5t96 -110t33 -131q0 -68 -31.5 -130.5t-91.5 -114.5t-147.5 -90.5t-200.5 -59.5v-6q100 -33 191.5 -81t173 -107.5t153 -128t130.5 -142.5l-92 -88q-100 117 -208.5 208t-236.5 159.5
t-279.5 116t-337.5 78.5l13 128q39 -2 71 -7t64.5 -10.5t69.5 -10t86 -4.5q121 0 221 24.5t170.5 65.5t109.5 93.5t39 109.5q0 40 -20.5 77t-62 65.5t-103 47.5t-142.5 25q-3 -44 -24 -83.5t-54 -69.5t-75 -48t-87 -18q-62 0 -98.5 34.5t-36.5 92.5q0 35 15 68t42 61.5
t65 50t85 32.5q-5 17 -12.5 39t-16 43.5t-16.5 41.5t-15 33h-466v114h1289z" />
    <glyph glyph-name="uni09BC" unicode="&#x9bc;" 
d="M-683 -213q0 23 8.5 43t23.5 34.5t35 23t43 8.5t43.5 -8.5t35.5 -23t23.5 -34.5t8.5 -43t-8.5 -42.5t-23.5 -34t-35.5 -23t-43.5 -8.5t-43 8.5t-35 23t-23.5 34t-8.5 42.5z" />
    <glyph glyph-name="uni09BD" unicode="&#x9bd;" horiz-adv-x="1067" 
d="M438 1377h-460v114h586v-257q98 -4 176.5 -31.5t133 -71.5t84 -103t29.5 -126q0 -60 -26 -117t-77 -105.5t-126 -85.5t-172 -57v-6q65 -30 133.5 -77t136 -106.5t130.5 -129.5t118 -146l-102 -78q-89 121 -179 211t-195 156t-231.5 110.5t-286.5 74.5l13 128q37 -2 66 -7
t57.5 -10.5t61 -10t76.5 -4.5q110 0 198 23t149.5 60.5t94.5 84.5t33 95q0 37 -17.5 70.5t-52 59.5t-85.5 43t-118 22q-3 -44 -23 -83.5t-51.5 -69.5t-72 -48t-83.5 -18q-62 0 -98.5 34.5t-36.5 92.5q0 35 15.5 68.5t44 62t68.5 50.5t89 33v155z" />
    <glyph glyph-name="uni09BE" unicode="&#x9be;" horiz-adv-x="494" 
d="M195 1225q0 32 -12.5 59.5t-36 48t-58 32.5t-77.5 12h-33v114h33q72 0 140 -24.5t110 -71.5q0 48 17.5 72t45.5 24h192v-114h-24q-79 0 -124 -42.5t-45 -109.5v-1225h-128v1225z" />
    <glyph glyph-name="uni09BF" unicode="&#x9bf;" horiz-adv-x="469" 
d="M491 1491v-114h-192v-1377h-128v1377h-193v114h193q-45 90 -45 165q0 76 41 142.5t121 116t196.5 77.5t268.5 28q117 0 233.5 -18.5t223.5 -52t200 -80t162 -103.5l-66 -110q-158 121 -349.5 182t-402.5 61q-127 0 -222 -22t-158 -57.5t-94 -81t-31 -91.5q0 -35 11.5 -74
t38.5 -82h192z" />
    <glyph glyph-name="uni09C0" unicode="&#x9c0;" horiz-adv-x="469" 
d="M491 1491v-114h-192v-1377h-128v1377h-193v114h189q-4 147 -45 253t-123 174.5t-208.5 101t-301.5 32.5h-149q-107 0 -182.5 -12t-123 -34t-69 -52t-21.5 -67q0 -63 48 -102t141 -39h349q81 0 139.5 -13.5t99.5 -44t67 -79t41 -118.5h-128q-14 43 -28.5 70.5t-35.5 43
t-50.5 21.5t-72.5 6h-349q-87 0 -151 19t-106 53t-62.5 82t-20.5 105q0 60 29.5 110.5t94 87t167.5 57t249 20.5h165q193 0 333.5 -40.5t233.5 -124t141 -210.5t57 -300h196z" />
    <glyph glyph-name="uni09C1" unicode="&#x9c1;" 
d="M231 -345q-44 44 -93.5 82.5t-101 70.5t-104 56t-102.5 39q-23 -108 -90.5 -167.5t-167.5 -59.5q-46 0 -86.5 15.5t-70.5 42.5t-47 63.5t-17 77.5q0 42 16 78t47.5 62.5t79 41.5t109.5 15q77 0 168 -22.5t184.5 -64.5t185 -102.5t169.5 -137.5zM-299 -65q-29 9 -57.5 13
t-52.5 4q-57 0 -87.5 -25.5t-30.5 -59.5q0 -32 27.5 -54t67.5 -22q48 0 85.5 37.5t47.5 106.5z" />
    <glyph glyph-name="uni09C2" unicode="&#x9c2;" 
d="M129 -498q-46 3 -84.5 10.5t-74 21.5t-70 35t-72.5 50q-29 -14 -63 -25.5t-70.5 -19.5t-74.5 -12.5t-75 -4.5q-113 0 -178 50t-65 143q0 61 35 114t102.5 91t165.5 60t224 22v-126q-97 0 -173.5 -13.5t-129 -36.5t-80.5 -52.5t-28 -60.5q0 -35 32 -55t103 -20
q31 0 69.5 6.5t77 17.5t72 25t56.5 30q42 -33 77.5 -56t71 -38t72 -22.5t80.5 -10.5v-123z" />
    <glyph glyph-name="uni09C3" unicode="&#x9c3;" 
d="M-180 -40q-56 -13 -109 -28t-99.5 -31t-84.5 -32t-64 -30v-12q100 -38 198 -89.5t186 -122.5v-131h-12q-47 40 -105.5 78.5t-125.5 73.5t-140 64.5t-149 52.5v154q28 20 80 44.5t116.5 48.5t135 45.5t136.5 36.5z" />
    <glyph glyph-name="uni09C4" unicode="&#x9c4;" 
d="M-685 78v154q28 20 80 44.5t116.5 48.5t135 45.5t136.5 36.5l37 -122q-57 -13 -111.5 -28t-102.5 -31t-87 -32t-66 -30v-12q92 -32 182 -73t175 -96v-54q-115 -26 -209 -59t-148 -62v-12q102 -36 202.5 -85t191.5 -117v-121h-12q-47 37 -105.5 72.5t-125.5 67.5t-140 60
t-149 49v154q18 12 44.5 26t60.5 28.5t73 29t81 28.5q-61 26 -126.5 49t-132.5 41z" />
    <glyph glyph-name="uni09C7" unicode="&#x9c7;" horiz-adv-x="775" 
d="M-22 1377v114h819v-114h-80q-88 -24 -160 -85t-123.5 -152.5t-79.5 -209t-28 -253.5q0 -86 10.5 -165.5t30 -149t46.5 -127t60 -99.5l10 2q-1 5 -1.5 10t-0.5 10q0 27 11 52t31.5 44t48.5 30.5t62 11.5q32 0 60.5 -11.5t49.5 -31.5t33 -46.5t12 -57.5q0 -35 -13 -66.5
t-38 -55t-62 -37.5t-85 -14q-81 0 -153 49t-126 140.5t-86 222t-32 294.5q0 116 18 221t52 194.5t82.5 160.5t109.5 119h-478z" />
    <glyph glyph-name="uni09C8" unicode="&#x9c8;" horiz-adv-x="775" 
d="M611 1491q-13 109 -69.5 160.5t-150.5 51.5h-162q-99 0 -165 16t-105.5 55t-56 105.5t-16.5 167.5h127q0 -75 8.5 -121t30.5 -70.5t60.5 -32.5t99.5 -8q29 0 71 1t82 1q178 0 266 -80t103 -246h63v-114h-80q-88 -24 -160 -85t-123.5 -152.5t-79.5 -209t-28 -253.5
q0 -86 10.5 -165.5t30 -149t46.5 -127t60 -99.5l10 2q-1 5 -1.5 10t-0.5 10q0 27 11 52t31.5 44t48.5 30.5t62 11.5q32 0 60.5 -11.5t49.5 -31.5t33 -46.5t12 -57.5q0 -35 -13 -66.5t-38 -55t-62 -37.5t-85 -14q-81 0 -153 49t-126 140.5t-86 222t-32 294.5q0 116 18 221
t52 194.5t82.5 160.5t109.5 119h-478v114h633z" />
    <glyph glyph-name="uni09CB" unicode="&#x9cb;" horiz-adv-x="2399" 
d="M-51 1377v114h819v-114h-80q-88 -24 -160 -85t-123.5 -152.5t-79.5 -209t-28 -253.5q0 -86 10.5 -165.5t30 -149t46.5 -127t60 -99.5l10 2q-1 5 -1.5 10t-0.5 10q0 27 11 52t31.5 44t48.5 30.5t62 11.5q32 0 60.5 -11.5t49.5 -31.5t33 -46.5t12 -57.5q0 -35 -13 -66.5
t-38 -55t-62 -37.5t-85 -14q-81 0 -153 49t-126 140.5t-86 222t-32 294.5q0 116 18 221t52 194.5t82.5 160.5t109.5 119h-478zM1691 918q0 -50 -48 -50q-52 0 -52 50t52 50q48 0 48 -50zM1543 1016q0 -49 -48 -49q-52 0 -52 49q0 51 52 51q48 0 48 -51zM1790 770
q0 -51 -51 -51q-49 0 -49 51q0 49 51 49q49 0 49 -49zM1826 596q0 -50 -48 -50q-52 0 -52 50t52 50q48 0 48 -50zM1369 1053q0 -51 -50 -51t-50 51q0 49 50 49t50 -49zM1196 1016q0 -49 -51 -49q-49 0 -49 49q0 51 49 51q51 0 51 -51zM1790 422q0 -49 -51 -49q-49 0 -49 49
q0 51 49 51q51 0 51 -51zM1048 918q0 -50 -50 -50t-50 47q0 53 50 53t50 -50zM1691 272q0 -49 -48 -49q-52 0 -52 49q0 51 52 51q48 0 48 -51zM1543 174q0 -48 -48 -48q-52 0 -52 48q0 52 52 52q48 0 48 -52zM949 770q0 -51 -48 -51q-52 0 -52 51q0 49 50 49t50 -49z
M913 596q0 -25 -11 -37.5t-37 -12.5q-52 0 -52 50t52 50q26 0 37 -12.5t11 -37.5zM1369 141q0 -51 -50 -51t-50 51q0 49 50 49t50 -49zM949 422q0 -49 -50 -49t-50 49q0 51 50 51t50 -51zM1196 178q0 -52 -51 -52q-49 0 -49 48q0 52 49 52q51 0 51 -48zM1048 272
q0 -49 -50 -49t-50 49q0 51 50 51t50 -51zM2100 1225q0 32 -12.5 59.5t-36 48t-58 32.5t-77.5 12h-33v114h33q72 0 140 -24.5t110 -71.5q0 48 17.5 72t45.5 24h192v-114h-24q-79 0 -124 -42.5t-45 -109.5v-1225h-128v1225z" />
    <glyph glyph-name="uni09CC" unicode="&#x9cc;" horiz-adv-x="2400" 
d="M-51 1377v114h819v-114h-80q-88 -24 -160 -85t-123.5 -152.5t-79.5 -209t-28 -253.5q0 -86 10.5 -165.5t30 -149t46.5 -127t60 -99.5l10 2q-1 5 -1.5 10t-0.5 10q0 27 11 52t31.5 44t48.5 30.5t62 11.5q32 0 60.5 -11.5t49.5 -31.5t33 -46.5t12 -57.5q0 -35 -13 -66.5
t-38 -55t-62 -37.5t-85 -14q-81 0 -153 49t-126 140.5t-86 222t-32 294.5q0 116 18 221t52 194.5t82.5 160.5t109.5 119h-478zM1692 918q0 -50 -48 -50q-52 0 -52 50t52 50q48 0 48 -50zM1544 1016q0 -49 -48 -49q-52 0 -52 49q0 51 52 51q48 0 48 -51zM1791 770
q0 -51 -51 -51q-49 0 -49 51q0 49 51 49q49 0 49 -49zM1827 596q0 -50 -48 -50q-52 0 -52 50t52 50q48 0 48 -50zM1370 1053q0 -51 -50 -51t-50 51q0 49 50 49t50 -49zM1197 1016q0 -49 -51 -49q-49 0 -49 49q0 51 49 51q51 0 51 -51zM1791 422q0 -49 -51 -49q-49 0 -49 49
q0 51 49 51q51 0 51 -51zM1049 918q0 -50 -50 -50t-50 47q0 53 50 53t50 -50zM1692 272q0 -49 -48 -49q-52 0 -52 49q0 51 52 51q48 0 48 -51zM1544 174q0 -48 -48 -48q-52 0 -52 48q0 52 52 52q48 0 48 -52zM950 770q0 -51 -48 -51q-52 0 -52 51q0 49 50 49t50 -49z
M914 596q0 -25 -11 -37.5t-37 -12.5q-52 0 -52 50t52 50q26 0 37 -12.5t11 -37.5zM1370 141q0 -51 -50 -51t-50 51q0 49 50 49t50 -49zM950 422q0 -49 -50 -49t-50 49q0 51 50 51t50 -51zM1197 178q0 -52 -51 -52q-49 0 -49 48q0 52 49 52q51 0 51 -48zM1049 272
q0 -49 -50 -49t-50 49q0 51 50 51t50 -51zM1907 1491h189q-20 108 -78.5 156t-158.5 48q-48 0 -97.5 -7t-102 -15t-109.5 -15t-120 -7q-190 0 -289 97t-109 299h130q4 -95 30 -149.5t63.5 -81.5t80.5 -34t81 -7q57 0 108.5 7t102 16t101.5 16t107 7q84 0 149.5 -18.5
t113.5 -58.5t80.5 -102.5t50.5 -150.5h192v-114h-194v-1377h-128v1377h-193v114z" />
    <glyph glyph-name="uni09CD" unicode="&#x9cd;" 
d="M-560 -221l137 73q121 -53 227 -123t205 -168l-85 -75q-59 52 -112.5 92t-110 73t-120 61t-141.5 55v12z" />
    <glyph glyph-name="uni09CE" unicode="&#x9ce;" horiz-adv-x="1200" 
d="M447 1302q6 -63 25.5 -110.5t48 -79.5t64.5 -48t74 -16q36 0 63.5 12t46.5 31.5t28.5 45t9.5 52.5q0 38 -18.5 67.5t-48.5 50t-68 31t-78 10.5q-41 0 -79.5 -11.5t-67.5 -34.5zM352 1174q-44 -72 -44 -166q0 -86 35 -150t92 -113t130 -88.5t149 -78t149 -79.5t130 -94.5
t92 -122.5t35 -163q0 -83 -29.5 -154t-84.5 -127l-99 101q9 7 23 22.5t26.5 37t21.5 49.5t9 60q0 76 -35 132t-92.5 100t-130.5 81t-149.5 76t-149.5 85t-130.5 107.5t-92.5 144t-35 194.5q0 96 34.5 178.5t93 143t137 95t167.5 34.5q78 0 141 -21.5t107.5 -60.5t68.5 -93
t24 -118q0 -58 -21 -106.5t-58.5 -84t-88.5 -55t-112 -19.5q-53 0 -102.5 15.5t-91 47t-72.5 79t-47 111.5z" />
    <glyph glyph-name="uni09D7" unicode="&#x9d7;" horiz-adv-x="471" 
d="M-22 1491h189q-20 108 -78.5 156t-158.5 48q-48 0 -97.5 -7t-102 -15t-109.5 -15t-120 -7q-190 0 -289 97t-109 299h130q4 -95 30 -149.5t63.5 -81.5t80.5 -34t81 -7q57 0 108.5 7t102 16t101.5 16t107 7q84 0 149.5 -18.5t113.5 -58.5t80.5 -102.5t50.5 -150.5h192v-114
h-194v-1377h-128v1377h-193v114z" />
    <glyph glyph-name="uni09DC" unicode="&#x9dc;" horiz-adv-x="1594" 
d="M1588 1491v-114h-765v-475q0 -57 2.5 -91t8 -52.5t15 -24t24.5 -5.5q47 0 96 17t98.5 54t99.5 96.5t101 143.5h12q51 -49 90 -107.5t65.5 -122.5t39.5 -132t13 -136q0 -123 -39.5 -224t-111.5 -173.5t-172 -112t-221 -39.5q-167 0 -302.5 79.5t-243 232.5t-187 377
t-133.5 513l99 72h3q64 -307 142.5 -523t173.5 -353t207 -200t244 -63q91 0 166.5 32.5t129.5 90t84 136.5t30 172q0 69 -18.5 142.5t-55.5 133.5q-32 -50 -75.5 -92.5t-94 -73t-104.5 -47.5t-105 -17q-103 0 -156.5 64.5t-53.5 198.5v509h-716v114h1610zM784 -201
q0 23 8.5 43t23.5 34.5t35 23t43 8.5t43.5 -8.5t35.5 -23t23.5 -34.5t8.5 -43t-8.5 -42.5t-23.5 -34t-35.5 -23t-43.5 -8.5t-43 8.5t-35 23t-23.5 34t-8.5 42.5z" />
    <glyph glyph-name="uni09DD" unicode="&#x9dd;" horiz-adv-x="1233" 
d="M537 -24q-58 0 -117 38.5t-107 111.5t-78.5 179.5t-30.5 243.5v828h-226v114h1277v-114h-918v-833q0 -99 20.5 -179.5t52.5 -137.5t71.5 -88.5t77.5 -31.5q54 0 109 20t105 55.5t93.5 85.5t75 110t50 128.5t18.5 141.5q0 58 -13 109t-41 89l-7 -3q0 -34 -11.5 -63
t-31.5 -50.5t-48.5 -34t-61.5 -12.5q-34 0 -63.5 11t-51 32t-33.5 50t-12 65q0 39 16 72t44.5 57t68.5 37.5t88 13.5q64 0 117 -24t90.5 -70t58 -114.5t20.5 -156.5q0 -96 -22 -184t-62 -163.5t-95.5 -137t-122.5 -105t-143 -67t-157 -23.5zM472 -213q0 23 8.5 43t23.5 34.5
t35 23t43 8.5t43.5 -8.5t35.5 -23t23.5 -34.5t8.5 -43t-8.5 -42.5t-23.5 -34t-35.5 -23t-43.5 -8.5t-43 8.5t-35 23t-23.5 34t-8.5 42.5z" />
    <glyph glyph-name="uni09DF" unicode="&#x9df;" horiz-adv-x="1225" 
d="M974 -40q-48 117 -125 221.5t-176 189.5t-215 147.5t-241 94.5v215q88 51 180 97.5t191 88.5q-26 39 -68.5 75t-98.5 67.5t-124.5 56.5t-146.5 41v123h-172v114h1269v-114h-194v-1417h-79zM771 942q-50 -19 -107.5 -43.5t-116 -51.5t-114 -55.5t-101.5 -55.5v-8
q104 -43 188.5 -90t155 -101.5t130 -118t113.5 -138.5h6v1097h-703q94 -23 178.5 -63t155 -95t125.5 -125t90 -152zM366 197q0 23 8.5 43t23.5 34.5t35 23t43 8.5t43.5 -8.5t35.5 -23t23.5 -34.5t8.5 -43t-8.5 -42.5t-23.5 -34t-35.5 -23t-43.5 -8.5t-43 8.5t-35 23
t-23.5 34t-8.5 42.5z" />
    <glyph glyph-name="uni09E0" unicode="&#x9e0;" horiz-adv-x="1635" 
d="M1088 -40q-104 -28 -186 -59t-159 -67v-7q106 -36 202.5 -89t181.5 -120v-132h-12q-103 87 -235.5 156t-284.5 112v154q91 44 177 80t185 68q-58 95 -141.5 183t-186.5 163.5t-221.5 136.5t-245.5 102v219q80 51 157.5 94t155.5 79t157 67t162 58q-3 17 -11.5 38.5
t-19.5 43t-24.5 41t-26.5 33.5q-24 -39 -61 -71.5t-82 -56.5t-96.5 -37t-104.5 -13q-54 0 -97.5 14t-74.5 39t-48 60t-17 77q0 33 11 61.5t30.5 49.5t46.5 33t59 12q34 0 62 -11.5t48 -31.5t31.5 -46.5t11.5 -56.5q0 -18 -4 -37.5t-12 -39.5l-1 -3q45 0 86 17t75 48t57 74
t32 95h13q86 -61 140.5 -137t80.5 -167l62 13v292h128v-946q35 -26 66 -52t60 -55t57 -62t57 -72h6v1187h323v-114h-195v-1377h-80q-27 62 -57.5 115t-65.5 100t-77.5 89.5t-93.5 84.5v-429zM960 260v799q-78 -15 -164 -42.5t-175 -64.5t-180.5 -83t-179.5 -100v-20
q221 -85 389.5 -204.5t303.5 -284.5h6z" />
    <glyph glyph-name="uni09E1" unicode="&#x9e1;" horiz-adv-x="1915" 
d="M825 543q0 73 -14.5 143.5t-47.5 126t-86 89t-130 33.5q-59 0 -112 -23.5t-93.5 -67.5t-64.5 -107t-24 -142q0 -32 6.5 -60.5t20.5 -53.5l3 1q10 64 51.5 102t106.5 38q29 0 53.5 -10t42.5 -28t28.5 -42.5t10.5 -52.5q0 -33 -14 -63t-38.5 -52.5t-59 -36t-74.5 -13.5
q-63 0 -112.5 21t-83.5 59.5t-51.5 92t-17.5 119.5q0 97 32 180t88 143.5t132 94.5t165 34q96 0 174 -35t133.5 -102t85.5 -164.5t30 -221.5q0 -40 -3 -82q66 53 113.5 106t78 104t44.5 100t14 94q0 61 -27.5 104.5t-75.5 75.5t-111.5 55t-135.5 43t-147.5 40t-148 45
t-137.5 58t-114.5 79.5t-79.5 109t-33 147.5h143q0 -83 43 -137t113.5 -91t160.5 -62.5t184.5 -50.5t184.5 -55t160.5 -76t113.5 -113.5t43 -168.5q0 -42 -9 -85q121 -14 221.5 -54.5t172.5 -105t111.5 -153t39.5 -197.5q0 -70 -25 -146t-78 -154.5t-135 -158.5t-195 -159
l-107 108q8 42 12.5 88.5t4.5 94.5q0 73 -14.5 143.5t-47.5 126t-86 89t-130 33.5q-59 0 -112 -23.5t-93.5 -67.5t-64.5 -107t-24 -142q0 -32 6.5 -60.5t20.5 -53.5l3 1q10 64 51.5 102t106.5 38q29 0 53.5 -10t42.5 -28t28.5 -42.5t10.5 -52.5q0 -33 -14 -63t-38.5 -52.5
t-59 -36t-74.5 -13.5q-63 0 -112.5 21t-83.5 59.5t-51.5 92t-17.5 119.5q0 110 40 200t109 152q8 39 11.5 82t3.5 88zM1163 465q78 -14 140.5 -55.5t106.5 -107t67.5 -154.5t23.5 -198q0 -40 -3 -82q66 53 113.5 108.5t78 108.5t44.5 101t14 86q0 77 -29 144.5t-85.5 120
t-140 87t-192.5 45.5q-23 -50 -57 -101t-81 -103z" />
    <glyph glyph-name="uni09E2" unicode="&#x9e2;" 
d="M-348 199q26 -68 68.5 -110t91 -71t98 -50.5t89.5 -48t65 -63.5t25 -96q0 -38 -12.5 -72.5t-42.5 -67.5t-79.5 -64t-123.5 -62q-15 15 -23.5 24t-15.5 15.5t-13.5 13l-18.5 18.5q18 54 18 116q0 48 -27 76.5t-69 28.5q-16 0 -33 -7v-3q25 -32 25 -69q0 -45 -27.5 -70.5
t-68.5 -25.5q-42 0 -71.5 29.5t-29.5 75.5q0 31 15 59.5t40.5 50t60 34.5t73.5 13q42 0 78 -13.5t62.5 -37.5t41 -57t14.5 -73q0 -43 -18 -92q86 37 121 77.5t35 87.5q0 31 -24.5 53.5t-63.5 43.5t-87.5 43t-95 52t-86.5 71.5t-63 100.5z" />
    <glyph glyph-name="uni09E3" unicode="&#x9e3;" 
d="M-348 199q26 -68 68.5 -110t91 -71t98 -50.5t89.5 -48t65 -63.5t25 -96q0 -16 -3 -28l1 -1q54 32 76 65t22 71q0 31 -24.5 53.5t-63.5 43.5t-87.5 43t-95 52t-86.5 71.5t-63 100.5l72 70q26 -68 68.5 -110t91 -71t98 -50.5t89.5 -48t65 -63.5t25 -96q0 -42 -15.5 -79
t-63 -78.5t-134.5 -92t-230 -118.5q-15 15 -23.5 24t-15.5 15.5t-13.5 13l-18.5 18.5q18 54 18 116q0 48 -27 76.5t-69 28.5q-16 0 -33 -7v-3q25 -32 25 -69q0 -45 -27.5 -70.5t-68.5 -25.5q-42 0 -71.5 29.5t-29.5 75.5q0 31 15 59.5t40.5 50t60 34.5t73.5 13
q42 0 78 -13.5t62.5 -37.5t41 -57t14.5 -73q0 -43 -18 -92q86 37 121 77.5t35 87.5q0 31 -24.5 53.5t-63.5 43.5t-87.5 43t-95 52t-86.5 71.5t-63 100.5z" />
    <glyph glyph-name="uni09E6" unicode="&#x9e6;" horiz-adv-x="1333" 
d="M1056 731q0 82 -25.5 152t-74 121t-118 79.5t-157.5 28.5q-90 0 -164.5 -31t-128 -87t-83 -133t-29.5 -170q0 -85 26.5 -156t75 -122.5t116 -80t149.5 -28.5q90 0 165.5 33t130.5 91t86 136t31 167zM642 172q-104 0 -194 37.5t-156 106.5t-104 165.5t-38 214.5
t40.5 219.5t112 175.5t168 116.5t209.5 42.5q106 0 198 -37t160 -105t106.5 -163t38.5 -211q0 -119 -42.5 -222t-116 -178.5t-172 -118.5t-210.5 -43z" />
    <glyph glyph-name="uni09E7" unicode="&#x9e7;" horiz-adv-x="1022" 
d="M265 1258q16 -29 54 -64.5t95 -83.5t132.5 -110t166.5 -143q89 -80 133 -173t44 -198q0 -102 -34.5 -188.5t-89.5 -150t-124.5 -99t-139.5 -35.5q-93 0 -142 42t-49 113q0 37 17.5 70.5t48 58.5t73 40t93.5 15q79 0 150 -33q29 35 45.5 81.5t16.5 94.5q0 61 -28.5 118
t-75 111.5t-106 106.5t-121.5 102.5t-121.5 100t-106 99t-75 99t-28.5 100.5q0 31 10.5 57t28.5 45.5t42.5 30.5t52.5 11q56 0 87 -30.5t31 -79.5q0 -73 -79 -103z" />
    <glyph glyph-name="uni09E8" unicode="&#x9e8;" horiz-adv-x="1352" 
d="M1087 865q0 -56 -25.5 -110t-79 -103t-137 -91t-200.5 -74v-6q214 -83 375.5 -197.5t265.5 -255.5l-92 -81q-46 60 -112.5 120.5t-149.5 117.5t-179 108t-200 92t-213.5 70.5t-219.5 42.5l15 131q29 -2 58 -6t63.5 -8.5t76.5 -8t98 -3.5q110 0 205 23t165.5 60.5
t111 85.5t40.5 98q0 53 -31 88.5t-81.5 60t-115.5 41t-132.5 32t-132.5 33t-115.5 44t-81.5 65.5t-31 97q0 32 11 59t30.5 46t45.5 29.5t57 10.5q48 0 78 -30t30 -74q0 -31 -21 -57.5t-58 -41.5q0 -2 -1 -3t-1 -3q201 -33 333 -71.5t210 -86.5t109.5 -108t31.5 -136z" />
    <glyph glyph-name="uni09E9" unicode="&#x9e9;" horiz-adv-x="1503" 
d="M205 1359q57 -205 113 -362t112.5 -272.5t114 -193.5t116 -125.5t118.5 -67.5t123 -20q75 0 141 30t115 84.5t77.5 131t28.5 169.5q0 97 -26 176t-71 136.5t-105.5 91.5t-129.5 41l-10 -15q23 -26 39.5 -66t16.5 -86t-17 -85.5t-46 -68.5t-68 -45.5t-83 -16.5
q-48 0 -89.5 17t-73 48t-49.5 75t-18 98q0 58 25 109t70.5 89.5t109.5 60.5t143 22q108 0 201.5 -39.5t162.5 -113.5t108 -181t39 -243q0 -125 -37 -226.5t-102.5 -173t-154.5 -110.5t-192 -39q-83 0 -159 22t-146.5 73t-136 134.5t-127.5 207t-121 290.5t-117 384l99 60h6z
" />
    <glyph glyph-name="uni09EA" unicode="&#x9ea;" horiz-adv-x="1302" 
d="M880 843q77 -31 131 -67t88.5 -78.5t50 -93t15.5 -111.5q0 -84 -35.5 -156t-102 -124.5t-163 -82t-218.5 -29.5q-115 0 -209 29.5t-161 82t-103.5 124.5t-36.5 156q0 61 16 112.5t53 95t96 79t145 64.5v6q-134 53 -195.5 128t-61.5 170q0 68 30.5 128.5t90.5 106.5
t149.5 72.5t208.5 26.5q106 0 191 -24.5t144.5 -68.5t91.5 -104.5t32 -131.5q0 -104 -58 -178.5t-189 -125.5v-6zM1037 486q0 48 -17 90.5t-60.5 80.5t-117 73t-185.5 70q-114 -28 -188.5 -59.5t-119 -67.5t-62.5 -78.5t-18 -92.5q0 -59 29 -110t81.5 -88.5t125 -58.5
t160.5 -21q84 0 152.5 21t117.5 57t75.5 83.5t26.5 100.5zM323 1162q0 -41 15 -74.5t56 -64.5t113 -62t186 -65q88 24 147.5 51.5t96 60t52 70t15.5 82.5q0 43 -25.5 79t-72.5 62t-113 41t-147 15t-142 -16.5t-101 -43.5t-60 -62.5t-20 -72.5z" />
    <glyph glyph-name="uni09EB" unicode="&#x9eb;" horiz-adv-x="1530" 
d="M935 1411q-49 -86 -49 -183q0 -49 19 -91t51 -73t75.5 -48.5t93.5 -17.5q19 0 34.5 2t31.5 7.5t34 15t41 24.5l134 -79v-6q-155 -82 -257.5 -151.5t-164 -129t-87 -111.5t-25.5 -100q0 -39 18 -76t50.5 -67t76 -50t94.5 -26l98 -102v-6q-48 -28 -101 -50t-108 -37
t-111 -22.5t-109 -7.5q-143 0 -259.5 42t-199 116.5t-127.5 176t-45 221.5q0 106 45.5 225.5t130.5 239.5t207 232t274 203l135 -65v-6zM272 575q0 -96 38.5 -174.5t106.5 -135t161.5 -87t204.5 -30.5q52 0 93.5 6t77.5 17q-49 28 -88.5 62.5t-67.5 74t-43.5 83t-15.5 88.5
t15.5 92.5t51 98.5t92.5 105t141 112q-137 41 -208 134.5t-71 233.5q0 23 3 47q-125 -90 -217.5 -185.5t-153.5 -190t-90.5 -184t-29.5 -167.5z" />
    <glyph glyph-name="uni09EC" unicode="&#x9ec;" horiz-adv-x="1707" 
d="M920 875q0 -45 2.5 -73.5t7.5 -44t11 -21.5t14 -6q50 0 102.5 18t104.5 58t103 105t99 160h12q50 -43 90 -98t68.5 -118t43.5 -132t15 -140q0 -125 -41.5 -228t-115 -176.5t-175.5 -114t-222 -40.5q-153 0 -291 70t-254.5 217.5t-209 375t-153.5 542.5l102 77h6
q63 -311 146.5 -529.5t184.5 -357.5t218 -202.5t246 -63.5q105 0 186 36.5t135.5 97t82.5 139.5t28 163q0 69 -18.5 136.5t-56.5 129.5q-39 -54 -85 -97t-96.5 -73.5t-103.5 -46.5t-106 -16q-101 0 -155.5 64.5t-54.5 192.5v382h-6q-29 -19 -66 -19q-19 0 -37 7.5t-32 21
t-22.5 32.5t-8.5 41q0 26 10 49.5t28.5 41t44 28t55.5 10.5q35 0 65 -16.5t52 -49t34.5 -81.5t12.5 -113v-338z" />
    <glyph glyph-name="uni09ED" unicode="&#x9ed;" horiz-adv-x="1304" 
d="M882 651q-55 -19 -129 -28t-159 -9q-87 0 -165.5 10.5t-157.5 33.5l-129 126q-4 16 -5.5 31.5t-1.5 30.5q0 85 20 165.5t57 151t88 129.5t112.5 101t132.5 65.5t146 23.5q62 0 119.5 -44t102 -121.5t71 -183t26.5 -228.5v-516v-68.5t1 -44.5t2 -30t4 -24q28 21 62 21
q22 0 41.5 -9t33.5 -24t22 -36t8 -45q0 -25 -11 -46.5t-29.5 -37.5t-44 -25.5t-54.5 -9.5q-36 0 -65.5 15t-51.5 47.5t-34 84t-12 123.5v371zM274 790q82 -22 156 -32.5t157 -10.5q85 0 161 11t135 34v91q0 106 -20 193.5t-50.5 149.5t-67.5 96.5t-70 34.5q-78 0 -152 -45
t-131 -121t-91.5 -176.5t-34.5 -212.5z" />
    <glyph glyph-name="uni09EE" unicode="&#x9ee;" horiz-adv-x="1525" 
d="M287 1162v30.5t-0.5 23l-1 21t-1.5 24.5h-4q-29 -21 -62 -21q-45 0 -75 28t-30 76q0 26 10.5 49.5t29.5 41t44.5 28t54.5 10.5q36 0 65.5 -17t51.5 -51t34 -84.5t12 -117.5v-378q67 33 149 50t168 17q158 0 288 -68q15 10 28.5 16.5t28.5 10.5t32.5 5.5t40.5 1.5
q75 0 124 7t77.5 23t40 42t11.5 65q0 20 -5 40t-16 45v6l102 73h6q20 -45 30.5 -85.5t10.5 -82.5q0 -58 -20 -105.5t-59.5 -82t-97.5 -53.5t-134 -19q-38 0 -59.5 -1.5t-38.5 -5.5q27 -32 27 -83q0 -80 -20 -158.5t-56.5 -149.5t-87.5 -131.5t-112.5 -105t-131.5 -70
t-145 -25.5q-56 0 -111 39t-99 108.5t-71.5 166.5t-27.5 213v634zM1008 688q-66 42 -136.5 61t-143.5 19q-81 0 -160 -19t-152 -53v-148q0 -103 18 -181.5t46 -132t62.5 -81t66.5 -27.5q45 0 92.5 20t93 56.5t85.5 87t70.5 111.5t48 131t17.5 145z" />
    <glyph glyph-name="uni09EF" unicode="&#x9ef;" horiz-adv-x="1367" 
d="M531 577q-55 0 -99.5 -25t-75.5 -64t-47.5 -86t-16.5 -90q0 -57 15 -109q4 -1 6.5 -0.5t6.5 -1.5q14 46 49 73.5t83 27.5q32 0 59 -12t47 -34t31.5 -51.5t11.5 -64.5q0 -27 -9.5 -52.5t-28.5 -45t-48 -31t-67 -11.5q-56 0 -107.5 22t-90.5 63t-62.5 99.5t-23.5 132.5
q0 78 27.5 148t76 123.5t114.5 85t144 31.5q84 0 158 -34t132.5 -102t98.5 -170.5t56 -240.5q39 10 77.5 38t69 67t49.5 85t19 93q0 65 -29.5 116t-80.5 92t-118.5 75t-144 64t-156.5 59.5t-156.5 62t-144 70t-118.5 85t-80.5 106.5t-29.5 134q0 45 11.5 77t31 53t43.5 31
t50 10q52 0 83.5 -28.5t31.5 -74.5q0 -40 -21 -66.5t-68 -43.5l-1 -2q0 -59 44 -104t116.5 -82t164.5 -69.5t188.5 -68.5t188.5 -78.5t164.5 -98.5t116.5 -129.5t44 -171.5q0 -93 -36 -176t-97.5 -146t-144 -100t-175.5 -37q-9 144 -39 252.5t-75 180.5t-101 108t-117 36z
" />
    <glyph glyph-name="uni09F0" unicode="&#x9f0;" horiz-adv-x="1208" 
d="M1037 -40h-80q-69 130 -159 240t-193.5 197.5t-216.5 151.5t-227 102v209q208 145 391.5 224t356.5 105v188h-931v114h1252v-114h-193v-1417zM909 260v272q-46 50 -99.5 98.5t-113 93t-123 84t-128.5 72.5q-43 -24 -86.5 -52t-88.5 -59v-20q97 -41 183.5 -89
t164.5 -107.5t148.5 -132t136.5 -160.5h6zM909 1059q-159 -24 -345 -115q50 -26 95 -52t86.5 -55.5t82 -62.5t81.5 -72v357z" />
    <glyph glyph-name="uni09F1" unicode="&#x9f1;" horiz-adv-x="1208" 
d="M255 472q63 -32 130.5 -79.5t132 -105t123 -121t103.5 -125.5l-90 -62q-45 63 -106.5 127.5t-128 120.5t-132.5 100.5t-119 68.5zM1037 -40h-80q-69 130 -159 240t-193.5 197.5t-216.5 151.5t-227 102v209q208 145 391.5 224t356.5 105v188h-931v114h1252v-114h-193
v-1417zM909 260v799q-137 -21 -296.5 -92t-342.5 -198v-20q97 -41 183.5 -89t164.5 -107.5t148.5 -132t136.5 -160.5h6z" />
    <glyph glyph-name="uni09F2" unicode="&#x9f2;" horiz-adv-x="1361" 
d="M123 1088q54 26 117 39.5t135 13.5q137 0 269.5 -62t250 -192.5t215 -333.5t165.5 -485l-101 -71h-6q-66 271 -154.5 463.5t-192 314.5t-218 179t-232.5 57q-57 0 -105.5 -11t-89.5 -31z" />
    <glyph glyph-name="uni09F3" unicode="&#x9f3;" horiz-adv-x="1261" 
d="M290 1670q-14 -14 -29.5 -21.5t-41.5 -7.5q-22 0 -42.5 8t-36 23t-25 36t-9.5 47q0 57 37.5 94.5t103.5 37.5q78 0 127.5 -59.5t49.5 -181.5v-401h859v-114h-856v-587q0 -99 21.5 -179.5t55 -137.5t74.5 -88.5t81 -31.5q63 0 125.5 32.5t113 89.5t81.5 134t31 165
q0 61 -13 114.5t-41 93.5l-7 -3q0 -34 -11.5 -63t-31.5 -50.5t-48.5 -34t-61.5 -12.5q-34 0 -63.5 11t-51 32t-33.5 50t-12 65q0 39 15 72t42.5 57t65.5 37.5t84 13.5q62 0 116 -26.5t94 -75.5t63 -118.5t23 -154.5q0 -117 -40 -219.5t-108.5 -178t-160 -119t-193.5 -43.5
q-60 0 -121 38.5t-110.5 111.5t-80.5 179.5t-31 243.5v582h-316v114h316v424z" />
    <glyph glyph-name="uni09F4" unicode="&#x9f4;" horiz-adv-x="1503" 
d="M1403 1037q-110 -240 -226.5 -409t-237.5 -275.5t-246 -155t-252 -48.5q-76 0 -164.5 28t-176.5 83l75 115q63 -44 132 -65t135 -21q112 0 219.5 43.5t213 138.5t210 247t209.5 370z" />
    <glyph glyph-name="uni09F5" unicode="&#x9f5;" horiz-adv-x="1484" 
d="M1417 1037q-110 -240 -226.5 -409t-237.5 -275.5t-246 -155t-252 -48.5q-76 0 -164.5 28t-176.5 83l75 115q21 -17 53 -27t70 -10q30 0 58.5 13.5t50.5 35t35.5 50t13.5 58.5q0 32 -12 56t-31.5 40t-45 24t-52.5 8q-26 0 -51.5 -7.5t-45.5 -22.5l-86 75q34 29 78.5 48.5
t98.5 19.5q52 0 99.5 -18t82.5 -50t56 -77.5t21 -99.5q0 -26 -7 -55t-21 -56t-35 -50t-50 -36l3 -5q109 3 215 48t209.5 140.5t206 246t205.5 364.5z" />
    <glyph glyph-name="uni09F6" unicode="&#x9f6;" horiz-adv-x="1582" 
d="M426 817q-36 0 -80 -13t-87 -37l-71 94q51 33 115.5 52.5t127.5 19.5q54 0 98 -15.5t75 -43.5t47.5 -66t16.5 -84q0 -65 -30 -104.5t-75.5 -65t-98 -41t-98 -31.5t-75.5 -37.5t-30 -57.5q0 -44 42 -67t130 -23q120 0 228.5 44.5t204 116.5t177.5 162.5t149.5 183.5
t120 179t89.5 148l108 -57q-29 -50 -68.5 -115.5t-88 -139t-106 -150.5t-124 -149.5t-142 -137t-158.5 -113t-174.5 -76.5t-190.5 -28q-77 0 -136 16.5t-100 46.5t-62 72t-21 92q0 46 17.5 79t45.5 56.5t64 40t74 29.5t74 24.5t64 26t45.5 33.5t17.5 47q0 42 -29 65.5
t-86 23.5z" />
    <glyph glyph-name="uni09F7" unicode="&#x9f7;" horiz-adv-x="428" 
d="M150 1491h128v-1491h-128v1491z" />
    <glyph glyph-name="uni09F8" unicode="&#x9f8;" horiz-adv-x="1390" 
d="M334 1319l-4 1q-14 -14 -29.5 -21.5t-41.5 -7.5q-22 0 -42.5 8t-36 23t-25 36t-9.5 47q0 57 37.5 94.5t103.5 37.5q78 0 126.5 -59.5t48.5 -181.5v-780h6q79 69 165 132t164 111t141 76t97 28q37 0 68 -16t53.5 -51.5t35.5 -91.5t13 -135v-525h-128v557q0 72 -13 101
t-36 29q-27 0 -84 -29.5t-136 -85.5t-177.5 -137.5t-208.5 -184.5h-6l-82 92v933z" />
    <glyph glyph-name="uni09F9" unicode="&#x9f9;" horiz-adv-x="1035" 
d="M747 676q0 45 -14 89t-42 78.5t-69.5 55.5t-96.5 21q-58 0 -102.5 -23.5t-74.5 -61t-45.5 -85.5t-15.5 -96t15 -92.5t43 -78.5t68.5 -54t90.5 -20q52 0 97 22t77 58.5t50.5 85t18.5 101.5zM493 276q-83 0 -147 31.5t-107.5 84t-66 120.5t-22.5 141q0 85 29 158.5
t80.5 127t122 84t153.5 30.5t148 -30t110 -81t68.5 -118.5t23.5 -141.5q0 -86 -30.5 -160.5t-83.5 -129t-124.5 -85.5t-153.5 -31z" />
    <glyph glyph-name="uni09FA" unicode="&#x9fa;" horiz-adv-x="1550" 
d="M339 837q-7 -35 -14 -76t-13 -86t-9.5 -92.5t-3.5 -95.5q0 -66 9 -125t31 -102.5t59.5 -69t94.5 -25.5q64 0 136.5 32.5t146 93.5t145.5 147.5t135.5 193.5t114.5 233.5t84 266.5h6l113 -64q-68 -240 -167 -432.5t-216 -327t-245 -206.5t-254 -72q-89 0 -149.5 35
t-97.5 97.5t-53 148.5t-16 189q0 95 11.5 191t28.5 174zM561 844q0 25 9.5 46.5t25.5 37.5t38 25t47 9t47 -9t38 -25t25.5 -37.5t9.5 -46.5t-9.5 -46.5t-25.5 -37.5t-38 -25t-47 -9t-47 9t-38 25t-25.5 37.5t-9.5 46.5z" />
    <glyph glyph-name="uni09FB" unicode="&#x9fb;" horiz-adv-x="1234" 
d="M600 1318q-60 38 -107.5 53.5t-85.5 15.5q-36 0 -66 -13t-51.5 -39t-34 -64t-12.5 -87q0 -108 60.5 -227t176.5 -238t286.5 -231t390.5 -205v-6l-41 -111q-247 106 -434.5 229t-314 255.5t-190.5 269.5t-64 271q0 74 19 133.5t56 101t89.5 64t120.5 22.5q62 0 127 -20.5
t137 -66.5z" />
    <glyph glyph-name="uni0A01" unicode="&#xa01;" 
d="M-333 2063q0 48 27 77.5t72 29.5q22 0 41 -8t33 -23t22 -35t8 -44q0 -45 -28 -75t-73 -30t-73.5 29.5t-28.5 78.5zM-491 2054q6 -57 25.5 -110t53 -93.5t81 -64.5t109.5 -24q31 0 70.5 9.5t75.5 40t63.5 88t35.5 153.5l120 -27q-12 -100 -46 -173.5t-84 -122t-113 -72
t-134 -23.5q-66 0 -128 21.5t-112 69t-84.5 122t-47.5 179.5z" />
    <glyph glyph-name="uni0A02" unicode="&#xa02;" 
d="M-352 1792q0 53 32 86.5t82 33.5q25 0 47 -9.5t38 -26t25 -39.5t9 -50q0 -54 -32.5 -87t-81.5 -33q-26 0 -47.5 9t-37.5 25.5t-25 39.5t-9 51z" />
    <glyph glyph-name="uni0A03" unicode="&#xa03;" horiz-adv-x="954" 
d="M477 775q-58 0 -107.5 22.5t-86 60t-57.5 87t-21 103.5q0 57 22 106t59.5 85t86 56.5t102.5 20.5q57 0 107 -21.5t87 -58t58.5 -85.5t21.5 -103q0 -57 -22 -107t-59.5 -87t-87 -58t-103.5 -21zM477 1211q-34 0 -63.5 -13t-51 -35.5t-34 -52t-12.5 -62.5q0 -34 12.5 -64.5
t34.5 -53.5t50.5 -36.5t61.5 -13.5q34 0 64 14t52 37.5t34.5 53.5t12.5 63q0 34 -13 64t-35 52t-51.5 34.5t-61.5 12.5zM477 28q-58 0 -107.5 22.5t-86 60t-57.5 87t-21 103.5q0 57 22 106t59.5 85t86 56.5t102.5 20.5q57 0 107 -21.5t87 -58t58.5 -85.5t21.5 -103
q0 -57 -22 -107t-59.5 -87t-87 -58t-103.5 -21zM477 464q-34 0 -63.5 -13t-51 -35.5t-34 -52t-12.5 -62.5q0 -34 12.5 -64.5t34.5 -53.5t50.5 -36.5t61.5 -13.5q34 0 64 14t52 37.5t34.5 53.5t12.5 63q0 34 -13 64t-35 52t-51.5 34.5t-61.5 12.5z" />
    <glyph glyph-name="uni0A05" unicode="&#xa05;" horiz-adv-x="1605" 
d="M-35 1491h37q100 0 176.5 -41.5t129.5 -108.5t83.5 -152t38.5 -172l2 -1q70 69 164.5 150t220.5 169q16 -27 38.5 -83t44.5 -131t41.5 -165.5t30.5 -187.5l2 -1q66 47 149 92.5t184 90.5v541h333v-114h-205v-1377h-128v829q-48 -21 -91 -42.5t-83.5 -45.5t-80 -52
t-80.5 -62v-1q-11 -120 -39 -204.5t-64.5 -137.5t-77.5 -77.5t-77 -24.5q-18 0 -34.5 5t-30 17t-21.5 32t-8 50q0 38 13 83t41.5 95t75 105t112.5 113v2q0 61 -8.5 126t-22.5 127.5t-31.5 119t-34.5 100.5v1q-42 -27 -90 -65.5t-93.5 -80.5t-84 -83.5t-61.5 -72.5v-23
q0 -38 -7.5 -84.5t-21.5 -93t-34.5 -90.5t-46.5 -78.5t-57.5 -55t-67.5 -20.5q-16 0 -33.5 5t-32 18t-24 34t-9.5 54q0 24 8 58.5t32 82.5t69 110t119 141v2q0 104 -24.5 189t-68.5 145.5t-106.5 93.5t-138.5 33h-27v114z" />
    </font>
</defs>
</svg>
