<?xml version="1.0" standalone="no"?>
<!DOCTYPE svg PUBLIC "-//W3C//DTD SVG 1.1//EN" "http://www.w3.org/Graphics/SVG/1.1/DTD/svg11.dtd" >
<svg xmlns="http://www.w3.org/2000/svg" xmlns:xlink="http://www.w3.org/1999/xlink" version="1.1">
<metadata>
Created by FontForge 20170731 at Thu Nov  9 13:35:55 2017
 By Aleksey,,,
(c) 2017 Microsoft Corporation. All Rights Reserved.
</metadata>
<defs>
<font id="NirmalaUI-Bold" horiz-adv-x="0" >
  <font-face 
    font-family="Nirmala UI"
    font-weight="700"
    font-stretch="normal"
    units-per-em="2048"
    panose-1="2 11 8 2 4 2 4 2 2 3"
    ascent="1638"
    descent="-410"
    x-height="1024"
    cap-height="1434"
    bbox="-2537 -676 6076 2411"
    underline-thickness="72"
    underline-position="-286"
    unicode-range="U+000D-111F4"
  />
<missing-glyph horiz-adv-x="1322" 
d="M166 0v1398h990v-1398h-990zM314 148h694v1102h-694v-1102z" />
    <glyph glyph-name=".notdef" horiz-adv-x="1322" 
d="M166 0v1398h990v-1398h-990zM314 148h694v1102h-694v-1102z" />
    <glyph glyph-name="uni0000" 
 />
    <glyph glyph-name="uni000D" unicode="&#xd;" 
 />
    <glyph glyph-name="uni00A0" unicode="&#xa0;" horiz-adv-x="565" 
 />
    <glyph glyph-name="uni00A0" unicode=" " horiz-adv-x="565" 
 />
    <glyph glyph-name="exclam" unicode="!" horiz-adv-x="670" 
d="M500 1434l-39 -988h-256l-37 988h332zM336 -23q-80 0 -132 48.5t-52 117.5q0 72 52.5 118t131.5 46q80 0 131 -46.5t51 -117.5q0 -72 -50.5 -119t-131.5 -47z" />
    <glyph glyph-name="quotedbl" unicode="&#x22;" horiz-adv-x="1010" 
d="M834 1452l-31 -444h-201l-31 444h263zM438 1452l-30 -442h-203l-29 442h262z" />
    <glyph glyph-name="numbersign" unicode="#" horiz-adv-x="1213" 
d="M1176 1069l-39 -180h-185l-55 -248h207l-45 -180h-199l-78 -346h-200l73 346h-229l-74 -346h-200l71 346h-186l37 180h188l53 248h-202l34 180h205l74 356h205l-74 -356h229l76 356h203l-74 -356h185zM750 889h-232l-55 -248h231z" />
    <glyph glyph-name="dollar" unicode="$" horiz-adv-x="1178" 
d="M674 8v-217h-146v211q-203 1 -378 92v277q58 -47 173 -87t205 -46v364q-234 87 -319.5 188.5t-85.5 247.5q0 157 111 267.5t294 128.5v186h146v-182q211 -10 315 -68v-270q-140 85 -315 104v-379q219 -79 314 -180.5t95 -245.5q0 -166 -106 -267.5t-303 -123.5zM528 883
v317q-139 -25 -139 -145q0 -103 139 -172zM674 545v-303q143 22 143 143q0 98 -143 160z" />
    <glyph glyph-name="percent" unicode="%" horiz-adv-x="1776" 
d="M430 707q-153 0 -246.5 97t-93.5 261q0 179 99.5 284t265.5 105q159 0 248.5 -95t89.5 -267q0 -177 -99 -281t-264 -104zM449 1278q-146 0 -146 -203q0 -192 139 -192q142 0 142 200q0 195 -135 195zM1477 1434l-934 -1434h-244l932 1434h246zM1323 -20q-153 0 -246.5 97
t-93.5 261q0 179 99.5 284t265.5 105q160 0 249 -94t89 -266q0 -177 -99 -282t-264 -105zM1339 551q-145 0 -145 -203q0 -192 141 -192q142 0 142 200q0 93 -38 144t-100 51z" />
    <glyph glyph-name="ampersand" unicode="&#x26;" horiz-adv-x="1740" 
d="M1479 -23q-53 0 -100.5 14t-90 38t-80.5 56.5t-72 69.5q-37 -30 -89 -62t-117.5 -57.5t-144.5 -42t-169 -16.5q-117 0 -216.5 28t-171.5 83.5t-112.5 137.5t-40.5 190q0 85 30.5 151.5t79.5 116.5t111 86t126 60q-31 24 -62.5 55.5t-56.5 69t-40.5 81.5t-15.5 93
q0 79 32 140t89.5 103t137.5 64t176 22q92 0 168.5 -23t131.5 -64t85 -98.5t30 -126.5q0 -111 -66.5 -192.5t-187.5 -132.5q48 -22 92 -50t86 -64t82 -81.5t79 -104.5q82 103 117.5 219.5t35.5 242.5q0 38 -4.5 73t-14.5 65h269q11 -32 16 -62t5 -71q0 -97 -20.5 -189
t-57.5 -176t-89.5 -159t-115.5 -140q49 -51 101 -78.5t98 -27.5q48 0 98 10.5t87 29.5v-238q-55 -22 -108.5 -32.5t-119.5 -10.5zM632 216q59 0 111 11.5t98 30.5t85.5 44t72.5 52q-51 80 -101 135.5t-99 95t-97.5 66.5t-97.5 49q-41 -20 -78.5 -44.5t-66.5 -57t-46.5 -74
t-17.5 -95.5q0 -48 17 -87t48.5 -67t75 -43.5t96.5 -15.5zM817 1124q0 29 -11 52t-30 38.5t-43 24t-51 8.5q-33 0 -60.5 -10t-48 -27t-31.5 -40.5t-11 -50.5q0 -56 35 -103t87 -76q33 12 62.5 28t52 38t36 51t13.5 67z" />
    <glyph glyph-name="quotesingle" unicode="'" horiz-adv-x="600" 
d="M430 1452l-31 -442h-200l-29 442h260z" />
    <glyph glyph-name="parenleft" unicode="(" horiz-adv-x="756" 
d="M739 -326h-258q-323 356 -323 875q0 501 323 885h256q-303 -402 -303 -885t305 -875z" />
    <glyph glyph-name="parenright" unicode=")" horiz-adv-x="756" 
d="M274 -326h-256q306 390 306 875q0 481 -306 885h258q324 -385 324 -885q0 -515 -326 -875z" />
    <glyph glyph-name="asterisk" unicode="*" horiz-adv-x="932" 
d="M864 1053l-274 -37l196 -211l-182 -125l-137 254l-137 -254l-183 125l197 211l-274 37l71 202l252 -108l-43 287h234l-43 -287l250 108z" />
    <glyph glyph-name="plus" unicode="+" horiz-adv-x="1448" 
d="M1212 485h-385v-385h-202v385h-387v203h387v387h202v-387h385v-203z" />
    <glyph glyph-name="comma" unicode="," horiz-adv-x="555" 
d="M432 252l-147 -506h-246l102 506h291z" />
    <glyph glyph-name="uni2010" unicode="&#x2010;" horiz-adv-x="828" 
d="M690 436h-547v221h547v-221z" />
    <glyph glyph-name="uni2010" unicode="&#xad;" horiz-adv-x="828" 
d="M690 436h-547v221h547v-221z" />
    <glyph glyph-name="uni2010" unicode="-" horiz-adv-x="828" 
d="M690 436h-547v221h547v-221z" />
    <glyph glyph-name="period" unicode="." horiz-adv-x="555" 
d="M274 -25q-78 0 -130 48t-52 118q0 72 53.5 118t133.5 46q81 0 132.5 -46.5t51.5 -117.5q0 -73 -52.5 -119.5t-136.5 -46.5z" />
    <glyph glyph-name="slash" unicode="/" horiz-adv-x="908" 
d="M932 1434l-699 -1672h-282l696 1672h285z" />
    <glyph glyph-name="zero" unicode="0" horiz-adv-x="1178" 
d="M581 -25q-512 0 -512 719q0 373 138.5 568.5t401.5 195.5q500 0 500 -731q0 -364 -136.5 -558t-391.5 -194zM595 1217q-205 0 -205 -515q0 -485 201 -485q196 0 196 500t-192 500z" />
    <glyph glyph-name="one" unicode="1" horiz-adv-x="1178" 
d="M832 1466v-1466h-315v1110q-26 -23 -61.5 -43.5t-75.5 -37t-83 -28t-85 -16.5v266q123 36 232 92t197 123h191z" />
    <glyph glyph-name="two" unicode="2" horiz-adv-x="1178" 
d="M429 262h608v-262h-954v108q0 110 37 197.5t93 157t122.5 123t126.5 96.5q63 45 110.5 86t80 81.5t48.5 82t16 88.5q0 92 -52 139t-159 47q-185 0 -354 -147v278q187 121 422 121q109 0 195.5 -28.5t146.5 -81.5t91.5 -128.5t31.5 -168.5q0 -99 -30.5 -176t-81 -140
t-116.5 -115.5t-137 -101.5q-48 -34 -92.5 -67.5t-78.5 -66t-54 -63.5t-20 -59z" />
    <glyph glyph-name="three" unicode="3" horiz-adv-x="1178" 
d="M117 47v275q144 -105 336 -105q121 0 188.5 52t67.5 145q0 96 -83.5 148t-229.5 52h-133v242h123q280 0 280 186q0 175 -215 175q-144 0 -280 -93v258q151 76 352 76q220 0 342.5 -99t122.5 -257q0 -281 -285 -352v-5q152 -19 240 -110.5t88 -224.5q0 -201 -147 -318
t-406 -117q-222 0 -361 72z" />
    <glyph glyph-name="four" unicode="4" horiz-adv-x="1178" 
d="M952 1434v-904h172v-236h-172v-294h-288v294h-625v247q83 93 172 203.5t172 227.5t154.5 235.5t121.5 226.5h293zM322 530h342v501q-35 -65 -76 -131.5t-86 -131t-91 -125t-89 -113.5z" />
    <glyph glyph-name="five" unicode="5" horiz-adv-x="1178" 
d="M142 37v270q147 -90 313 -90q125 0 195.5 59.5t70.5 161.5q0 213 -301 213q-111 0 -256 -17l54 800h759v-258h-518l-20 -287q77 6 133 6q221 0 346 -116t125 -312q0 -217 -149 -354.5t-404 -137.5q-207 0 -348 62z" />
    <glyph glyph-name="six" unicode="6" horiz-adv-x="1178" 
d="M1110 477q0 -106 -37 -198t-103 -159.5t-157 -106t-199 -38.5q-121 0 -216.5 45t-161.5 130.5t-101 209.5t-35 281q0 185 45.5 335.5t130 257.5t204.5 165.5t270 58.5q166 0 258 -39v-264q-109 62 -238 62q-80 0 -145 -31t-111.5 -88t-73 -137.5t-28.5 -179.5h6
q102 141 301 141q89 0 161 -32t123 -90.5t79 -140.5t28 -182zM801 457q0 231 -189 231q-43 0 -78 -16t-60 -45t-38.5 -68.5t-13.5 -87.5q0 -53 14 -99t39.5 -80.5t60.5 -54.5t78 -20t77.5 17.5t59 49t37.5 76t13 97.5z" />
    <glyph glyph-name="seven" unicode="7" horiz-adv-x="1178" 
d="M1094 1252q-96 -173 -172 -324.5t-134 -299t-99 -300t-67 -328.5h-330q28 167 74 322t106.5 300.5t134 283.5t155.5 270h-666v258h998v-182z" />
    <glyph glyph-name="eight" unicode="8" horiz-adv-x="1178" 
d="M80 386q0 60 17.5 115.5t52.5 103t87.5 85t123.5 61.5q-109 54 -169 138.5t-60 187.5q0 82 34.5 152t95.5 121t145.5 79.5t184.5 28.5q102 0 187 -28.5t146.5 -79t95.5 -119.5t34 -150q0 -102 -64 -185.5t-177 -137.5q70 -24 123 -61.5t89 -85.5t54 -104.5t18 -117.5
q0 -92 -37 -167.5t-104.5 -130t-161 -84.5t-206.5 -30q-111 0 -204.5 29.5t-161 83.5t-105.5 129.5t-38 166.5zM379 413q0 -49 15 -88t43 -66t66.5 -41.5t86.5 -14.5q46 0 84.5 15t66.5 42t44 66t16 87q0 43 -15 82t-43 67.5t-66.5 45.5t-86.5 17q-45 0 -84 -15.5t-67 -44
t-44 -67.5t-16 -85zM423 1048q0 -38 13.5 -71.5t36.5 -58t54.5 -38.5t66.5 -14q36 0 67 14t54.5 39t37 58t13.5 71q0 39 -13 72.5t-36.5 58t-55 38.5t-67.5 14q-38 0 -69.5 -14.5t-54 -39t-35 -58t-12.5 -71.5z" />
    <glyph glyph-name="nine" unicode="9" horiz-adv-x="1178" 
d="M1087 786q0 -191 -42 -341.5t-122.5 -254.5t-196.5 -159.5t-263 -55.5q-176 0 -303 56v260q113 -74 272 -74q163 0 255 111t93 321l-6 2q-95 -141 -289 -141q-88 0 -162.5 33t-129 91.5t-85 139.5t-30.5 178q0 113 37 206t103.5 160t159.5 103.5t206 36.5
q117 0 210 -45.5t158.5 -131.5t100 -211t34.5 -284zM768 954q0 55 -14 103.5t-39 83.5t-61 55.5t-79 20.5q-41 0 -75.5 -18t-59.5 -49.5t-39 -75.5t-14 -95q0 -56 14 -99.5t39.5 -73.5t61.5 -45.5t80 -15.5q42 0 76 16.5t58.5 44.5t38 66t13.5 82z" />
    <glyph glyph-name="colon" unicode=":" horiz-adv-x="555" 
d="M274 707q-78 0 -130 47.5t-52 117.5q0 72 53.5 118t133.5 46q81 0 132.5 -46.5t51.5 -117.5q0 -73 -52.5 -119t-136.5 -46zM274 -25q-78 0 -130 48t-52 118q0 72 53.5 118t133.5 46q81 0 132.5 -46.5t51.5 -117.5q0 -73 -52.5 -119.5t-136.5 -46.5z" />
    <glyph glyph-name="semicolon" unicode=";" horiz-adv-x="555" 
d="M281 707q-79 0 -131 48t-52 117q0 73 52.5 118.5t132.5 45.5q81 0 132.5 -46.5t51.5 -117.5q0 -73 -51 -119t-135 -46zM432 252l-147 -506h-246l102 506h291z" />
    <glyph glyph-name="less" unicode="&#x3c;" horiz-adv-x="1448" 
d="M1192 63l-934 426v162l934 447v-238l-666 -285v-6l666 -268v-238z" />
    <glyph glyph-name="equal" unicode="=" horiz-adv-x="1448" 
d="M1212 700h-974v205h974v-205zM1212 266h-974v203h974v-203z" />
    <glyph glyph-name="greater" unicode="&#x3e;" horiz-adv-x="1448" 
d="M1192 502l-934 -426v237l668 267v4l-668 286v238l934 -444v-162z" />
    <glyph glyph-name="question" unicode="?" horiz-adv-x="897" 
d="M263 415q-10 26 -15.5 58.5t-5.5 61.5q0 46 9 84t27 71.5t45 64t63 60.5q38 32 66.5 59.5t48.5 55t30 57t10 65.5q0 31 -11 57.5t-31.5 45.5t-50 30t-65.5 11q-78 0 -162 -32.5t-159 -98.5v301q77 46 168 69t188 23q93 0 173 -20.5t139.5 -64.5t93 -112.5t33.5 -164.5
q0 -61 -14 -110.5t-41 -93.5t-67 -84.5t-92 -83.5q-35 -29 -61.5 -54t-44 -49.5t-26.5 -52t-9 -62.5q0 -24 6.5 -49t17.5 -42h-263zM409 -23q-80 0 -133 48q-53 50 -53 118q0 70 53 117t133 47q79 0 131 -47q52 -46 52 -117q0 -72 -51 -119q-52 -47 -132 -47z" />
    <glyph glyph-name="at" unicode="@" horiz-adv-x="1954" 
d="M1122 371h-6q-70 -191 -254 -191q-138 0 -222.5 100t-84.5 277q0 229 117 372.5t282 143.5q149 0 187 -117h4l10 99h225q-45 -426 -45 -557q0 -140 76 -140q80 0 132 106t52 277q0 234 -149 383.5t-416 149.5q-286 0 -475.5 -199.5t-189.5 -486.5q0 -278 167.5 -438
t462.5 -160q225 0 412 86v-191q-171 -73 -440 -73q-369 0 -600.5 211.5t-231.5 568.5q0 364 247 612t636 248q360 0 582.5 -192.5t222.5 -507.5q0 -259 -136 -415.5t-337 -156.5q-99 0 -161 53t-67 138zM989 899q-90 0 -146.5 -102.5t-56.5 -237.5q0 -96 38.5 -149.5
t99.5 -53.5q94 0 148 101t54 270q0 80 -37.5 126t-99.5 46z" />
    <glyph glyph-name="A" unicode="A" horiz-adv-x="1440" 
d="M1425 0h-352l-102 319h-510l-101 -319h-350l522 1434h383zM897 567l-154 482q-17 54 -24 129h-8q-5 -63 -25 -125l-156 -486h367z" />
    <glyph glyph-name="B" unicode="B" horiz-adv-x="1313" 
d="M164 0v1434h522q240 0 369 -88t129 -248q0 -116 -78.5 -203t-200.5 -121v-4q153 -19 244.5 -113t91.5 -229q0 -197 -141 -312.5t-385 -115.5h-551zM487 1196v-340h142q100 0 157.5 48.5t57.5 133.5q0 158 -236 158h-121zM487 616v-378h175q112 0 175.5 52t63.5 142
q0 86 -62.5 135t-174.5 49h-177z" />
    <glyph glyph-name="C" unicode="C" horiz-adv-x="1278" 
d="M1192 51q-157 -76 -410 -76q-330 0 -519 194t-189 517q0 344 212.5 558t551.5 214q210 0 354 -53v-311q-144 86 -328 86q-202 0 -326 -127t-124 -344q0 -208 117 -331.5t315 -123.5q189 0 346 92v-295z" />
    <glyph glyph-name="D" unicode="D" horiz-adv-x="1510" 
d="M164 0v1434h508q764 0 764 -699q0 -335 -208.5 -535t-555.5 -200h-508zM487 1171v-909h160q210 0 329.5 126t119.5 343q0 205 -118.5 322.5t-332.5 117.5h-158z" />
    <glyph glyph-name="E" unicode="E" horiz-adv-x="1090" 
d="M1024 0h-860v1434h827v-263h-504v-319h469v-262h-469v-328h537v-262z" />
    <glyph glyph-name="F" unicode="F" horiz-adv-x="1065" 
d="M993 1171h-506v-352h465v-262h-465v-557h-323v1434h829v-263z" />
    <glyph glyph-name="G" unicode="G" horiz-adv-x="1456" 
d="M1341 96q-210 -121 -522 -121q-346 0 -545.5 191.5t-199.5 527.5q0 338 218 551t580 213q228 0 402 -63v-303q-166 96 -406 96q-201 0 -327.5 -130.5t-126.5 -348.5q0 -221 113.5 -342t306.5 -121q116 0 184 33v280h-287v258h610v-721z" />
    <glyph glyph-name="H" unicode="H" horiz-adv-x="1569" 
d="M1405 0h-324v584h-594v-584h-323v1434h323v-572h594v572h324v-1434z" />
    <glyph glyph-name="I" unicode="I" horiz-adv-x="649" 
d="M487 0h-323v1434h323v-1434z" />
    <glyph glyph-name="J" unicode="J" horiz-adv-x="912" 
d="M762 569q0 -288 -133.5 -441t-386.5 -153q-113 0 -209 39v303q83 -63 186 -63q221 0 221 328v852h322v-865z" />
    <glyph glyph-name="K" unicode="K" horiz-adv-x="1329" 
d="M1356 0h-408l-418 623q-12 18 -38 79h-5v-702h-323v1434h323v-678h5q12 28 40 80l396 598h385l-500 -684z" />
    <glyph glyph-name="L" unicode="L" horiz-adv-x="1047" 
d="M1018 0h-854v1434h323v-1172h531v-262z" />
    <glyph glyph-name="M" unicode="M" horiz-adv-x="1960" 
d="M1798 0h-319v858q0 139 12 307h-8q-25 -132 -45 -190l-336 -975h-264l-342 965q-14 39 -45 200h-9q13 -212 13 -372v-793h-291v1434h473l293 -850q35 -102 51 -205h6q27 119 57 207l293 848h461v-1434z" />
    <glyph glyph-name="N" unicode="N" horiz-adv-x="1618" 
d="M1454 0h-326l-591 901q-52 79 -72 119h-4q8 -76 8 -232v-788h-305v1434h348l569 -873q39 -59 72 -117h4q-8 50 -8 197v793h305v-1434z" />
    <glyph glyph-name="O" unicode="O" horiz-adv-x="1553" 
d="M770 -25q-308 0 -502 200.5t-194 522.5q0 340 197 550t522 210q307 0 496.5 -201t189.5 -530q0 -338 -196.5 -545t-512.5 -207zM784 1180q-170 0 -270 -127.5t-100 -337.5q0 -213 100 -337t262 -124q167 0 265 120.5t98 334.5q0 223 -95 347t-260 124z" />
    <glyph glyph-name="P" unicode="P" horiz-adv-x="1258" 
d="M487 494v-494h-323v1434h506q542 0 542 -457q0 -216 -155.5 -349.5t-415.5 -133.5h-154zM487 1186v-447h127q258 0 258 226q0 221 -258 221h-127z" />
    <glyph glyph-name="Q" unicode="Q" horiz-adv-x="1553" 
d="M770 -25q-308 0 -502 200q-194 202 -194 523q0 339 197 550q196 210 522 210q307 0 496 -201q190 -200 190 -530q0 -337 -197 -545q-7 -7 -13 -13.5t-13 -12.5l363 -349h-452l-190 193q-94 -25 -207 -25zM784 1180q-169 0 -270 -128q-100 -127 -100 -337q0 -213 100 -337
t262 -124q167 0 265 120q98 122 98 335q0 222 -95 347q-94 124 -260 124z" />
    <glyph glyph-name="R" unicode="R" horiz-adv-x="1337" 
d="M1367 0h-371l-223 369q-25 42 -48 75t-46.5 56.5t-49 36t-55.5 12.5h-87v-549h-323v1434h512q522 0 522 -390q0 -75 -23 -138.5t-65 -114.5t-101.5 -88t-132.5 -58v-4q32 -10 62 -32.5t58 -52.5t53.5 -64.5t46.5 -67.5zM487 1192v-399h140q104 0 167 60q64 61 64 151
q0 188 -225 188h-146z" />
    <glyph glyph-name="S" unicode="S" horiz-adv-x="1148" 
d="M98 55v320q87 -73 189 -109.5t206 -36.5q61 0 106.5 11t76 30.5t45.5 46t15 57.5q0 42 -24 75t-65.5 61t-98.5 54t-123 53q-168 70 -250.5 171t-82.5 244q0 112 45 192.5t122.5 132.5t179.5 76.5t216 24.5q112 0 198.5 -13.5t159.5 -41.5v-299q-36 25 -78.5 44
t-87.5 31.5t-89.5 18.5t-84.5 6q-55 0 -100 -10.5t-76 -29.5t-48 -45.5t-17 -59.5q0 -36 19 -64.5t54 -54t85 -50t113 -50.5q86 -36 154.5 -76.5t117.5 -91.5t75 -116.5t26 -152.5q0 -120 -45.5 -201.5t-123.5 -132t-181.5 -72.5t-218.5 -22q-118 0 -224.5 20t-184.5 60z
" />
    <glyph glyph-name="T" unicode="T" horiz-adv-x="1200" 
d="M1171 1171h-409v-1171h-324v1171h-407v263h1140v-263z" />
    <glyph glyph-name="U" unicode="U" horiz-adv-x="1481" 
d="M1333 621q0 -646 -602 -646q-584 0 -584 631v828h324v-832q0 -348 272 -348q267 0 267 336v844h323v-813z" />
    <glyph glyph-name="V" unicode="V" horiz-adv-x="1366" 
d="M1358 1434l-494 -1434h-366l-488 1434h348l299 -998q24 -81 29 -143h6q7 67 31 147l297 994h338z" />
    <glyph glyph-name="W" unicode="W" horiz-adv-x="2058" 
d="M2040 1434l-379 -1434h-358l-238 920q-19 72 -23 161h-4q-9 -98 -26 -161l-244 -920h-373l-377 1434h353l202 -955q13 -61 19 -164h6q4 77 29 168l260 951h346l235 -963q13 -53 23 -154h4q4 79 21 160l198 957h326z" />
    <glyph glyph-name="X" unicode="X" horiz-adv-x="1342" 
d="M1335 0h-383l-247 467q-14 26 -29 96h-4q-7 -33 -33 -100l-248 -463h-385l457 717l-418 717h393l205 -430q24 -51 43 -121h4q12 42 45 125l228 426h360l-430 -711z" />
    <glyph glyph-name="Y" unicode="Y" horiz-adv-x="1243" 
d="M1245 1434l-467 -924v-510h-323v504l-455 930h369l231 -535q6 -15 33 -117h4q13 72 31 113l235 539h342z" />
    <glyph glyph-name="Z" unicode="Z" horiz-adv-x="1243" 
d="M1196 0h-1155v186l735 985h-682v263h1100v-181l-719 -991h721v-262z" />
    <glyph glyph-name="bracketleft" unicode="[" horiz-adv-x="756" 
d="M686 -326h-469v1760h469v-201h-209v-1358h209v-201z" />
    <glyph glyph-name="backslash" unicode="\" horiz-adv-x="893" 
d="M961 -238h-279l-682 1672h281z" />
    <glyph glyph-name="bracketright" unicode="]" horiz-adv-x="756" 
d="M541 -326h-471v201h211v1358h-211v201h471v-1760z" />
    <glyph glyph-name="asciicircum" unicode="^" horiz-adv-x="1448" 
d="M1249 610h-243l-287 586h-4l-271 -586h-241l430 848h162z" />
    <glyph glyph-name="underscore" unicode="_" horiz-adv-x="850" 
d="M850 -297h-850v119h850v-119z" />
    <glyph glyph-name="grave" unicode="`" horiz-adv-x="643" 
d="M596 1186h-227l-314 323h281z" />
    <glyph glyph-name="a" unicode="a" horiz-adv-x="1102" 
d="M985 0h-299v147h-4q-103 -172 -305 -172q-149 0 -234.5 84.5t-85.5 225.5q0 298 353 344l278 37q0 168 -182 168q-183 0 -348 -109v238q66 34 180.5 60t208.5 26q438 0 438 -437v-612zM688 416v69l-186 -24q-154 -20 -154 -139q0 -54 37.5 -88.5t101.5 -34.5
q89 0 145 61.5t56 155.5z" />
    <glyph glyph-name="b" unicode="b" horiz-adv-x="1270" 
d="M453 119h-4v-119h-316v1516h316v-646h4q117 179 333 179q198 0 305 -136t107 -372q0 -256 -125 -411t-334 -155q-189 0 -286 144zM444 551v-105q0 -99 57 -164t146 -65q108 0 167.5 83.5t59.5 236.5q0 127 -54.5 198.5t-155.5 71.5q-95 0 -157.5 -71t-62.5 -185z" />
    <glyph glyph-name="c" unicode="c" horiz-adv-x="983" 
d="M909 37q-107 -62 -309 -62q-236 0 -382 143t-146 369q0 261 156.5 411.5t418.5 150.5q181 0 262 -48v-268q-99 74 -221 74q-136 0 -215.5 -79.5t-79.5 -219.5q0 -136 76 -213.5t209 -77.5q118 0 231 74v-254z" />
    <glyph glyph-name="d" unicode="d" horiz-adv-x="1268" 
d="M1135 0h-316v141h-4q-108 -166 -317 -166q-192 0 -309 135.5t-117 378.5q0 254 129 407t338 153q198 0 276 -142h4v609h316v-1516zM825 498v77q0 100 -58 166t-151 66q-105 0 -164 -82.5t-59 -226.5q0 -135 57 -208t158 -73q96 0 156.5 77t60.5 204z" />
    <glyph glyph-name="e" unicode="e" horiz-adv-x="1108" 
d="M1053 422h-668q16 -223 281 -223q169 0 297 80v-228q-142 -76 -369 -76q-248 0 -385 137.5t-137 383.5q0 255 148 404t364 149q224 0 346.5 -133t122.5 -361v-133zM760 616q0 220 -178 220q-76 0 -131.5 -63t-67.5 -157h377z" />
    <glyph glyph-name="f" unicode="f" horiz-adv-x="785" 
d="M801 1274q-61 24 -117 24q-152 0 -152 -165v-109h234v-233h-234v-791h-315v791h-172v233h172v127q0 175 114 282t310 107q96 0 160 -20v-246z" />
    <glyph glyph-name="g" unicode="g" horiz-adv-x="1268" 
d="M1137 117q0 -285 -165 -441.5t-478 -156.5q-207 0 -328 59v266q158 -92 319 -92q160 0 248 84.5t88 229.5v81h-4q-108 -172 -319 -172q-196 0 -311 138t-115 370q0 260 128 413t337 153q187 0 280 -144h4v119h316v-907zM825 492v81q0 97 -57.5 165.5t-149.5 68.5
q-105 0 -165 -82t-60 -231q0 -128 57 -202.5t156 -74.5q98 0 158.5 75.5t60.5 199.5z" />
    <glyph glyph-name="h" unicode="h" horiz-adv-x="1233" 
d="M1116 0h-315v582q0 225 -164 225q-84 0 -136 -63t-52 -160v-584h-316v1516h316v-644h4q116 177 315 177q348 0 348 -420v-629z" />
    <glyph glyph-name="i" unicode="i" horiz-adv-x="582" 
d="M293 1186q-80 0 -131 47.5t-51 116.5q0 71 51 116t131 45q81 0 131.5 -45t50.5 -116q0 -72 -50.5 -118t-131.5 -46zM449 0h-316v1024h316v-1024z" />
    <glyph glyph-name="j" unicode="j" horiz-adv-x="582" 
d="M293 1186q-80 0 -131 47.5t-51 116.5q0 71 51 116t131 45q81 0 131.5 -45t50.5 -116q0 -72 -50.5 -118t-131.5 -46zM449 18q0 -227 -111 -363t-320 -136q-69 0 -151 30v248q66 -37 117 -37q149 0 149 234v1030h316v-1006z" />
    <glyph glyph-name="k" unicode="k" horiz-adv-x="1145" 
d="M1159 0h-379l-327 508h-4v-508h-316v1516h316v-965h4l305 473h375l-367 -481z" />
    <glyph glyph-name="l" unicode="l" horiz-adv-x="582" 
d="M449 0h-316v1516h316v-1516z" />
    <glyph glyph-name="m" unicode="m" horiz-adv-x="1876" 
d="M1759 0h-315v584q0 223 -164 223q-78 0 -127 -67t-49 -167v-573h-316v590q0 217 -161 217q-81 0 -129.5 -64t-48.5 -174v-569h-316v1024h316v-160h4q49 82 137.5 133.5t193.5 51.5q217 0 297 -191q117 191 344 191q334 0 334 -412v-637z" />
    <glyph glyph-name="n" unicode="n" horiz-adv-x="1239" 
d="M1122 0h-315v569q0 238 -170 238q-82 0 -135 -63t-53 -160v-584h-316v1024h316v-162h4q113 187 329 187q340 0 340 -422v-627z" />
    <glyph glyph-name="o" unicode="o" horiz-adv-x="1252" 
d="M621 -25q-256 0 -402.5 143.5t-146.5 389.5q0 254 152 397.5t411 143.5q255 0 400 -143.5t145 -379.5q0 -255 -149.5 -403t-409.5 -148zM629 807q-112 0 -174 -77t-62 -218q0 -295 238 -295q227 0 227 303q0 287 -229 287z" />
    <glyph glyph-name="p" unicode="p" horiz-adv-x="1270" 
d="M453 119h-4v-590h-316v1495h316v-154h4q117 179 329 179q199 0 307.5 -136.5t108.5 -371.5q0 -256 -126.5 -411t-336.5 -155q-185 0 -282 144zM444 539v-82q0 -106 56 -173t147 -67q108 0 167.5 83.5t59.5 236.5q0 270 -210 270q-97 0 -158.5 -73.5t-61.5 -194.5z" />
    <glyph glyph-name="q" unicode="q" horiz-adv-x="1268" 
d="M1135 -471h-316v612h-4q-107 -166 -315 -166q-193 0 -310.5 134.5t-117.5 377.5q0 256 129 409t336 153q188 0 278 -144h4v119h316v-1495zM825 489v82q0 100 -58 168t-149 68q-105 0 -165 -82.5t-60 -228.5q0 -131 58.5 -205t152.5 -74q100 0 160.5 75t60.5 197z" />
    <glyph glyph-name="r" unicode="r" horiz-adv-x="815" 
d="M801 739q-57 31 -133 31q-103 0 -161 -75.5t-58 -205.5v-489h-316v1024h316v-190h4q75 208 270 208q50 0 78 -12v-291z" />
    <glyph glyph-name="s" unicode="s" horiz-adv-x="901" 
d="M66 27v256q78 -47 155.5 -70t146.5 -23q84 0 132.5 23t48.5 70q0 30 -22 50t-56.5 35t-75.5 27t-79 27q-61 23 -107.5 49.5t-78 61.5t-48 81t-16.5 109q0 86 37.5 148t100 101.5t143 58t167.5 18.5q68 0 138 -10.5t138 -30.5v-244q-60 35 -128.5 52.5t-134.5 17.5
q-31 0 -58.5 -5.5t-48.5 -16t-33 -27t-12 -37.5q0 -28 18 -48t47 -34.5t64.5 -26t70.5 -23.5q63 -22 114 -48t87.5 -61t56 -82t19.5 -112q0 -91 -39.5 -155.5t-105 -105t-151 -59t-177.5 -18.5q-169 0 -313 52z" />
    <glyph glyph-name="t" unicode="t" horiz-adv-x="797" 
d="M752 12q-70 -37 -211 -37q-334 0 -334 347v469h-166v233h166v221l315 90v-311h230v-233h-230v-414q0 -160 127 -160q50 0 103 29v-234z" />
    <glyph glyph-name="u" unicode="u" horiz-adv-x="1239" 
d="M1106 0h-315v156h-5q-117 -181 -313 -181q-356 0 -356 431v618h315v-590q0 -217 172 -217q85 0 136 59.5t51 161.5v586h315v-1024z" />
    <glyph glyph-name="v" unicode="v" horiz-adv-x="1110" 
d="M1108 1024l-381 -1024h-360l-363 1024h338l178 -631q30 -107 35 -182h4q7 71 37 176l182 637h330z" />
    <glyph glyph-name="w" unicode="w" horiz-adv-x="1633" 
d="M1616 1024l-295 -1024h-332l-151 600q-15 60 -17 131h-6q-7 -78 -20 -127l-162 -604h-328l-289 1024h322l141 -668q10 -47 15 -114h6q5 70 18 118l176 664h301l158 -668q6 -25 14 -116h7q5 58 16 116l133 668h293z" />
    <glyph glyph-name="x" unicode="x" horiz-adv-x="1131" 
d="M1122 1024l-338 -496l336 -528h-364l-148 276q-18 33 -43 93h-4q-15 -42 -41 -90l-149 -279h-363l346 510l-325 514h366l146 -287q29 -57 41 -96h4q16 47 43 98l149 285h344z" />
    <glyph glyph-name="y" unicode="y" horiz-adv-x="1102" 
d="M1108 1024l-416 -1106q-150 -399 -452 -399q-115 0 -189 26v252q63 -37 137 -37q122 0 170 115l54 127l-416 1022h350l191 -623q18 -58 28 -137h4q9 58 33 135l193 625h313z" />
    <glyph glyph-name="z" unicode="z" horiz-adv-x="981" 
d="M944 0h-919v131l514 660h-463v233h864v-156l-487 -635h491v-233z" />
    <glyph glyph-name="braceleft" unicode="{" horiz-adv-x="756" 
d="M674 -326q-218 0 -317 80t-99 285v240q0 184 -152 184v184q152 0 152 191v223q0 206 98 289.5t318 83.5v-187q-160 0 -160 -174v-213q0 -240 -154 -303v-4q154 -62 154 -307v-205q0 -98 37.5 -139t122.5 -41v-187z" />
    <glyph glyph-name="bar" unicode="|" horiz-adv-x="668" 
d="M461 -481h-252v2048h252v-2048z" />
    <glyph glyph-name="braceright" unicode="}" horiz-adv-x="756" 
d="M651 463q-153 0 -153 -187v-231q0 -211 -97.5 -291t-316.5 -80v187q84 0 122 40.5t38 137.5v213q0 239 153 299v4q-153 63 -153 313v205q0 174 -160 174v187q218 0 316 -83.5t98 -285.5v-229q0 -189 153 -189v-184z" />
    <glyph glyph-name="asciitilde" unicode="~" horiz-adv-x="1448" 
d="M1255 772q-6 -168 -89.5 -266t-223.5 -98q-106 0 -258 88q-109 63 -156 63q-123 0 -129 -160h-204q6 169 89.5 267t227.5 98q112 0 238 -76q130 -78 180 -78q52 0 85.5 44.5t35.5 117.5h204z" />
    <glyph glyph-name="exclamdown" unicode="&#xa1;" horiz-adv-x="670" 
d="M336 721q-81 0 -132.5 46t-51.5 116q0 72 51.5 119t132.5 47q79 0 130.5 -48t51.5 -118q0 -72 -51.5 -117t-130.5 -45zM504 -408h-332l37 990h256z" />
    <glyph glyph-name="cent" unicode="&#xa2;" horiz-adv-x="1178" 
d="M1004 207q-73 -42 -181 -55v-189h-161v184q-216 12 -354 151.5t-138 358.5q0 234 134 381.5t358 171.5v211h161v-207q110 -6 181 -45v-272q-76 58 -181 70v-574q108 17 181 68v-254zM662 399v559q-195 -59 -195 -280q0 -222 195 -279z" />
    <glyph glyph-name="sterling" unicode="&#xa3;" horiz-adv-x="1178" 
d="M1114 0h-971v227q193 52 193 269v116h-172v217h172v187q0 198 122 320t330 122q127 0 234 -49v-258q-98 66 -209 66q-184 0 -184 -230v-158h268v-217h-268v-86q0 -184 -152 -284h637v-242z" />
    <glyph glyph-name="currency" unicode="&#xa4;" horiz-adv-x="1139" 
d="M1087 358l-141 -145l-143 141q-105 -65 -234 -65q-127 0 -233 65l-143 -141l-142 145l142 138q-66 110 -66 229q0 121 66 229l-142 140l142 145l143 -141q106 65 233 65q129 0 234 -65l143 141l141 -145l-141 -140q68 -111 68 -229q0 -115 -68 -229zM569 965
q-100 0 -169.5 -69.5t-69.5 -168.5t69.5 -168.5t169.5 -69.5t171 69.5t71 168.5q0 98 -73 168t-169 70z" />
    <glyph glyph-name="yen" unicode="&#xa5;" horiz-adv-x="1178" 
d="M1157 1434l-354 -641h252v-189h-305v-153h305v-189h-305v-262h-308v262h-315v189h315v153h-315v189h256l-342 641h321l246 -570h4q4 11 37 90l203 480h305z" />
    <glyph glyph-name="brokenbar" unicode="&#xa6;" horiz-adv-x="668" 
d="M461 684h-252v883h252v-883zM461 -481h-252v895h252v-895z" />
    <glyph glyph-name="section" unicode="&#xa7;" horiz-adv-x="994" 
d="M752 434q82 -75 82 -174q0 -149 -108.5 -237.5t-285.5 -88.5q-163 0 -290 68v248q180 -105 311 -105q127 0 127 99q0 61 -96 108q-141 65 -210 112.5t-110 116.5t-41 150q0 143 125 234q-88 88 -88 215q0 140 102.5 225.5t274.5 85.5q139 0 260 -55v-250q-139 96 -260 96
q-123 0 -123 -94q0 -45 40.5 -77.5t184.5 -96.5q254 -112 254 -309q0 -167 -149 -271zM432 864q-65 -38 -65 -110q0 -57 51 -102t178 -99q66 44 66 123q0 62 -53.5 100.5t-176.5 87.5z" />
    <glyph glyph-name="dieresis" unicode="&#xa8;" horiz-adv-x="946" 
d="M698 1186q-67 0 -110 39t-43 98q0 61 43 99t110 38t110.5 -38.5t43.5 -98.5t-43 -98.5t-111 -38.5zM240 1186q-68 0 -111 39.5t-43 97.5q0 60 44 98.5t110 38.5q68 0 110.5 -38.5t42.5 -98.5q0 -61 -42.5 -99t-110.5 -38z" />
    <glyph glyph-name="copyright" unicode="&#xa9;" horiz-adv-x="1790" 
d="M893 -25q-333 0 -547.5 207t-214.5 531q0 317 220.5 531t549.5 214q328 0 544 -208.5t216 -532.5q0 -317 -221.5 -529.5t-546.5 -212.5zM897 1346q-275 0 -454 -180t-179 -449q0 -272 181.5 -450.5t451.5 -178.5q265 0 448 179.5t183 447.5q0 272 -180 451.5t-451 179.5z
M1204 295q-125 -68 -274 -68q-209 0 -346.5 134t-137.5 335q0 231 143.5 370.5t373.5 139.5q125 0 239 -55v-236q-98 76 -244 76q-115 0 -192.5 -76.5t-77.5 -205.5q0 -122 78.5 -197.5t198.5 -75.5q141 0 239 76v-217z" />
    <glyph glyph-name="ordfeminine" unicode="&#xaa;" horiz-adv-x="840" 
d="M739 717h-213v86h-4q-87 -107 -219 -107q-101 0 -166 61t-65 158q0 211 262 244l192 25q0 114 -139 114q-118 0 -246 -77v176q124 57 287 57q311 0 311 -299v-438zM526 985v70l-123 -17q-116 -16 -116 -96q0 -88 104 -88q54 0 94.5 38.5t40.5 92.5z" />
    <glyph glyph-name="guillemotleft" unicode="&#xab;" horiz-adv-x="1190" 
d="M1137 201h-269l-327 336l327 344h269l-334 -344zM651 201h-268l-330 336l330 344h266l-334 -344z" />
    <glyph glyph-name="logicalnot" unicode="&#xac;" horiz-adv-x="1448" 
d="M1212 266h-202v389h-772v203h974v-592z" />
    <glyph glyph-name="registered" unicode="&#xae;" horiz-adv-x="1790" 
d="M892 255q-266 0 -437.5 172t-171.5 431q0 254 176.5 425t439.5 171q262 0 435 -166.5t167 -429.5q0 -254 -174.5 -428.5t-434.5 -174.5zM893 1344q-214 0 -353.5 -139.5t-139.5 -349.5q0 -212 141.5 -351t351.5 -139q207 0 349 140t142 349q0 212 -140 351t-351 139z
M1208 499h-208l-61 186q-32 97 -88 97h-48v-283h-175v738h256q296 0 296 -210q0 -151 -173 -195v-3q72 -16 113 -117zM803 1093v-178h78q111 0 111 92q0 86 -128 86h-61z" />
    <glyph glyph-name="macron" unicode="&#xaf;" horiz-adv-x="690" 
d="M637 1186h-586v172h586v-172z" />
    <glyph glyph-name="degree" unicode="&#xb0;" horiz-adv-x="778" 
d="M399 895q-119 0 -201.5 82.5t-82.5 200.5t82.5 199t201.5 81q118 0 201.5 -81t83.5 -199t-83.5 -200.5t-201.5 -82.5zM399 1307q-54 0 -91.5 -37.5t-37.5 -91.5t37.5 -92.5t91.5 -38.5q53 0 91 38.5t38 92.5t-37.5 91.5t-91.5 37.5z" />
    <glyph glyph-name="plusminus" unicode="&#xb1;" horiz-adv-x="1448" 
d="M1212 694h-385v-387h-202v387h-383v203h383v391h202v-391h385v-203zM1210 0h-972v203h972v-203z" />
    <glyph glyph-name="uni00B2" unicode="&#xb2;" horiz-adv-x="828" 
d="M721 884h-604v157l248 234q77 73 95.5 110t18.5 82q0 42 -28.5 69.5t-75.5 27.5q-98 0 -211 -103v215q118 78 250 78q136 0 215.5 -68.5t79.5 -189.5q0 -70 -37.5 -141t-179.5 -197l-105 -92v-4h334v-178z" />
    <glyph glyph-name="uni00B3" unicode="&#xb3;" horiz-adv-x="828" 
d="M131 916v181q107 -68 221 -68q150 0 150 102q0 103 -172 103h-117v166h113q149 0 149 96q0 90 -119 90q-107 0 -198 -65v176q99 57 239 57q134 0 211.5 -60.5t77.5 -160.5q0 -147 -143 -195v-4q172 -41 172 -198q0 -123 -98 -198t-257 -75q-133 0 -229 53z" />
    <glyph glyph-name="acute" unicode="&#xb4;" horiz-adv-x="621" 
d="M596 1509l-313 -323h-228l260 323h281z" />
    <glyph glyph-name="uni03BC" unicode="&#x3bc;" horiz-adv-x="1255" 
d="M1161 0h-324q-25 70 -25 154h-4q-57 -177 -216 -177q-97 0 -140 64h-3v-436h-316v1419h316v-589q0 -207 170 -207q184 0 184 254v542h319v-710q0 -236 39 -314z" />
    <glyph glyph-name="uni03BC" unicode="&#xb5;" horiz-adv-x="1255" 
d="M1161 0h-324q-25 70 -25 154h-4q-57 -177 -216 -177q-97 0 -140 64h-3v-436h-316v1419h316v-589q0 -207 170 -207q184 0 184 254v542h319v-710q0 -236 39 -314z" />
    <glyph glyph-name="paragraph" unicode="&#xb6;" horiz-adv-x="1043" 
d="M946 1272h-117v-1272h-174v1272h-118v-1272h-177v836q-115 7 -191.5 92t-76.5 211q0 129 85.5 212t211.5 83h557v-162z" />
    <glyph glyph-name="uni2219" unicode="&#x2219;" horiz-adv-x="555" 
d="M274 487q-78 0 -130 48t-52 118q0 72 53.5 118t133.5 46q81 0 132.5 -46.5t51.5 -117.5q0 -73 -52.5 -119.5t-136.5 -46.5z" />
    <glyph glyph-name="uni2219" unicode="&#xb7;" horiz-adv-x="555" 
d="M274 487q-78 0 -130 48t-52 118q0 72 53.5 118t133.5 46q81 0 132.5 -46.5t51.5 -117.5q0 -73 -52.5 -119.5t-136.5 -46.5z" />
    <glyph glyph-name="cedilla" unicode="&#xb8;" horiz-adv-x="441" 
d="M51 -451v138q35 -6 72 -6q123 0 123 73q0 66 -111 66q-13 0 -37 -2v182h172v-82q187 -8 187 -166q0 -207 -318 -207q-46 0 -88 4z" />
    <glyph glyph-name="uni00B9" unicode="&#xb9;" horiz-adv-x="807" 
d="M721 884h-563v172h176v477l-191 -41v180l406 82v-698h172v-172z" />
    <glyph glyph-name="ordmasculine" unicode="&#xba;" horiz-adv-x="934" 
d="M459 696q-185 0 -287 99.5t-102 277.5q0 179 108.5 280t292.5 101q181 0 284 -101.5t103 -265.5q0 -184 -106.5 -287.5t-292.5 -103.5zM465 1280q-164 0 -164 -203q0 -207 164 -207q160 0 160 209q0 201 -160 201z" />
    <glyph glyph-name="guillemotright" unicode="&#xbb;" horiz-adv-x="1190" 
d="M1137 537l-328 -336h-268l333 336l-331 344h266zM651 537l-329 -336h-269l336 336l-334 344h267z" />
    <glyph glyph-name="onequarter" unicode="&#xbc;" horiz-adv-x="1950" 
d="M676 584h-563v172h176v477l-191 -41v180l406 82v-698h172v-172zM1845 176h-110v-176h-213v176h-395v141l350 533h258v-519h110v-155zM1526 678h-8q-14 -36 -39 -76l-168 -271h211v263q0 47 4 84zM1505 1434l-891 -1434h-244l891 1434h244z" />
    <glyph glyph-name="onehalf" unicode="&#xbd;" horiz-adv-x="1977" 
d="M676 584h-563v172h176v477l-191 -41v180l406 82v-698h172v-172zM1843 0h-604v157l248 234q77 73 95.5 110t18.5 82q0 42 -28.5 69.5t-75.5 27.5q-98 0 -211 -103v215q118 78 250 78q136 0 215.5 -68.5t79.5 -189.5q0 -70 -37.5 -141t-179.5 -197l-105 -92v-4h334v-178z
M1506 1434l-891 -1434h-244l891 1434h244z" />
    <glyph glyph-name="threequarters" unicode="&#xbe;" horiz-adv-x="2005" 
d="M131 616v181q107 -68 221 -68q150 0 150 102q0 103 -172 103h-117v166h113q149 0 149 96q0 90 -119 90q-107 0 -198 -65v176q99 57 239 57q134 0 211.5 -60.5t77.5 -160.5q0 -147 -143 -195v-4q172 -41 172 -198q0 -123 -98 -198t-257 -75q-133 0 -229 53zM1892 176h-110
v-176h-213v176h-395v141l350 533h258v-519h110v-155zM1573 678h-8q-14 -36 -39 -76l-168 -271h211v263q0 47 4 84zM1565 1434l-891 -1434h-244l891 1434h244z" />
    <glyph glyph-name="questiondown" unicode="&#xbf;" horiz-adv-x="897" 
d="M647 611q10 -26 15.5 -58.5t5.5 -61.5q0 -46 -9 -84t-27 -71.5t-45 -64t-63 -60.5q-37 -32 -66 -59.5t-49 -55t-30 -57t-10 -65.5q0 -31 11 -57.5t31.5 -45.5t50 -30t65.5 -11q78 0 162 32.5t159 98.5v-301q-77 -46 -168 -69t-188 -23q-93 0 -173 20.5t-139.5 64.5
t-93 112.5t-33.5 164.5q0 61 14 110.5t41 93.5t67 84.5t92 83.5q35 29 61.5 54t44 49.5t26.5 52t9 62.5q0 24 -6.5 49t-17.5 42h263zM501 1049q81 0 133 -48q53 -50 53 -118q0 -70 -53 -117t-133 -47q-79 0 -131 47q-52 46 -52 117q0 73 51 119q52 47 132 47z" />
    <glyph glyph-name="Agrave" unicode="&#xc0;" horiz-adv-x="1440" 
d="M1425 0h-352l-102 319h-510l-101 -319h-350l522 1434h383zM897 567l-154 482q-17 54 -24 129h-8q-5 -63 -25 -125l-156 -486h367zM916 1567h-227l-314 323h281z" />
    <glyph glyph-name="Aacute" unicode="&#xc1;" horiz-adv-x="1440" 
d="M1425 0h-352l-102 319h-510l-101 -319h-350l522 1434h383zM897 567l-154 482q-17 54 -24 129h-8q-5 -63 -25 -125l-156 -486h367zM1036 1890l-313 -323h-228l260 323h281z" />
    <glyph glyph-name="Acircumflex" unicode="&#xc2;" horiz-adv-x="1440" 
d="M1425 0h-352l-102 319h-510l-101 -319h-350l522 1434h383zM897 567l-154 482q-17 54 -24 129h-8q-5 -63 -25 -125l-156 -486h367zM1078 1567h-207l-158 188l-147 -188h-207l235 325h248z" />
    <glyph glyph-name="Atilde" unicode="&#xc3;" horiz-adv-x="1440" 
d="M1425 0h-352l-102 319h-510l-101 -319h-350l522 1434h383zM897 567l-154 482q-17 54 -24 129h-8q-5 -63 -25 -125l-156 -486h367zM1077 1878q0 -140 -55.5 -216.5t-151.5 -76.5q-86 0 -168 43q-89 47 -123 47q-80 0 -80 -108h-141q0 139 55 216t154 77q81 0 168 -49
q79 -44 120 -44q78 0 78 111h144z" />
    <glyph glyph-name="Adieresis" unicode="&#xc4;" horiz-adv-x="1440" 
d="M1425 0h-352l-102 319h-510l-101 -319h-350l522 1434h383zM897 567l-154 482q-17 54 -24 129h-8q-5 -63 -25 -125l-156 -486h367zM945 1567q-67 0 -110 39t-43 98q0 61 43 99t110 38t110.5 -38.5t43.5 -98.5t-43 -98.5t-111 -38.5zM487 1567q-68 0 -111 39.5t-43 97.5
q0 60 44 98.5t110 38.5q68 0 110.5 -38.5t42.5 -98.5q0 -61 -42.5 -99t-110.5 -38z" />
    <glyph glyph-name="Aring" unicode="&#xc5;" horiz-adv-x="1440" 
d="M1425 0h-352l-102 319h-510l-101 -319h-350l512 1407q-53 54 -53 137q0 106 73.5 169t180.5 63q114 0 184 -63.5t70 -164.5q0 -80 -53 -137zM719 1645q-47 0 -75 -28.5t-28 -70.5q0 -98 103 -98q48 0 77 28.5t29 69.5q0 43 -29.5 71t-76.5 28zM893 584l-152 465
q-13 40 -22 120h-8q-7 -68 -23 -116l-153 -469h358z" />
    <glyph glyph-name="AE" unicode="&#xc6;" horiz-adv-x="1915" 
d="M1849 0h-858v319h-471l-147 -319h-375l725 1434h1094v-263h-504v-319h469v-262h-469v-328h536v-262zM991 567v604h-78l-282 -604h360z" />
    <glyph glyph-name="Ccedilla" unicode="&#xc7;" horiz-adv-x="1278" 
d="M1192 51q-157 -76 -410 -76q-330 0 -519 194t-189 517q0 344 212.5 558t551.5 214q210 0 354 -53v-311q-144 86 -328 86q-202 0 -326 -127t-124 -344q0 -208 117 -331.5t315 -123.5q189 0 346 92v-295zM610 -451v138q35 -6 72 -6q123 0 123 73q0 66 -111 66q-13 0 -37 -2
v182h172v-82q187 -8 187 -166q0 -207 -318 -207q-46 0 -88 4z" />
    <glyph glyph-name="Egrave" unicode="&#xc8;" horiz-adv-x="1090" 
d="M1024 0h-860v1434h827v-263h-504v-319h469v-262h-469v-328h537v-262zM766 1567h-227l-314 323h281z" />
    <glyph glyph-name="Eacute" unicode="&#xc9;" horiz-adv-x="1090" 
d="M1024 0h-860v1434h827v-263h-504v-319h469v-262h-469v-328h537v-262zM934 1890l-313 -323h-228l260 323h281z" />
    <glyph glyph-name="Ecircumflex" unicode="&#xca;" horiz-adv-x="1090" 
d="M1024 0h-860v1434h827v-263h-504v-319h469v-262h-469v-328h537v-262zM932 1567h-207l-158 188l-147 -188h-207l235 325h248z" />
    <glyph glyph-name="Edieresis" unicode="&#xcb;" horiz-adv-x="1090" 
d="M1024 0h-860v1434h827v-263h-504v-319h469v-262h-469v-328h537v-262zM812 1567q-67 0 -110 39t-43 98q0 61 43 99t110 38t110.5 -38.5t43.5 -98.5t-43 -98.5t-111 -38.5zM354 1567q-68 0 -111 39.5t-43 97.5q0 60 44 98.5t110 38.5q68 0 110.5 -38.5t42.5 -98.5
q0 -61 -42.5 -99t-110.5 -38z" />
    <glyph glyph-name="Igrave" unicode="&#xcc;" horiz-adv-x="649" 
d="M487 0h-323v1434h323v-1434zM535 1567h-227l-314 323h281z" />
    <glyph glyph-name="Iacute" unicode="&#xcd;" horiz-adv-x="649" 
d="M487 0h-323v1434h323v-1434zM651 1890l-313 -323h-228l260 323h281z" />
    <glyph glyph-name="Icircumflex" unicode="&#xce;" horiz-adv-x="649" 
d="M487 0h-323v1434h323v-1434zM694 1567h-207l-158 188l-147 -188h-207l235 325h248z" />
    <glyph glyph-name="Idieresis" unicode="&#xcf;" horiz-adv-x="649" 
d="M487 0h-323v1434h323v-1434zM562 1567q-67 0 -110 39t-43 98q0 61 43 99t110 38t110.5 -38.5t43.5 -98.5t-43 -98.5t-111 -38.5zM104 1567q-68 0 -111 39.5t-43 97.5q0 60 44 98.5t110 38.5q68 0 110.5 -38.5t42.5 -98.5q0 -61 -42.5 -99t-110.5 -38z" />
    <glyph glyph-name="Eth" unicode="&#xd0;" horiz-adv-x="1510" 
d="M164 0v586h-164v266h164v582h508q764 0 764 -699q0 -335 -208.5 -535t-555.5 -200h-508zM487 1171v-319h271v-266h-271v-324h160q210 0 329.5 126t119.5 343q0 205 -118.5 322.5t-332.5 117.5h-158z" />
    <glyph glyph-name="Ntilde" unicode="&#xd1;" horiz-adv-x="1618" 
d="M1454 0h-326l-591 901q-52 79 -72 119h-4q8 -76 8 -232v-788h-305v1434h348l569 -873q39 -59 72 -117h4q-8 50 -8 197v793h305v-1434zM1206 1878q0 -140 -55.5 -216.5t-151.5 -76.5q-86 0 -168 43q-89 47 -123 47q-80 0 -80 -108h-141q0 139 55 216t154 77q81 0 168 -49
q79 -44 120 -44q78 0 78 111h144z" />
    <glyph glyph-name="Ograve" unicode="&#xd2;" horiz-adv-x="1552" 
d="M770 -25q-308 0 -502 200.5t-194 522.5q0 340 197 550t522 210q307 0 496.5 -201t189.5 -530q0 -338 -196.5 -545t-512.5 -207zM784 1180q-170 0 -270 -127.5t-100 -337.5q0 -213 100 -337t262 -124q167 0 265 120.5t98 334.5q0 223 -95 347t-260 124zM971 1567h-227
l-314 323h281z" />
    <glyph glyph-name="Oacute" unicode="&#xd3;" horiz-adv-x="1552" 
d="M770 -25q-308 0 -502 200.5t-194 522.5q0 340 197 550t522 210q307 0 496.5 -201t189.5 -530q0 -338 -196.5 -545t-512.5 -207zM784 1180q-170 0 -270 -127.5t-100 -337.5q0 -213 100 -337t262 -124q167 0 265 120.5t98 334.5q0 223 -95 347t-260 124zM1110 1890
l-313 -323h-228l260 323h281z" />
    <glyph glyph-name="Ocircumflex" unicode="&#xd4;" horiz-adv-x="1552" 
d="M770 -25q-308 0 -502 200.5t-194 522.5q0 340 197 550t522 210q307 0 496.5 -201t189.5 -530q0 -338 -196.5 -545t-512.5 -207zM784 1180q-170 0 -270 -127.5t-100 -337.5q0 -213 100 -337t262 -124q167 0 265 120.5t98 334.5q0 223 -95 347t-260 124zM1149 1567h-207
l-158 188l-147 -188h-207l235 325h248z" />
    <glyph glyph-name="Otilde" unicode="&#xd5;" horiz-adv-x="1552" 
d="M770 -25q-308 0 -502 200.5t-194 522.5q0 340 197 550t522 210q307 0 496.5 -201t189.5 -530q0 -338 -196.5 -545t-512.5 -207zM784 1180q-170 0 -270 -127.5t-100 -337.5q0 -213 100 -337t262 -124q167 0 265 120.5t98 334.5q0 223 -95 347t-260 124zM1147 1878
q0 -140 -55.5 -216.5t-151.5 -76.5q-86 0 -168 43q-89 47 -123 47q-80 0 -80 -108h-141q0 139 55 216t154 77q81 0 168 -49q79 -44 120 -44q78 0 78 111h144z" />
    <glyph glyph-name="Odieresis" unicode="&#xd6;" horiz-adv-x="1552" 
d="M770 -25q-308 0 -502 200.5t-194 522.5q0 340 197 550t522 210q307 0 496.5 -201t189.5 -530q0 -338 -196.5 -545t-512.5 -207zM784 1180q-170 0 -270 -127.5t-100 -337.5q0 -213 100 -337t262 -124q167 0 265 120.5t98 334.5q0 223 -95 347t-260 124zM1004 1567
q-67 0 -110 39t-43 98q0 61 43 99t110 38t110.5 -38.5t43.5 -98.5t-43 -98.5t-111 -38.5zM546 1567q-68 0 -111 39.5t-43 97.5q0 60 44 98.5t110 38.5q68 0 110.5 -38.5t42.5 -98.5q0 -61 -42.5 -99t-110.5 -38z" />
    <glyph glyph-name="multiply" unicode="&#xd7;" horiz-adv-x="1448" 
d="M1210 248l-145 -144l-338 340l-340 -340l-145 146l340 336l-340 340l141 145l344 -340l342 340l139 -151l-338 -334z" />
    <glyph glyph-name="Oslash" unicode="&#xd8;" horiz-adv-x="1553" 
d="M348 109l-143 -170l-125 104l149 176q-155 192 -155 479q0 340 196.5 550t522.5 210q234 0 401 -119l129 150l125 -103l-135 -157q166 -196 166 -502q0 -338 -196.5 -545t-512.5 -207q-240 0 -422 134zM1016 1130q-97 76 -232 76q-181 0 -287 -136.5t-106 -360.5
q0 -146 47 -252zM1110 995l-578 -676q101 -92 244 -92q175 0 281 128.5t106 351.5q0 164 -53 288z" />
    <glyph glyph-name="Ugrave" unicode="&#xd9;" horiz-adv-x="1481" 
d="M1333 621q0 -646 -602 -646q-584 0 -584 631v828h324v-832q0 -348 272 -348q267 0 267 336v844h323v-813zM920 1567h-227l-314 323h281z" />
    <glyph glyph-name="Uacute" unicode="&#xda;" horiz-adv-x="1481" 
d="M1333 621q0 -646 -602 -646q-584 0 -584 631v828h324v-832q0 -348 272 -348q267 0 267 336v844h323v-813zM1088 1890l-313 -323h-228l260 323h281z" />
    <glyph glyph-name="Ucircumflex" unicode="&#xdb;" horiz-adv-x="1481" 
d="M1333 621q0 -646 -602 -646q-584 0 -584 631v828h324v-832q0 -348 272 -348q267 0 267 336v844h323v-813zM1099 1567h-207l-158 188l-147 -188h-207l235 325h248z" />
    <glyph glyph-name="Udieresis" unicode="&#xdc;" horiz-adv-x="1481" 
d="M1333 621q0 -646 -602 -646q-584 0 -584 631v828h324v-832q0 -348 272 -348q267 0 267 336v844h323v-813zM969 1567q-67 0 -110 39t-43 98q0 61 43 99t110 38t110.5 -38.5t43.5 -98.5t-43 -98.5t-111 -38.5zM511 1567q-68 0 -111 39.5t-43 97.5q0 60 44 98.5t110 38.5
q68 0 110.5 -38.5t42.5 -98.5q0 -61 -42.5 -99t-110.5 -38z" />
    <glyph glyph-name="Yacute" unicode="&#xdd;" horiz-adv-x="1243" 
d="M1245 1434l-467 -924v-510h-323v504l-455 930h369l231 -535q6 -15 33 -117h4q13 72 31 113l235 539h342zM903 1857l-313 -323h-228l260 323h281z" />
    <glyph glyph-name="Thorn" unicode="&#xde;" horiz-adv-x="1258" 
d="M487 281v-281h-323v1434h323v-211h183q542 0 542 -457q0 -216 -155.5 -350.5t-415.5 -134.5h-154zM487 975v-447h127q258 0 258 226q0 221 -258 221h-127z" />
    <glyph glyph-name="germandbls" unicode="&#xdf;" horiz-adv-x="1286" 
d="M545 8v262q83 -53 176 -53q83 0 132.5 52.5t49.5 144.5q0 116 -89 183.5t-251 72.5v221q111 8 172.5 68t61.5 159q0 84 -44.5 132t-119.5 48q-184 0 -184 -245v-1053h-316v1049q0 223 137 357t381 134q217 0 343 -109.5t126 -281.5q0 -122 -71.5 -214t-184.5 -126v-4
q363 -69 363 -399q0 -180 -126.5 -305.5t-342.5 -125.5q-105 0 -213 33z" />
    <glyph glyph-name="agrave" unicode="&#xe0;" horiz-adv-x="1102" 
d="M985 0h-299v147h-4q-103 -172 -305 -172q-149 0 -234.5 84.5t-85.5 225.5q0 298 353 344l278 37q0 168 -182 168q-183 0 -348 -109v238q66 34 180.5 60t208.5 26q438 0 438 -437v-612zM688 416v69l-186 -24q-154 -20 -154 -139q0 -54 37.5 -88.5t101.5 -34.5
q89 0 145 61.5t56 155.5zM775 1186h-227l-314 323h281z" />
    <glyph glyph-name="aacute" unicode="&#xe1;" horiz-adv-x="1102" 
d="M985 0h-299v147h-4q-103 -172 -305 -172q-149 0 -234.5 84.5t-85.5 225.5q0 298 353 344l278 37q0 168 -182 168q-183 0 -348 -109v238q66 34 180.5 60t208.5 26q438 0 438 -437v-612zM688 416v69l-186 -24q-154 -20 -154 -139q0 -54 37.5 -88.5t101.5 -34.5
q89 0 145 61.5t56 155.5zM891 1509l-313 -323h-228l260 323h281z" />
    <glyph glyph-name="acircumflex" unicode="&#xe2;" horiz-adv-x="1102" 
d="M985 0h-299v147h-4q-103 -172 -305 -172q-149 0 -234.5 84.5t-85.5 225.5q0 298 353 344l278 37q0 168 -182 168q-183 0 -348 -109v238q66 34 180.5 60t208.5 26q438 0 438 -437v-612zM688 416v69l-186 -24q-154 -20 -154 -139q0 -54 37.5 -88.5t101.5 -34.5
q89 0 145 61.5t56 155.5zM914 1186h-207l-158 188l-147 -188h-207l235 325h248z" />
    <glyph glyph-name="atilde" unicode="&#xe3;" horiz-adv-x="1102" 
d="M985 0h-299v147h-4q-103 -172 -305 -172q-149 0 -234.5 84.5t-85.5 225.5q0 298 353 344l278 37q0 168 -182 168q-183 0 -348 -109v238q66 34 180.5 60t208.5 26q438 0 438 -437v-612zM688 416v69l-186 -24q-154 -20 -154 -139q0 -54 37.5 -88.5t101.5 -34.5
q89 0 145 61.5t56 155.5zM907 1497q0 -140 -55.5 -216.5t-151.5 -76.5q-86 0 -168 43q-89 47 -123 47q-80 0 -80 -108h-141q0 139 55 216t154 77q81 0 168 -49q79 -44 120 -44q78 0 78 111h144z" />
    <glyph glyph-name="adieresis" unicode="&#xe4;" horiz-adv-x="1102" 
d="M985 0h-299v147h-4q-103 -172 -305 -172q-149 0 -234.5 84.5t-85.5 225.5q0 298 353 344l278 37q0 168 -182 168q-183 0 -348 -109v238q66 34 180.5 60t208.5 26q438 0 438 -437v-612zM688 416v69l-186 -24q-154 -20 -154 -139q0 -54 37.5 -88.5t101.5 -34.5
q89 0 145 61.5t56 155.5zM787 1186q-67 0 -110 39t-43 98q0 61 43 99t110 38t110.5 -38.5t43.5 -98.5t-43 -98.5t-111 -38.5zM329 1186q-68 0 -111 39.5t-43 97.5q0 60 44 98.5t110 38.5q68 0 110.5 -38.5t42.5 -98.5q0 -61 -42.5 -99t-110.5 -38z" />
    <glyph glyph-name="aring" unicode="&#xe5;" horiz-adv-x="1102" 
d="M985 0h-299v147h-4q-103 -172 -305 -172q-149 0 -234.5 84.5t-85.5 225.5q0 298 353 344l278 37q0 168 -182 168q-183 0 -348 -109v238q66 34 180.5 60t208.5 26q438 0 438 -437v-612zM688 416v69l-186 -24q-154 -20 -154 -139q0 -54 37.5 -88.5t101.5 -34.5
q89 0 145 61.5t56 155.5zM573 1186q-102 0 -168.5 59.5t-66.5 155.5q0 101 69.5 161t170.5 60q107 0 173 -59.5t66 -155.5q0 -98 -71.5 -159.5t-172.5 -61.5zM573 1499q-96 0 -96 -94t96 -94q45 0 74 27.5t29 66.5q0 41 -28.5 67.5t-74.5 26.5z" />
    <glyph glyph-name="ae" unicode="&#xe6;" horiz-adv-x="1696" 
d="M1640 422h-667q20 -223 282 -223q160 0 297 80v-226q-156 -78 -378 -78q-269 0 -398 179h-4q-141 -179 -362 -179q-166 0 -259.5 82.5t-93.5 229.5q0 146 96.5 234t276.5 102l256 20q0 191 -184 191q-174 0 -344 -107v236q187 86 370 86q234 0 324 -134h4
q132 134 326 134q214 0 336 -133t122 -365v-129zM1348 616q0 220 -177 220q-75 0 -131.5 -62t-66.5 -158h375zM686 414v45l-156 -13q-184 -15 -184 -131q0 -50 39 -83t102 -33q86 0 142.5 59.5t56.5 155.5z" />
    <glyph glyph-name="ccedilla" unicode="&#xe7;" horiz-adv-x="983" 
d="M909 37q-107 -62 -309 -62q-236 0 -382 143t-146 369q0 261 156.5 411.5t418.5 150.5q181 0 262 -48v-268q-99 74 -221 74q-136 0 -215.5 -79.5t-79.5 -219.5q0 -136 76 -213.5t209 -77.5q118 0 231 74v-254zM426 -451v138q35 -6 72 -6q123 0 123 73q0 66 -111 66
q-13 0 -37 -2v182h172v-82q187 -8 187 -166q0 -207 -318 -207q-46 0 -88 4z" />
    <glyph glyph-name="egrave" unicode="&#xe8;" horiz-adv-x="1108" 
d="M1053 422h-668q16 -223 281 -223q169 0 297 80v-228q-142 -76 -369 -76q-248 0 -385 137.5t-137 383.5q0 255 148 404t364 149q224 0 346.5 -133t122.5 -361v-133zM760 616q0 220 -178 220q-76 0 -131.5 -63t-67.5 -157h377zM795 1186h-227l-314 323h281z" />
    <glyph glyph-name="eacute" unicode="&#xe9;" horiz-adv-x="1108" 
d="M1053 422h-668q16 -223 281 -223q169 0 297 80v-228q-142 -76 -369 -76q-248 0 -385 137.5t-137 383.5q0 255 148 404t364 149q224 0 346.5 -133t122.5 -361v-133zM760 616q0 220 -178 220q-76 0 -131.5 -63t-67.5 -157h377zM921 1509l-313 -323h-228l260 323h281z" />
    <glyph glyph-name="ecircumflex" unicode="&#xea;" horiz-adv-x="1108" 
d="M1053 422h-668q16 -223 281 -223q169 0 297 80v-228q-142 -76 -369 -76q-248 0 -385 137.5t-137 383.5q0 255 148 404t364 149q224 0 346.5 -133t122.5 -361v-133zM760 616q0 220 -178 220q-76 0 -131.5 -63t-67.5 -157h377zM949 1186h-207l-158 188l-147 -188h-207
l235 325h248z" />
    <glyph glyph-name="edieresis" unicode="&#xeb;" horiz-adv-x="1108" 
d="M1053 422h-668q16 -223 281 -223q169 0 297 80v-228q-142 -76 -369 -76q-248 0 -385 137.5t-137 383.5q0 255 148 404t364 149q224 0 346.5 -133t122.5 -361v-133zM760 616q0 220 -178 220q-76 0 -131.5 -63t-67.5 -157h377zM808 1186q-67 0 -110 39t-43 98q0 61 43 99
t110 38t110.5 -38.5t43.5 -98.5t-43 -98.5t-111 -38.5zM350 1186q-68 0 -111 39.5t-43 97.5q0 60 44 98.5t110 38.5q68 0 110.5 -38.5t42.5 -98.5q0 -61 -42.5 -99t-110.5 -38z" />
    <glyph glyph-name="igrave" unicode="&#xec;" horiz-adv-x="582" 
d="M449 0h-316v1024h316v-1024zM515 1186h-227l-314 323h281z" />
    <glyph glyph-name="iacute" unicode="&#xed;" horiz-adv-x="582" 
d="M449 0h-316v1024h316v-1024zM612 1509l-313 -323h-228l260 323h281z" />
    <glyph glyph-name="icircumflex" unicode="&#xee;" horiz-adv-x="582" 
d="M449 0h-316v1024h316v-1024zM658 1186h-207l-158 188l-147 -188h-207l235 325h248z" />
    <glyph glyph-name="idieresis" unicode="&#xef;" horiz-adv-x="582" 
d="M449 0h-316v1024h316v-1024zM527 1186q-67 0 -110 39t-43 98q0 61 43 99t110 38t110.5 -38.5t43.5 -98.5t-43 -98.5t-111 -38.5zM69 1186q-68 0 -111 39.5t-43 97.5q0 60 44 98.5t110 38.5q68 0 110.5 -38.5t42.5 -98.5q0 -61 -42.5 -99t-110.5 -38z" />
    <glyph glyph-name="eth" unicode="&#xf0;" horiz-adv-x="1215" 
d="M756 965l4 2q-84 147 -195 237l-291 -143l-81 141l241 115q-157 125 -270 199h352q11 -6 131 -97l273 133l77 -137l-215 -104q361 -291 361 -748q0 -260 -150 -424t-395 -164q-248 0 -387 144.5t-139 394.5q0 231 132.5 378.5t346.5 147.5q117 0 205 -75zM612 807
q-103 0 -161 -78.5t-58 -214.5q0 -140 57 -218.5t158 -78.5q98 0 155.5 81.5t57.5 221.5q0 287 -209 287z" />
    <glyph glyph-name="ntilde" unicode="&#xf1;" horiz-adv-x="1239" 
d="M1122 0h-315v569q0 238 -170 238q-82 0 -135 -63t-53 -160v-584h-316v1024h316v-162h4q113 187 329 187q340 0 340 -422v-627zM982 1497q0 -140 -55.5 -216.5t-151.5 -76.5q-86 0 -168 43q-89 47 -123 47q-80 0 -80 -108h-141q0 139 55 216t154 77q81 0 168 -49
q79 -44 120 -44q78 0 78 111h144z" />
    <glyph glyph-name="ograve" unicode="&#xf2;" horiz-adv-x="1251" 
d="M621 -25q-256 0 -402.5 143.5t-146.5 389.5q0 254 152 397.5t411 143.5q255 0 400 -143.5t145 -379.5q0 -255 -149.5 -403t-409.5 -148zM629 807q-112 0 -174 -77t-62 -218q0 -295 238 -295q227 0 227 303q0 287 -229 287zM852 1186h-227l-314 323h281z" />
    <glyph glyph-name="oacute" unicode="&#xf3;" horiz-adv-x="1251" 
d="M621 -25q-256 0 -402.5 143.5t-146.5 389.5q0 254 152 397.5t411 143.5q255 0 400 -143.5t145 -379.5q0 -255 -149.5 -403t-409.5 -148zM629 807q-112 0 -174 -77t-62 -218q0 -295 238 -295q227 0 227 303q0 287 -229 287zM968 1509l-313 -323h-228l260 323h281z" />
    <glyph glyph-name="ocircumflex" unicode="&#xf4;" horiz-adv-x="1251" 
d="M621 -25q-256 0 -402.5 143.5t-146.5 389.5q0 254 152 397.5t411 143.5q255 0 400 -143.5t145 -379.5q0 -255 -149.5 -403t-409.5 -148zM629 807q-112 0 -174 -77t-62 -218q0 -295 238 -295q227 0 227 303q0 287 -229 287zM988 1186h-207l-158 188l-147 -188h-207
l235 325h248z" />
    <glyph glyph-name="otilde" unicode="&#xf5;" horiz-adv-x="1251" 
d="M621 -25q-256 0 -402.5 143.5t-146.5 389.5q0 254 152 397.5t411 143.5q255 0 400 -143.5t145 -379.5q0 -255 -149.5 -403t-409.5 -148zM629 807q-112 0 -174 -77t-62 -218q0 -295 238 -295q227 0 227 303q0 287 -229 287zM985 1497q0 -140 -55.5 -216.5t-151.5 -76.5
q-86 0 -168 43q-89 47 -123 47q-80 0 -80 -108h-141q0 139 55 216t154 77q81 0 168 -49q79 -44 120 -44q78 0 78 111h144z" />
    <glyph glyph-name="odieresis" unicode="&#xf6;" horiz-adv-x="1251" 
d="M621 -25q-256 0 -402.5 143.5t-146.5 389.5q0 254 152 397.5t411 143.5q255 0 400 -143.5t145 -379.5q0 -255 -149.5 -403t-409.5 -148zM629 807q-112 0 -174 -77t-62 -218q0 -295 238 -295q227 0 227 303q0 287 -229 287zM859 1186q-67 0 -110 39t-43 98q0 61 43 99
t110 38t110.5 -38.5t43.5 -98.5t-43 -98.5t-111 -38.5zM401 1186q-68 0 -111 39.5t-43 97.5q0 60 44 98.5t110 38.5q68 0 110.5 -38.5t42.5 -98.5q0 -61 -42.5 -99t-110.5 -38z" />
    <glyph glyph-name="divide" unicode="&#xf7;" horiz-adv-x="1448" 
d="M731 846q-59 0 -100 40t-41 97q0 62 39.5 103.5t101.5 41.5t99.5 -40t37.5 -103q0 -61 -40.5 -100t-96.5 -39zM1212 485h-974v203h974v-203zM727 47q-59 0 -100 39t-41 96q0 62 39.5 104t101.5 42t99.5 -40.5t37.5 -103.5q0 -61 -40 -99t-97 -38z" />
    <glyph glyph-name="oslash" unicode="&#xf8;" horiz-adv-x="1252" 
d="M1206 1010l-139 -146q113 -143 113 -338q0 -259 -148 -404t-411 -145q-198 0 -328 86l-135 -141l-119 107l137 143q-104 141 -104 338q0 253 152.5 397t412.5 144q179 0 311 -82l139 147zM772 791q-56 40 -141 40q-258 0 -258 -317q0 -73 18 -121zM862 651l-393 -409
q61 -45 160 -45q252 0 252 323q0 74 -19 131z" />
    <glyph glyph-name="ugrave" unicode="&#xf9;" horiz-adv-x="1239" 
d="M1106 0h-315v156h-5q-117 -181 -313 -181q-356 0 -356 431v618h315v-590q0 -217 172 -217q85 0 136 59.5t51 161.5v586h315v-1024zM784 1186h-227l-314 323h281z" />
    <glyph glyph-name="uacute" unicode="&#xfa;" horiz-adv-x="1239" 
d="M1106 0h-315v156h-5q-117 -181 -313 -181q-356 0 -356 431v618h315v-590q0 -217 172 -217q85 0 136 59.5t51 161.5v586h315v-1024zM977 1509l-313 -323h-228l260 323h281z" />
    <glyph glyph-name="ucircumflex" unicode="&#xfb;" horiz-adv-x="1239" 
d="M1106 0h-315v156h-5q-117 -181 -313 -181q-356 0 -356 431v618h315v-590q0 -217 172 -217q85 0 136 59.5t51 161.5v586h315v-1024zM970 1186h-207l-158 188l-147 -188h-207l235 325h248z" />
    <glyph glyph-name="udieresis" unicode="&#xfc;" horiz-adv-x="1239" 
d="M1106 0h-315v156h-5q-117 -181 -313 -181q-356 0 -356 431v618h315v-590q0 -217 172 -217q85 0 136 59.5t51 161.5v586h315v-1024zM844 1186q-67 0 -110 39t-43 98q0 61 43 99t110 38t110.5 -38.5t43.5 -98.5t-43 -98.5t-111 -38.5zM386 1186q-68 0 -111 39.5t-43 97.5
q0 60 44 98.5t110 38.5q68 0 110.5 -38.5t42.5 -98.5q0 -61 -42.5 -99t-110.5 -38z" />
    <glyph glyph-name="yacute" unicode="&#xfd;" horiz-adv-x="1102" 
d="M1108 1024l-416 -1106q-150 -399 -452 -399q-115 0 -189 26v252q63 -37 137 -37q122 0 170 115l54 127l-416 1022h350l191 -623q18 -58 28 -137h4q9 58 33 135l193 625h313zM834 1509l-313 -323h-228l260 323h281z" />
    <glyph glyph-name="thorn" unicode="&#xfe;" horiz-adv-x="1270" 
d="M453 119h-4v-590h-316v1987h316v-646h4q117 179 329 179q199 0 307.5 -136.5t108.5 -371.5q0 -256 -126.5 -411t-336.5 -155q-185 0 -282 144zM444 539v-82q0 -106 56 -173t147 -67q108 0 167.5 83.5t59.5 236.5q0 270 -210 270q-97 0 -158.5 -73.5t-61.5 -194.5z" />
    <glyph glyph-name="ydieresis" unicode="&#xff;" horiz-adv-x="1102" 
d="M1108 1024l-416 -1106q-150 -399 -452 -399q-115 0 -189 26v252q63 -37 137 -37q122 0 170 115l54 127l-416 1022h350l191 -623q18 -58 28 -137h4q9 58 33 135l193 625h313zM793 1186q-67 0 -110 39t-43 98q0 61 43 99t110 38t110.5 -38.5t43.5 -98.5t-43 -98.5
t-111 -38.5zM335 1186q-68 0 -111 39.5t-43 97.5q0 60 44 98.5t110 38.5q68 0 110.5 -38.5t42.5 -98.5q0 -61 -42.5 -99t-110.5 -38z" />
    <glyph glyph-name="dotlessi" unicode="&#x131;" horiz-adv-x="582" 
d="M449 0h-316v1024h316v-1024z" />
    <glyph glyph-name="OE" unicode="&#x152;" horiz-adv-x="1925" 
d="M1860 0h-828q-26 0 -117 -12q-90 -13 -157 -13q-307 0 -495.5 203t-188.5 520q0 342 194 551t516 209q63 0 151 -12q89 -12 109 -12h783v-263h-504v-323h469v-264h-469v-322h537v-262zM991 305v823q-86 52 -209 52q-168 0 -267 -129.5t-99 -339.5q0 -208 101 -332.5
t261 -124.5q116 0 213 51z" />
    <glyph glyph-name="oe" unicode="&#x153;" horiz-adv-x="1893" 
d="M1837 422h-670q14 -223 283 -223q167 0 295 80v-228q-142 -76 -346 -76q-252 0 -391 189h-4q-137 -187 -408 -187q-234 0 -379 143t-145 388q0 251 147 397t389 146q134 0 238.5 -49.5t154.5 -127.5h5q118 175 376 175q213 0 334 -134t121 -358v-135zM1542 616
q0 220 -174 220q-80 0 -135 -63.5t-66 -156.5h375zM631 807q-113 0 -175.5 -77.5t-62.5 -217.5q0 -293 236 -293q229 0 229 297q0 138 -59.5 214.5t-167.5 76.5z" />
    <glyph glyph-name="Scaron" unicode="&#x160;" horiz-adv-x="1148" 
d="M98 55v320q87 -73 189 -109.5t206 -36.5q61 0 106.5 11t76 30.5t45.5 46t15 57.5q0 42 -24 75t-65.5 61t-98.5 54t-123 53q-168 70 -250.5 171t-82.5 244q0 112 45 192.5t122.5 132.5t179.5 76.5t216 24.5q112 0 198.5 -13.5t159.5 -41.5v-299q-36 25 -78.5 44
t-87.5 31.5t-89.5 18.5t-84.5 6q-55 0 -100 -10.5t-76 -29.5t-48 -45.5t-17 -59.5q0 -36 19 -64.5t54 -54t85 -50t113 -50.5q86 -36 154.5 -76.5t117.5 -91.5t75 -116.5t26 -152.5q0 -120 -45.5 -201.5t-123.5 -132t-181.5 -72.5t-218.5 -22q-118 0 -224.5 20t-184.5 60z
M973 1861l-238 -325h-248l-235 325h205l155 -188l156 188h205z" />
    <glyph glyph-name="scaron" unicode="&#x161;" horiz-adv-x="901" 
d="M66 27v256q78 -47 155.5 -70t146.5 -23q84 0 132.5 23t48.5 70q0 30 -22 50t-56.5 35t-75.5 27t-79 27q-61 23 -107.5 49.5t-78 61.5t-48 81t-16.5 109q0 86 37.5 148t100 101.5t143 58t167.5 18.5q68 0 138 -10.5t138 -30.5v-244q-60 35 -128.5 52.5t-134.5 17.5
q-31 0 -58.5 -5.5t-48.5 -16t-33 -27t-12 -37.5q0 -28 18 -48t47 -34.5t64.5 -26t70.5 -23.5q63 -22 114 -48t87.5 -61t56 -82t19.5 -112q0 -91 -39.5 -155.5t-105 -105t-151 -59t-177.5 -18.5q-169 0 -313 52zM811 1511l-238 -325h-248l-235 325h205l155 -188l156 188h205z
" />
    <glyph glyph-name="Ydieresis" unicode="&#x178;" horiz-adv-x="1243" 
d="M1245 1434l-467 -924v-510h-323v504l-455 930h369l231 -535q6 -15 33 -117h4q13 72 31 113l235 539h342zM858 1567q-67 0 -110 39t-43 98q0 61 43 99t110 38t110.5 -38.5t43.5 -98.5t-43 -98.5t-111 -38.5zM400 1567q-68 0 -111 39.5t-43 97.5q0 60 44 98.5t110 38.5
q68 0 110.5 -38.5t42.5 -98.5q0 -61 -42.5 -99t-110.5 -38z" />
    <glyph glyph-name="Zcaron" unicode="&#x17d;" horiz-adv-x="1243" 
d="M1196 0h-1155v186l735 985h-682v263h1100v-181l-719 -991h721v-262zM990 1858l-238 -325h-248l-235 325h205l155 -188l156 188h205z" />
    <glyph glyph-name="zcaron" unicode="&#x17e;" horiz-adv-x="981" 
d="M944 0h-919v131l514 660h-463v233h864v-156l-487 -635h491v-233zM872 1511l-238 -325h-248l-235 325h205l155 -188l156 188h205z" />
    <glyph glyph-name="florin" unicode="&#x192;" horiz-adv-x="1178" 
d="M1044 1174q-64 30 -133 30q-124 0 -147 -137l-23 -137h158v-215h-192l-91 -594q-30 -196 -140 -311t-277 -115q-50 0 -121 20v242q39 -20 92 -20q123 0 154 202l88 576h-105v215h142l22 149q25 167 135 267t279 100q82 0 159 -23v-249z" />
    <glyph glyph-name="quoteright" unicode="&#x2019;" horiz-adv-x="594" 
d="M500 1468l-193 -444h-194l114 444h273z" />
    <glyph glyph-name="quoteright" unicode="&#x2bc;" horiz-adv-x="594" 
d="M500 1468l-193 -444h-194l114 444h273z" />
    <glyph glyph-name="circumflex" unicode="&#x2c6;" horiz-adv-x="785" 
d="M750 1186h-207l-158 188l-147 -188h-207l235 325h248z" />
    <glyph glyph-name="caron" unicode="&#x2c7;" horiz-adv-x="785" 
d="M754 1511l-238 -325h-248l-235 325h205l155 -188l156 188h205z" />
    <glyph glyph-name="breve" unicode="&#x2d8;" horiz-adv-x="709" 
d="M692 1493q-12 -141 -102.5 -224t-237.5 -83q-146 0 -238 85.5t-96 221.5h179q17 -135 159 -135q137 0 156 135h180z" />
    <glyph glyph-name="ring" unicode="&#x2da;" horiz-adv-x="555" 
d="M274 1186q-102 0 -168.5 59.5t-66.5 155.5q0 101 69.5 161t170.5 60q107 0 173 -59.5t66 -155.5q0 -98 -71.5 -159.5t-172.5 -61.5zM274 1499q-96 0 -96 -94t96 -94q45 0 74 27.5t29 66.5q0 41 -28.5 67.5t-74.5 26.5z" />
    <glyph glyph-name="tilde" unicode="&#x2dc;" horiz-adv-x="785" 
d="M754 1497q0 -140 -55.5 -216.5t-151.5 -76.5q-86 0 -168 43q-89 47 -123 47q-80 0 -80 -108h-141q0 139 55 216t154 77q81 0 168 -49q79 -44 120 -44q78 0 78 111h144z" />
    <glyph glyph-name="uni0900" unicode="&#x900;" 
d="M44 1675q-4 16 -12.5 44.5t-23.5 62.5t-37.5 69t-54.5 63.5t-74.5 46.5t-98.5 18q-54 0 -96.5 -17t-74.5 -44t-54.5 -61t-38.5 -67.5t-26 -64t-16 -51.5l-214 74q10 41 27.5 90t45 99t67 97t93 83.5t123.5 58.5t158 22q106 0 192.5 -32.5t152.5 -92t111.5 -142
t69.5 -183.5zM-118 1744q0 -30 -10.5 -55.5t-29 -44t-44 -29t-56.5 -10.5q-30 0 -56.5 11t-46 29.5t-30.5 44.5t-11 56t10.5 55.5t29.5 44t44.5 28.5t56.5 10t57 -10.5t45 -29t30 -44.5t11 -56z" />
    <glyph glyph-name="uni0901" unicode="&#x901;" 
d="M-565 2140q4 -16 12.5 -44.5t23.5 -62.5t37.5 -69t54.5 -63.5t74.5 -46.5t98.5 -18q54 0 96.5 17t74.5 44t54.5 61t38.5 67.5t26 64t16 51.5l214 -74q-10 -41 -27.5 -90t-45 -99t-67 -97t-93 -83.5t-123.5 -58.5t-158 -22q-106 0 -192.5 32.5t-152.5 92t-111.5 142
t-69.5 183.5zM-403 2071q0 30 10.5 55.5t29 44t44 29t56.5 10.5q30 0 56.5 -11t46 -29.5t30.5 -44.5t11 -56t-10.5 -55.5t-29.5 -44t-44.5 -28.5t-56.5 -10t-57 10.5t-45 29t-30 44.5t-11 56z" />
    <glyph glyph-name="uni0902" unicode="&#x902;" 
d="M-404 1811q0 30 10.5 56t29.5 45t45.5 30t58.5 11q31 0 58 -11t46.5 -30.5t31 -46t11.5 -57.5t-10.5 -57t-30 -44.5t-46 -29t-57.5 -10.5t-58 10.5t-46.5 30t-31 45.5t-11.5 58z" />
    <glyph glyph-name="uni0903" unicode="&#x903;" horiz-adv-x="565" 
d="M125 987q0 31 10.5 58t30 46.5t46.5 30.5t60 11q32 0 59.5 -10.5t47.5 -29t31.5 -44t11.5 -55.5q0 -35 -11 -63.5t-30.5 -48.5t-46.5 -31.5t-59 -11.5t-59.5 11t-47.5 30.5t-31.5 47t-11.5 59.5zM125 382q0 31 10.5 58t30 46.5t46.5 30.5t60 11q32 0 59.5 -10.5t47.5 -29
t31.5 -44t11.5 -55.5q0 -35 -11 -63.5t-30.5 -48.5t-46.5 -31.5t-59 -11.5t-59.5 11t-47.5 30.5t-31.5 47t-11.5 59.5z" />
    <glyph glyph-name="uni0904" unicode="&#x904;" horiz-adv-x="1753" 
d="M1011 823q18 -2 33 -3.5t34 -1.5q64 0 126.5 15t104.5 36v622h479v-225h-218v-1266h-261v646q-12 -6 -31 -12t-41.5 -11t-46.5 -8t-46 -3q5 -25 8 -45t3 -46q0 -90 -34 -161.5t-93.5 -121t-140 -76t-172.5 -26.5q-95 0 -173 27t-142 73.5t-115.5 109.5t-93 135.5t-74 151
t-58.5 155.5l223 90q18 -57 40.5 -117t51 -116.5t63 -106t76 -87t90 -59t105.5 -21.5q88 0 134.5 51t46.5 137q0 53 -17 91t-47 63t-71 36.5t-89 11.5q-10 0 -24 -0.5t-29 -1.5l-30 -2t-26 -2v225q9 -1 18.5 -1h18.5q52 0 97 8t78 27.5t52 52.5t19 82q0 75 -44 109t-119 34
q-56 0 -110 -15.5t-105 -37.5l-60 218q72 35 147.5 52t144.5 17q91 0 166.5 -27t129.5 -74t84 -110.5t30 -136.5q0 -88 -44.5 -163.5t-132.5 -132.5l1 -5q23 -11 44 -25t40 -29zM1313 1463q-10 87 -32.5 135.5t-55 72.5t-74.5 29.5t-91 6.5q-48 1 -95 3.5t-91 13t-84.5 33
t-75 63.5t-62.5 105t-47 157l226 48q13 -49 24 -83t24.5 -56.5t31 -35.5t42.5 -20t60 -9.5t83 -4.5q53 -2 104.5 -5t98 -16.5t87.5 -40.5t73.5 -77.5t55.5 -128t34 -190.5h-236z" />
    <glyph glyph-name="uni0905" unicode="&#x905;" horiz-adv-x="1753" 
d="M1011 823q18 -2 33 -3.5t34 -1.5q64 0 126.5 15t104.5 36v622h479v-225h-218v-1266h-261v646q-12 -6 -31 -12t-41.5 -11t-46.5 -8t-46 -3q5 -25 8 -45t3 -46q0 -90 -34 -161.5t-93.5 -121t-140 -76t-172.5 -26.5q-95 0 -173 27t-142 73.5t-115.5 109.5t-93 135.5t-74 151
t-58.5 155.5l223 90q18 -57 40.5 -117t51 -116.5t63 -106t76 -87t90 -59t105.5 -21.5q88 0 134.5 51t46.5 137q0 53 -17 91t-47 63t-71 36.5t-89 11.5q-10 0 -24 -0.5t-29 -1.5l-30 -2t-26 -2v225q9 -1 18.5 -1h18.5q52 0 97 8t78 27.5t52 52.5t19 82q0 75 -44 109t-119 34
q-56 0 -110 -15.5t-105 -37.5l-60 218q72 35 147.5 52t144.5 17q91 0 166.5 -27t129.5 -74t84 -110.5t30 -136.5q0 -88 -44.5 -163.5t-132.5 -132.5l1 -5q23 -11 44 -25t40 -29z" />
    <glyph glyph-name="uni0906" unicode="&#x906;" horiz-adv-x="2383" 
d="M1011 823q18 -2 33 -3.5t34 -1.5q64 0 126.5 15t104.5 36v622h479v-225h-218v-1266h-261v646q-12 -6 -31 -12t-41.5 -11t-46.5 -8t-46 -3q5 -25 8 -45t3 -46q0 -90 -34 -161.5t-93.5 -121t-140 -76t-172.5 -26.5q-95 0 -173 27t-142 73.5t-115.5 109.5t-93 135.5t-74 151
t-58.5 155.5l223 90q18 -57 40.5 -117t51 -116.5t63 -106t76 -87t90 -59t105.5 -21.5q88 0 134.5 51t46.5 137q0 53 -17 91t-47 63t-71 36.5t-89 11.5q-10 0 -24 -0.5t-29 -1.5l-30 -2t-26 -2v225q9 -1 18.5 -1h18.5q52 0 97 8t78 27.5t52 52.5t19 82q0 75 -44 109t-119 34
q-56 0 -110 -15.5t-105 -37.5l-60 218q72 35 147.5 52t144.5 17q91 0 166.5 -27t129.5 -74t84 -110.5t30 -136.5q0 -88 -44.5 -163.5t-132.5 -132.5l1 -5q23 -11 44 -25t40 -29zM2418 1266h-218v-1266h-261v1266h-221v225h700v-225z" />
    <glyph glyph-name="uni0907" unicode="&#x907;" horiz-adv-x="1250" 
d="M768 11q44 -38 88.5 -69.5t86.5 -56t79.5 -43t69.5 -31.5l-123 -212q-68 34 -134 78t-125 92.5t-110 99.5t-89 99q-74 0 -134 20.5t-102 55t-65 79.5t-23 95q0 34 14 62t37.5 48t55 31.5t67.5 11.5q85 0 155.5 -42t122.5 -120q54 8 91 24.5t59.5 39.5t32 51.5t9.5 60.5
q0 36 -10.5 57t-28 32t-41 14.5t-50.5 3.5h-262q-89 0 -150 40t-99 100t-54.5 129t-16.5 128q0 69 20 117t54.5 78.5t79.5 44t95 13.5h341v124h-744v225h1320v-225h-315v-349h-477q-64 0 -88 -18t-24 -56q0 -18 6 -39t21 -38.5t42 -29t69 -11.5h272q84 0 141 -23.5t92.5 -65
t51 -97t15.5 -118.5q0 -71 -19 -134t-58.5 -115t-100.5 -91t-144 -63z" />
    <glyph glyph-name="uni0908" unicode="&#x908;" horiz-adv-x="1250" 
d="M768 11q44 -38 88.5 -69.5t86.5 -56t79.5 -43t69.5 -31.5l-123 -212q-68 34 -134 78t-125 92.5t-110 99.5t-89 99q-74 0 -134 20.5t-102 55t-65 79.5t-23 95q0 34 14 62t37.5 48t55 31.5t67.5 11.5q85 0 155.5 -42t122.5 -120q54 8 91 24.5t59.5 39.5t32 51.5t9.5 60.5
q0 36 -10.5 57t-28 32t-41 14.5t-50.5 3.5h-262q-89 0 -150 40t-99 100t-54.5 129t-16.5 128q0 69 20 117t54.5 78.5t79.5 44t95 13.5h341v124h-744v225h1320v-225h-315v-349h-477q-64 0 -88 -18t-24 -56q0 -18 6 -39t21 -38.5t42 -29t69 -11.5h272q84 0 141 -23.5t92.5 -65
t51 -97t15.5 -118.5q0 -71 -19 -134t-58.5 -115t-100.5 -91t-144 -63zM1081 1874q-31 42 -68 62t-77 20q-26 0 -49 -8.5t-40.5 -25.5t-28 -43t-10.5 -60q0 -38 12 -79t32.5 -84.5t47.5 -88t56 -87.5h-257q-76 94 -108.5 184t-32.5 171q0 82 29 145.5t80 107t119.5 66
t148.5 22.5q97 0 174 -35.5t141 -117.5z" />
    <glyph glyph-name="uni0909" unicode="&#x909;" horiz-adv-x="1456" 
d="M1491 1266h-296q29 -45 42.5 -90t13.5 -90q0 -91 -48 -165t-136 -121v-9q118 -57 180 -160.5t62 -234.5q0 -87 -28.5 -167t-87 -141t-147 -97.5t-208.5 -36.5q-129 0 -233 42t-185 110.5t-141 156.5t-102 180.5t-67 182.5t-36 162l224 101q12 -77 36 -158t59 -157.5
t80.5 -144.5t100 -119t118.5 -81t135 -30q51 0 91.5 16t68.5 45.5t42.5 71t14.5 93.5q0 125 -83.5 189.5t-230.5 64.5q-46 0 -94 -6v224q18 -2 35 -3t33 -1q138 0 211.5 56.5t73.5 153.5q0 44 -14 86t-37 77h-973v225h1526v-225z" />
    <glyph glyph-name="uni090A" unicode="&#x90a;" horiz-adv-x="1997" 
d="M843 -46q-131 0 -235.5 41.5t-186 110t-141.5 156t-102 180.5t-67 183t-37 163l224 101q12 -77 36 -158t59 -157.5t80.5 -144.5t100 -119t118 -81t134.5 -30q106 0 162 60.5t56 165.5q0 125 -83.5 189.5t-230.5 64.5q-46 0 -94 -6v224q18 -2 35 -3t33 -1
q139 0 210.5 56.5t71.5 152.5q0 45 -15 87t-38 77h-968v225h2067v-225h-842q58 -88 58 -182q0 -88 -46.5 -163t-134.5 -121v-9q84 -41 138 -104q63 64 143.5 100t165.5 36t153.5 -30t116.5 -82t73.5 -121t25.5 -147q0 -77 -22 -144t-60.5 -127t-90 -114t-111.5 -104
l-158 183q43 38 77.5 73t59 71t37.5 74.5t13 83.5q0 34 -9.5 63t-26.5 50t-39.5 32.5t-49.5 11.5q-30 0 -59 -11t-55 -28.5t-48 -40t-38 -46.5q6 -36 6 -73q0 -87 -29 -167.5t-87 -141.5t-145.5 -97.5t-204.5 -36.5z" />
    <glyph glyph-name="uni090B" unicode="&#x90b;" horiz-adv-x="1898" 
d="M1017 626v-626h-261v428l-5 1l-471 -343l-139 187l607 428v12q-48 48 -92.5 82.5t-88 57.5t-87.5 34t-91 11q-21 0 -61.5 -2t-86 -5.5t-90 -7.5t-74.5 -8v234q27 3 70 6t87 6t82 4.5t56 1.5q49 0 94 -13.5t90 -39t93 -61.5t103 -81l4 2v332h-791v225h1968v-225h-916v-448
q48 1 93.5 7.5t85.5 22.5q-15 43 -15 88q0 43 13.5 83.5t38.5 71.5t61 50t82 19q40 0 72 -15.5t54.5 -42t34 -62t11.5 -75.5q0 -43 -13 -82t-38 -73q73 -66 126.5 -120.5t88 -104.5t51.5 -99t17 -103q0 -80 -34 -146t-99 -119t-159 -94t-215 -70l-57 235q25 5 57.5 13
t66 19.5t66.5 27.5t58.5 36.5t41 46.5t15.5 57q0 35 -19.5 69.5t-50 70t-68.5 72t-74 75.5q-63 -24 -135 -37t-157 -13z" />
    <glyph glyph-name="uni090C" unicode="&#x90c;" horiz-adv-x="1700" 
d="M656 613q-3 42 -12 85t-26.5 78t-43.5 57.5t-62 22.5q-51 0 -85 -45.5t-34 -130.5q0 -89 38.5 -165t101 -142t140.5 -123t156 -106l-140 -190q-21 12 -70.5 40.5t-112 73t-129 105.5t-122 137.5t-91 168.5t-35.5 200q0 96 29.5 174.5t80 133.5t118 85t144.5 30
q57 0 101.5 -15.5t78 -39.5t56.5 -53t37 -56l5 1q45 88 129 126v201h-943v225h1770v-225h-562v-195q63 -20 108.5 -58.5t75.5 -86.5t44.5 -101.5t14.5 -102.5q0 -54 -15.5 -98.5t-38.5 -82t-49.5 -69t-49.5 -60t-38.5 -54.5t-15.5 -52q0 -30 20.5 -50.5t54.5 -20.5
q29 0 59.5 15.5t59.5 39.5t54.5 53t45.5 56l159 -176q-32 -38 -72 -76t-89 -68t-107.5 -49t-126.5 -19q-74 0 -133 23t-99.5 62t-62 90t-21.5 108q0 49 15 89.5t37 75.5t48 66t48 61t37 61t15 67q0 28 -10 52.5t-27.5 43.5t-42 30t-54.5 11q-36 0 -61.5 -15.5t-42 -41.5
t-24.5 -60.5t-8 -71.5q0 -11 1 -24t3 -25h-229z" />
    <glyph glyph-name="uni090D" unicode="&#x90d;" horiz-adv-x="1225" 
d="M829 1266h-400v-638q0 -70 13 -114t47.5 -78t94.5 -66t154 -78q90 -45 172 -87.5t144.5 -90.5t99.5 -106t37 -134q0 -63 -28 -120.5t-85 -126.5l-205 145q22 29 31.5 54t9.5 48q0 37 -25 67t-68 57t-100 54t-121 58q-74 36 -134.5 67t-108.5 63t-83.5 67t-59 78.5
t-35 97.5t-11.5 124v659h-203v225h1352v-225h-228v-477q0 -88 -22.5 -150t-62 -101.5t-93.5 -58t-117 -18.5q-41 0 -89.5 8.5t-86.5 22.5v247q22 -13 56 -22.5t65 -9.5q30 0 48 8t27.5 25t12 44t2.5 65v417zM337 2140q4 -16 12 -44.5t22.5 -62.5t36 -69t52.5 -63.5
t72.5 -46.5t95.5 -18q52 0 93 17t72 44t53.5 61t38 67.5t24.5 64t15 51.5l214 -74q-10 -41 -27 -90t-44 -99t-65.5 -97t-91.5 -83.5t-121.5 -58.5t-154.5 -22q-104 0 -189 32.5t-149.5 92t-109 142t-68.5 183.5z" />
    <glyph glyph-name="uni090E" unicode="&#x90e;" horiz-adv-x="1225" 
d="M829 1266h-400v-638q0 -70 13 -114t47.5 -78t94.5 -66t154 -78q90 -45 172 -87.5t144.5 -90.5t99.5 -106t37 -134q0 -63 -28 -120.5t-85 -126.5l-205 145q22 29 31.5 54t9.5 48q0 37 -25 67t-68 57t-100 54t-121 58q-74 36 -134.5 67t-108.5 63t-83.5 67t-59 78.5
t-35 97.5t-11.5 124v659h-203v225h1352v-225h-228v-477q0 -88 -22.5 -150t-62 -101.5t-93.5 -58t-117 -18.5q-41 0 -89.5 8.5t-86.5 22.5v247q22 -13 56 -22.5t65 -9.5q30 0 48 8t27.5 25t12 44t2.5 65v417zM832 1463q-10 87 -32.5 135.5t-55 72.5t-74.5 29.5t-91 6.5
q-48 1 -95 3.5t-91 13t-84.5 33t-75 63.5t-62.5 105t-47 157l226 48q13 -49 24 -83t24.5 -56.5t31 -35.5t42.5 -20t60 -9.5t83 -4.5q53 -2 104.5 -5t98 -16.5t87.5 -40.5t73.5 -77.5t55.5 -128t34 -190.5h-236z" />
    <glyph glyph-name="uni090F" unicode="&#x90f;" horiz-adv-x="1282" 
d="M829 1266h-400v-638q0 -70 13 -114t47.5 -78t94.5 -66t154 -78q90 -45 172 -87.5t144.5 -90.5t99.5 -106t37 -134q0 -63 -28 -120.5t-85 -126.5l-205 145q22 29 31.5 54t9.5 48q0 37 -25 67t-68 57t-100 54t-121 58q-74 36 -134.5 67t-108.5 63t-83.5 67t-59 78.5
t-35 97.5t-11.5 124v659h-203v225h1352v-225h-228v-477q0 -88 -22.5 -150t-62 -101.5t-93.5 -58t-117 -18.5q-41 0 -89.5 8.5t-86.5 22.5v247q22 -13 56 -22.5t65 -9.5q30 0 48 8t27.5 25t12 44t2.5 65v417z" />
    <glyph glyph-name="uni0910" unicode="&#x910;" horiz-adv-x="1282" 
d="M829 1266h-400v-638q0 -70 13 -114t47.5 -78t94.5 -66t154 -78q90 -45 172 -87.5t144.5 -90.5t99.5 -106t37 -134q0 -63 -28 -120.5t-85 -126.5l-205 145q22 29 31.5 54t9.5 48q0 37 -25 67t-68 57t-100 54t-121 58q-74 36 -134.5 67t-108.5 63t-83.5 67t-59 78.5
t-35 97.5t-11.5 124v659h-203v225h1352v-225h-228v-477q0 -88 -22.5 -150t-62 -101.5t-93.5 -58t-117 -18.5q-41 0 -89.5 8.5t-86.5 22.5v247q22 -13 56 -22.5t65 -9.5q30 0 48 8t27.5 25t12 44t2.5 65v417zM854 1463l-29 54q-52 98 -91.5 167t-72 114.5t-59.5 71t-54.5 38
t-58 15.5t-68.5 3h-204v224h186q79 0 135.5 -5t101.5 -26.5t85.5 -64.5t88 -119.5t108.5 -191.5t147 -280h-215z" />
    <glyph glyph-name="uni0911" unicode="&#x911;" horiz-adv-x="2383" 
d="M1011 823q18 -2 33 -3.5t34 -1.5q64 0 126.5 15t104.5 36v622h479v-225h-218v-1266h-261v646q-12 -6 -31 -12t-41.5 -11t-46.5 -8t-46 -3q5 -25 8 -45t3 -46q0 -90 -34 -161.5t-93.5 -121t-140 -76t-172.5 -26.5q-95 0 -173 27t-142 73.5t-115.5 109.5t-93 135.5t-74 151
t-58.5 155.5l223 90q18 -57 40.5 -117t51 -116.5t63 -106t76 -87t90 -59t105.5 -21.5q88 0 134.5 51t46.5 137q0 53 -17 91t-47 63t-71 36.5t-89 11.5q-10 0 -24 -0.5t-29 -1.5l-30 -2t-26 -2v225q9 -1 18.5 -1h18.5q52 0 97 8t78 27.5t52 52.5t19 82q0 75 -44 109t-119 34
q-56 0 -110 -15.5t-105 -37.5l-60 218q72 35 147.5 52t144.5 17q91 0 166.5 -27t129.5 -74t84 -110.5t30 -136.5q0 -88 -44.5 -163.5t-132.5 -132.5l1 -5q23 -11 44 -25t40 -29zM2418 1266h-218v-1266h-261v1266h-221v225h700v-225zM1771 2140q4 -16 12 -44.5t22.5 -62.5
t36 -69t52.5 -63.5t72.5 -46.5t95.5 -18q52 0 93 17t72 44t53.5 61t38 67.5t24.5 64t15 51.5l214 -74q-10 -41 -27 -90t-44 -99t-65.5 -97t-91.5 -83.5t-121.5 -58.5t-154.5 -22q-104 0 -189 32.5t-149.5 92t-109 142t-68.5 183.5z" />
    <glyph glyph-name="uni0912" unicode="&#x912;" horiz-adv-x="2383" 
d="M1011 823q18 -2 33 -3.5t34 -1.5q64 0 126.5 15t104.5 36v622h479v-225h-218v-1266h-261v646q-12 -6 -31 -12t-41.5 -11t-46.5 -8t-46 -3q5 -25 8 -45t3 -46q0 -90 -34 -161.5t-93.5 -121t-140 -76t-172.5 -26.5q-95 0 -173 27t-142 73.5t-115.5 109.5t-93 135.5t-74 151
t-58.5 155.5l223 90q18 -57 40.5 -117t51 -116.5t63 -106t76 -87t90 -59t105.5 -21.5q88 0 134.5 51t46.5 137q0 53 -17 91t-47 63t-71 36.5t-89 11.5q-10 0 -24 -0.5t-29 -1.5l-30 -2t-26 -2v225q9 -1 18.5 -1h18.5q52 0 97 8t78 27.5t52 52.5t19 82q0 75 -44 109t-119 34
q-56 0 -110 -15.5t-105 -37.5l-60 218q72 35 147.5 52t144.5 17q91 0 166.5 -27t129.5 -74t84 -110.5t30 -136.5q0 -88 -44.5 -163.5t-132.5 -132.5l1 -5q23 -11 44 -25t40 -29zM2418 1266h-218v-1266h-261v1266h-221v225h700v-225zM1943 1463q-10 87 -32.5 135.5t-55 72.5
t-74.5 29.5t-91 6.5q-48 1 -95 3.5t-91 13t-84.5 33t-75 63.5t-62.5 105t-47 157l226 48q13 -49 24 -83t24.5 -56.5t31 -35.5t42.5 -20t60 -9.5t83 -4.5q53 -2 104.5 -5t98 -16.5t87.5 -40.5t73.5 -77.5t55.5 -128t34 -190.5h-236z" />
    <glyph glyph-name="uni0913" unicode="&#x913;" horiz-adv-x="2383" 
d="M1011 823q18 -2 33 -3.5t34 -1.5q64 0 126.5 15t104.5 36v622h479v-225h-218v-1266h-261v646q-12 -6 -31 -12t-41.5 -11t-46.5 -8t-46 -3q5 -25 8 -45t3 -46q0 -90 -34 -161.5t-93.5 -121t-140 -76t-172.5 -26.5q-95 0 -173 27t-142 73.5t-115.5 109.5t-93 135.5t-74 151
t-58.5 155.5l223 90q18 -57 40.5 -117t51 -116.5t63 -106t76 -87t90 -59t105.5 -21.5q88 0 134.5 51t46.5 137q0 53 -17 91t-47 63t-71 36.5t-89 11.5q-10 0 -24 -0.5t-29 -1.5l-30 -2t-26 -2v225q9 -1 18.5 -1h18.5q52 0 97 8t78 27.5t52 52.5t19 82q0 75 -44 109t-119 34
q-56 0 -110 -15.5t-105 -37.5l-60 218q72 35 147.5 52t144.5 17q91 0 166.5 -27t129.5 -74t84 -110.5t30 -136.5q0 -88 -44.5 -163.5t-132.5 -132.5l1 -5q23 -11 44 -25t40 -29zM2418 1266h-218v-1266h-261v1266h-221v225h700v-225zM1965 1463l-29 54q-52 98 -91.5 167
t-72 114.5t-59.5 71t-54.5 38t-58 15.5t-68.5 3h-204v224h186q79 0 135.5 -5t101.5 -26.5t85.5 -64.5t88 -119.5t108.5 -191.5t147 -280h-215z" />
    <glyph glyph-name="uni0914" unicode="&#x914;" horiz-adv-x="2383" 
d="M1011 823q18 -2 33 -3.5t34 -1.5q64 0 126.5 15t104.5 36v622h479v-225h-218v-1266h-261v646q-12 -6 -31 -12t-41.5 -11t-46.5 -8t-46 -3q5 -25 8 -45t3 -46q0 -90 -34 -161.5t-93.5 -121t-140 -76t-172.5 -26.5q-95 0 -173 27t-142 73.5t-115.5 109.5t-93 135.5t-74 151
t-58.5 155.5l223 90q18 -57 40.5 -117t51 -116.5t63 -106t76 -87t90 -59t105.5 -21.5q88 0 134.5 51t46.5 137q0 53 -17 91t-47 63t-71 36.5t-89 11.5q-10 0 -24 -0.5t-29 -1.5l-30 -2t-26 -2v225q9 -1 18.5 -1h18.5q52 0 97 8t78 27.5t52 52.5t19 82q0 75 -44 109t-119 34
q-56 0 -110 -15.5t-105 -37.5l-60 218q72 35 147.5 52t144.5 17q91 0 166.5 -27t129.5 -74t84 -110.5t30 -136.5q0 -88 -44.5 -163.5t-132.5 -132.5l1 -5q23 -11 44 -25t40 -29zM2418 1266h-218v-1266h-261v1266h-221v225h700v-225zM1949 1456l-41 44q-46 49 -91 87.5
t-96 65.5t-113 41t-142 14h-200v199h155q59 0 104.5 -2t86 -12.5t80.5 -32t87 -61.5t105.5 -101.5t136.5 -150.5l10 4q-67 103 -117 177.5t-90.5 125t-74 81t-68.5 46.5t-74 21t-90 5h-191v203h179q113 0 187 -20t125 -59t88 -96t76 -130l237 -449h-269z" />
    <glyph glyph-name="uni0915" unicode="&#x915;" horiz-adv-x="1855" 
d="M1184 410q63 33 110 72t78.5 80.5t47 83t15.5 79.5q0 25 -7 54t-23.5 53t-42.5 40t-64 16q-39 0 -76 -19.5t-69 -52t-58.5 -74t-45.5 -86.5v-656h-261v329l-2 1q-12 -8 -31.5 -19.5t-46.5 -22.5t-62 -19t-77 -8q-88 0 -169.5 37.5t-144 102t-100 151.5t-37.5 185
q0 82 27.5 156t79 130t125.5 89t168 33q67 0 130 -21t138 -76l2 1v217h-823v225h1925v-225h-841v-236l2 -1q35 32 72 52t73 31t68 15t58 4q88 0 157 -35t117 -91.5t73.5 -128.5t25.5 -147q0 -78 -27 -153.5t-77 -144.5t-121 -129.5t-159 -109.5zM794 804q-20 20 -43 41
t-50 37.5t-59 27t-70 10.5q-46 0 -81 -16t-59 -43t-36 -63t-12 -76q0 -46 15 -86t43.5 -70t68 -47t89.5 -17q57 0 94.5 21t59.5 54.5t31 74.5t9 81v71z" />
    <glyph glyph-name="uni0916" unicode="&#x916;" horiz-adv-x="1965" 
d="M1409 15q-45 -18 -90.5 -30t-87.5 -19t-80 -9.5t-69 -2.5q-146 0 -282.5 51t-262.5 156t-240.5 266t-217.5 381l210 121q36 -80 67.5 -109.5t60.5 -29.5q43 0 72 49t29 131q0 69 -21 146.5t-55 149.5h-477v225h2035v-225h-218v-1266h-261v411l-4 1q-57 -45 -116.5 -63
t-116.5 -18q-83 0 -158 32t-132 89t-91 135.5t-34 170.5q0 75 23.5 144t69.5 122t112.5 84.5t152.5 31.5q87 0 158.5 -30t131.5 -78l4 1v233h-816q35 -81 53 -153.5t18 -150.5q0 -64 -13.5 -124.5t-44.5 -112t-82 -92t-126 -64.5v-5q84 -122 165 -197.5t158 -117.5
t148.5 -56.5t136.5 -14.5q73 0 141.5 15.5t149.5 48.5v-227zM1530 804q-15 15 -39.5 36.5t-55 40.5t-67 32.5t-76.5 13.5q-42 0 -75.5 -15.5t-56.5 -41t-35.5 -58.5t-12.5 -69q0 -41 15.5 -77t42.5 -63t63.5 -43t79.5 -16q34 0 72 12t70.5 39.5t53.5 72.5t21 111v25z" />
    <glyph glyph-name="uni0917" unicode="&#x917;" horiz-adv-x="1392" 
d="M1427 1266h-218v-1267h-261v1267h-366v-753q0 -28 -1.5 -54.5t-9 -46.5t-24 -32.5t-45.5 -12.5q-40 0 -85 22.5t-89 59t-84 82t-70.5 92t-48.5 89.5t-18 74q0 13 4.5 26t17.5 23t35.5 16t58.5 6h100v409h-358v225h1462v-225z" />
    <glyph glyph-name="uni0918" unicode="&#x918;" horiz-adv-x="1395" 
d="M1430 1266h-218v-1266h-261v261l-4 1q-69 -51 -143.5 -71t-140.5 -20q-101 0 -180 35.5t-133.5 92.5t-83 129t-28.5 144q0 73 32 141.5t104 123.5l-1 4q-57 15 -102 46t-76 73.5t-47 94t-16 108.5q0 21 3 49t11 54h-181v225h1465v-225zM408 1266q-15 -50 -15 -93
q0 -45 15.5 -81.5t44 -62t68.5 -39t89 -13.5q58 0 127 21l41 -205q-15 -2 -41 -8t-56.5 -17.5t-62.5 -28.5t-57.5 -41t-42 -55.5t-16.5 -70.5q0 -34 12.5 -63t36 -50t55.5 -33t71 -12q47 0 90.5 16.5t79.5 42t62.5 54.5t41.5 55v684h-543z" />
    <glyph glyph-name="uni0919" unicode="&#x919;" horiz-adv-x="1800" 
d="M1387 841q0 30 10.5 56t29.5 45t45.5 30t58.5 11q31 0 58 -11t46.5 -30.5t31 -46t11.5 -57.5t-10.5 -57t-30 -44.5t-46 -29t-57.5 -10.5t-58 10.5t-46.5 30t-31 45.5t-11.5 58zM1835 1266h-595v-339h-503q-51 0 -69.5 -15t-18.5 -48q0 -17 5.5 -37t20.5 -37t41 -29
t67 -12h280q83 0 139.5 -25.5t91 -69.5t49.5 -103.5t15 -126.5q0 -95 -31.5 -180t-94.5 -149.5t-158 -102.5t-222 -38q-134 0 -256.5 47.5t-224.5 131.5t-179.5 200.5t-120.5 254.5l225 90q33 -95 88 -182t127 -154.5t158.5 -107.5t182.5 -40q59 0 104.5 16t76 45t46.5 70
t16 91q0 36 -7.5 59t-24 36t-41.5 17.5t-59 4.5h-284q-77 0 -132.5 37t-92 93.5t-54 123.5t-17.5 128q0 66 18 109.5t51 70t78.5 37.5t99.5 11h349v123h-1014v225h1870v-225z" />
    <glyph glyph-name="uni091A" unicode="&#x91a;" horiz-adv-x="1449" 
d="M1484 1266h-210v-1266h-268v311l-4 3q-35 -30 -74 -50.5t-79 -33t-79 -18t-75 -5.5q-91 0 -166 30t-128.5 81.5t-83 121t-29.5 147.5q0 53 17 111.5t61 112.5l-1 6h-254v225h782v-225h-121q-68 0 -110.5 -19t-67 -47.5t-33.5 -61.5t-9 -60q0 -30 10 -61.5t32 -57.5
t57 -42.5t85 -16.5q47 0 87.5 14.5t74.5 37.5t61 52t47 58v653h-1041v225h1519v-225z" />
    <glyph glyph-name="uni091B" unicode="&#x91b;" horiz-adv-x="1737" 
d="M1772 1266h-473v-100q67 -20 119.5 -64t88.5 -104.5t54.5 -134.5t18.5 -153q0 -98 -28 -191.5t-78.5 -176.5t-122.5 -152.5t-160.5 -120t-190.5 -78.5t-214 -28q-123 0 -212.5 32t-148.5 84.5t-87.5 119.5t-28.5 136q0 47 12.5 94t38.5 87l-2 5q-78 29 -123 72t-67.5 87
t-28 83.5t-5.5 62.5q0 75 27.5 134t73.5 100.5t106 63t126 21.5q50 0 107 -12.5t109 -37.5v-217q-38 18 -81.5 29.5t-79.5 11.5q-24 0 -47.5 -6.5t-42 -20.5t-30 -37.5t-11.5 -57.5q0 -38 14.5 -64t39 -42t56.5 -23t66 -7q35 0 70 6t65 15l56 -195q-51 -9 -87.5 -25.5
t-59 -37.5t-33 -45.5t-10.5 -49.5q0 -61 56.5 -101t167.5 -40q70 0 138.5 18t130 52t113 83t88.5 112q-82 18 -153 53t-123.5 87t-83 119.5t-30.5 148.5q0 103 47.5 178t128.5 111v116h-1083v225h1807v-225zM1334 724q0 59 -11 107.5t-30.5 82.5t-46 52.5t-56.5 18.5
q-37 0 -62.5 -26.5t-25.5 -76.5q0 -40 18.5 -75.5t49.5 -64.5t72.5 -51t87.5 -35q2 17 3 34t1 34z" />
    <glyph glyph-name="uni091C" unicode="&#x91c;" horiz-adv-x="1652" 
d="M1687 1266h-218v-1266h-261v788h-253l-1 -3q54 -54 80 -122t26 -137q0 -63 -21.5 -122t-65 -105t-109.5 -73.5t-155 -27.5q-101 0 -182.5 36t-147 98.5t-115 146t-85.5 179t-60.5 197.5t-38.5 201l237 43q29 -184 72 -307.5t92.5 -198.5t101 -106.5t97.5 -31.5
q51 0 86.5 34t35.5 98q0 34 -12 72.5t-36 75t-60 68.5t-84 55v156h598v252h-1243v225h1722v-225z" />
    <glyph glyph-name="uni091D" unicode="&#x91d;" horiz-adv-x="1734" 
d="M768 11q44 -38 88.5 -69.5t86.5 -56t79.5 -43t69.5 -31.5l-123 -212q-68 34 -134 78t-125 92.5t-110 99.5t-89 99q-74 0 -134 20.5t-102 55t-65 79.5t-23 95q0 34 14 62t37.5 48t55 31.5t67.5 11.5q85 0 155.5 -42t122.5 -120q54 8 91 24.5t59.5 39.5t32 51.5t9.5 60.5
q0 36 -10.5 58t-28 34t-41 16t-50.5 4h-262q-59 0 -106 18t-82.5 49t-60.5 70.5t-41 83.5t-23 88t-7 83q0 69 20 117t54.5 78.5t79.5 44t95 13.5h341v124h-744v225h1804v-225h-218v-1266h-261v505l-4 1q-51 -32 -96.5 -44t-99.5 -14q1 -5 1 -13.5v-13.5q0 -71 -19 -134
t-58.5 -115t-100.5 -91t-144 -63zM1290 752v514h-320v-349h-477q-64 0 -88 -18t-24 -56q0 -18 6 -38t21 -36.5t42 -27.5t69 -11h272q81 0 136 -21.5t91 -59.5q34 0 66.5 3.5t65.5 14.5t67.5 31t72.5 54z" />
    <glyph glyph-name="uni091E" unicode="&#x91e;" horiz-adv-x="1768" 
d="M583 741l-102 206q66 45 146.5 70t158.5 25q81 0 146 -26.5t113 -71t78.5 -103.5t42.5 -124q52 4 90 17.5t68 38.5v493h-1359v225h1838v-225h-218v-1266h-261v532l-5 1q-36 -20 -73.5 -27.5t-89.5 -9.5q-17 -55 -48 -103t-78 -83t-109.5 -55.5t-142.5 -20.5
q-115 0 -219.5 42t-194 113.5t-160 166.5t-118.5 202l208 113q48 -86 101 -157t110.5 -123t120 -80.5t129.5 -28.5q47 0 81.5 14t57 38.5t33.5 57t11 68.5q0 75 -42 113t-110 38q-59 0 -110.5 -23t-92.5 -47z" />
    <glyph glyph-name="uni091F" unicode="&#x91f;" horiz-adv-x="1298" 
d="M1115 98q-91 -57 -189.5 -84.5t-204.5 -27.5q-139 0 -249.5 46t-188 125.5t-118.5 185.5t-41 227q0 113 35.5 198.5t99.5 142.5t153 86t196 29h149v240h-792v225h1368v-225h-315v-464h-357q-63 0 -113.5 -14t-86 -44t-54 -77.5t-18.5 -114.5q0 -74 23 -134t63.5 -102
t96.5 -64.5t123 -22.5q51 0 106.5 13t110.5 34t107 48t96 55v-281z" />
    <glyph glyph-name="uni0920" unicode="&#x920;" horiz-adv-x="1499" 
d="M1332 493q0 -112 -40.5 -206.5t-115 -163.5t-180.5 -108t-236 -39q-147 0 -260.5 47t-191 125t-118 179t-40.5 209q0 104 34 181t87.5 132t119.5 90.5t130 56.5t112.5 33t83.5 33q26 15 37.5 36.5t11.5 58.5v109h-801v225h1569v-225h-507v-114q0 -52 -8.5 -93.5
t-24.5 -75.5q168 -88 253 -207.5t85 -282.5zM416 508q0 -68 24 -124t67 -96.5t102 -63t128 -22.5q70 0 131.5 24t107 66.5t71.5 101.5t26 129q0 53 -14.5 96.5t-37.5 78t-52 61t-58 45t-54.5 30.5t-42.5 18q-36 -12 -79.5 -25t-87.5 -30.5t-86 -41.5t-74 -58t-51.5 -80.5
t-19.5 -108.5z" />
    <glyph glyph-name="uni0921" unicode="&#x921;" horiz-adv-x="1519" 
d="M1554 1266h-314v-339h-503q-51 0 -69.5 -15t-18.5 -48q0 -17 5.5 -37t20.5 -37t41 -29t67 -12h280q83 0 139.5 -25.5t91 -69.5t49.5 -103.5t15 -126.5q0 -95 -31.5 -180t-94.5 -149.5t-158 -102.5t-222 -38q-134 0 -256.5 47.5t-224.5 131.5t-179.5 200.5t-120.5 254.5
l225 90q33 -95 88 -182t127 -154.5t158.5 -107.5t182.5 -40q59 0 104.5 16t76 45t46.5 70t16 91q0 36 -7.5 59t-24 36t-41.5 17.5t-59 4.5h-284q-77 0 -132.5 37t-92 93.5t-54 123.5t-17.5 128q0 66 18 109.5t51 70t78.5 37.5t99.5 11h349v123h-1014v225h1589v-225z" />
    <glyph glyph-name="uni0922" unicode="&#x922;" horiz-adv-x="1296" 
d="M1331 1266h-302v-448h-374q-137 0 -204.5 -69.5t-67.5 -193.5q0 -48 10 -94.5t29 -86t46.5 -71t63.5 -50.5l2 3q-8 29 -11 56t-3 53q0 65 20 122t59.5 99t97.5 66t134 24q82 0 147 -27.5t110 -73t69 -105t24 -122.5q0 -71 -30 -137.5t-87.5 -119t-141 -84t-189.5 -31.5
q-128 0 -240.5 47t-195.5 129.5t-131 195.5t-48 244q0 110 34.5 194t96.5 140.5t148.5 85.5t190.5 29h180v225h-803v225h1366v-225zM730 202q61 1 104 16.5t70.5 39t40 53t12.5 59.5q0 51 -31.5 82t-79.5 31q-32 0 -56.5 -14t-42 -38t-26.5 -56.5t-9 -69.5q0 -49 18 -103z
" />
    <glyph glyph-name="uni0923" unicode="&#x923;" horiz-adv-x="1676" 
d="M1711 1266h-218v-1266h-261v1266h-225v-547q0 -109 -31.5 -188t-86.5 -130.5t-130 -76t-161 -24.5q-97 0 -174.5 28.5t-131.5 84t-82.5 137.5t-28.5 190v526h-216v225h1746v-225zM442 1266v-499q0 -43 8 -83.5t25.5 -71.5t46.5 -49.5t71 -18.5q43 0 72 18.5t47 49.5
t26 71.5t8 83.5v499h-304z" />
    <glyph glyph-name="uni0924" unicode="&#x924;" horiz-adv-x="1339" 
d="M1374 1266h-218v-1267h-261v802h-276q-57 0 -99.5 -7.5t-70 -26t-41 -50.5t-13.5 -80q0 -63 22 -125.5t62 -124t96 -122t124 -119.5l-158 -177q-23 13 -62 43.5t-84.5 76t-92.5 105.5t-85 133.5t-62 160t-24 184.5q0 109 31.5 178t88.5 108t135.5 53.5t173.5 14.5h335
v240h-930v225h1409v-225z" />
    <glyph glyph-name="uni0925" unicode="&#x925;" horiz-adv-x="1455" 
d="M492 739q29 -115 94 -165t154 -50q91 0 158.5 46t112.5 130v791h479v-225h-218v-1266h-261v371l-3 1q-24 -18 -51 -34.5t-60 -29t-73.5 -20.5t-90.5 -8q-85 0 -154.5 23t-125.5 63t-99 94.5t-74.5 118t-51.5 133t-30 139.5q90 19 152 53t101 77.5t56 93.5t17 102
q0 39 -8.5 68.5t-23 49t-33.5 29t-39 9.5q-21 0 -36.5 -9t-26 -23t-15.5 -32.5t-5 -37.5q0 -32 13.5 -62t33.5 -53l-164 -132q-61 54 -90.5 119.5t-29.5 132.5q0 58 22.5 111t64.5 92.5t102.5 63t136.5 23.5q80 0 144 -26t109 -74t69.5 -115.5t24.5 -149.5
q0 -143 -72.5 -252.5t-208.5 -169.5z" />
    <glyph glyph-name="uni0926" unicode="&#x926;" horiz-adv-x="1298" 
d="M1333 1266h-305v-464h-367q-130 0 -201 -60.5t-71 -181.5q0 -67 22 -126.5t62 -104.5t95.5 -71t122.5 -26q29 0 52.5 3.5t41.5 13.5q-9 42 -9 86q0 57 15 110t44 94t72.5 65.5t99.5 24.5q39 0 73 -14t59.5 -41t40.5 -67.5t15 -92.5q0 -47 -12.5 -89.5t-32.5 -80.5
t-47 -71.5t-55 -62.5q67 -109 170 -194l-171 -174q-72 64 -123.5 134t-85.5 146q-40 -13 -79 -18t-79 -5q-73 0 -143 20.5t-131.5 57t-113.5 88.5t-89 115t-58 135.5t-21 150.5q0 113 35.5 199t99 144t152.5 87.5t197 29.5h159v240h-802v225h1368v-225z" />
    <glyph glyph-name="uni0927" unicode="&#x927;" horiz-adv-x="1463" 
d="M532 1183q6 14 11 33.5t5 40.5q0 25 -7.5 43.5t-19.5 30.5t-27 18t-31 6q-43 0 -72.5 -41.5t-29.5 -111.5q0 -114 66.5 -176t183.5 -62q79 0 172 28l33 -214q-25 -3 -67.5 -11.5t-84 -30t-72 -60.5t-30.5 -102q0 -40 13.5 -70.5t37.5 -51t57.5 -31t73.5 -10.5q52 0 96 16
t79 40t60 52t40 51v921h479v-225h-218v-1266h-261v261l-4 1q-35 -28 -72.5 -46.5t-76 -29t-76 -14.5t-71.5 -4q-92 0 -170 31.5t-135 85t-89.5 123.5t-32.5 148q0 60 22.5 119t70.5 114v10q-73 34 -124.5 79t-84.5 97.5t-48.5 110t-15.5 116.5q0 77 27 140.5t74 109.5
t112 71t142 25q81 0 140.5 -26.5t98 -67t57 -90.5t18.5 -96q0 -45 -14.5 -88.5t-31.5 -75.5z" />
    <glyph glyph-name="uni0928" unicode="&#x928;" horiz-adv-x="1418" 
d="M1453 1266h-218v-1266h-280v707h-433q0 -68 -2 -115.5t-11 -77t-28 -43t-53 -13.5q-42 0 -82.5 17t-76 45.5t-65 66t-51 78.5t-33.5 82.5t-12 78.5t11.5 58.5t32.5 31.5t51 12.5t68 2.5h684v335h-990v225h1488v-225z" />
    <glyph glyph-name="uni0929" unicode="&#x929;" horiz-adv-x="1418" 
d="M1453 1266h-218v-1266h-280v707h-433q0 -68 -2 -115.5t-11 -77t-28 -43t-53 -13.5q-42 0 -82.5 17t-76 45.5t-65 66t-51 78.5t-33.5 82.5t-12 78.5t11.5 58.5t32.5 31.5t51 12.5t68 2.5h684v335h-990v225h1488v-225zM491 261q0 30 10.5 56t29.5 45t45.5 30t58.5 11
q31 0 58 -11t46.5 -30.5t31 -46t11.5 -57.5t-10.5 -57t-30 -44.5t-46 -29t-57.5 -10.5t-58 10.5t-46.5 30t-31 45.5t-11.5 58z" />
    <glyph glyph-name="uni092A" unicode="&#x92a;" horiz-adv-x="1306" 
d="M1341 1266h-218v-1266h-261v385l-4 1q-118 -75 -246 -75q-22 0 -62 4t-87 20.5t-96 49t-88.5 89t-65 141.5t-25.5 206v445h-223v225h1376v-225zM862 1266h-413v-461q0 -76 14.5 -124.5t39 -76.5t57.5 -38.5t70 -10.5q80 0 134 37.5t98 107.5v566z" />
    <glyph glyph-name="uni092B" unicode="&#x92b;" horiz-adv-x="1910" 
d="M1085 1046l2 -1q35 32 72 52t73 31t68.5 15t57.5 4q89 0 159.5 -35t119.5 -91.5t75 -128.5t26 -147q0 -78 -27 -153.5t-77 -144.5t-120 -129.5t-157 -109.5l-125 218q62 33 108 72t77 80.5t46 83t15 79.5q0 25 -7 54t-23.5 53t-43 40t-65.5 16q-40 0 -77.5 -19.5
t-70.5 -52t-60 -74t-46 -86.5v-672h-261v360l-2 1q-48 -36 -107.5 -53t-119.5 -17q-70 0 -142.5 26.5t-131.5 85.5t-96.5 153t-37.5 230v480h-222v225h1980v-225h-860v-220zM824 1266h-373v-474q0 -56 8 -103t26.5 -81t50 -53t78.5 -19q63 0 117 39t93 111v580z" />
    <glyph glyph-name="uni092C" unicode="&#x92c;" horiz-adv-x="1348" 
d="M1383 1266h-218v-1266h-261v284l-6 1q-66 -39 -132.5 -57.5t-133.5 -18.5q-101 0 -193.5 38.5t-163 105t-112 156t-41.5 191.5q0 90 33.5 169.5t94.5 139t146 94t188 34.5q19 0 51.5 -2.5t74 -12.5t90 -30.5t100.5 -55.5l4 1v229h-939v225h1418v-225zM379 691
q0 -42 17 -86.5t49.5 -80.5t80.5 -59.5t110 -23.5q55 0 103 17l-273 409q-42 -33 -64.5 -79t-22.5 -97zM908 807q-66 67 -133.5 92.5t-130.5 25.5q-18 0 -34.5 -2t-32.5 -5l264 -395q32 32 49.5 70.5t17.5 75.5v138z" />
    <glyph glyph-name="uni092D" unicode="&#x92d;" horiz-adv-x="1635" 
d="M1191 1491h479v-225h-218v-1266h-261v518h-422v-143q0 -20 -1.5 -41.5t-9 -39.5t-23 -30t-42.5 -12q-36 0 -79.5 21.5t-87.5 56.5t-85 80.5t-73 92.5t-51.5 92.5t-19.5 81.5q0 12 3 24t13.5 21t29 15t50.5 6h122v484q0 51 -27 79t-63 28q-21 0 -37.5 -9t-28.5 -24.5
t-18 -36t-6 -43.5q0 -78 72 -124l-126 -159q-94 57 -137.5 132t-43.5 157q0 61 24 115.5t67.5 95.5t105.5 64.5t137 23.5q76 0 138 -24t105.5 -66t67.5 -99t24 -124v-470h422v748z" />
    <glyph glyph-name="uni092E" unicode="&#x92e;" horiz-adv-x="1469" 
d="M1504 1266h-218v-1266h-261v518h-449v-143q0 -20 -1.5 -41.5t-9 -39.5t-22.5 -30t-42 -12q-37 0 -80 21.5t-87 56.5t-84.5 80.5t-71.5 92.5t-50 92.5t-19 81.5q0 12 3 24t13.5 21t29 15t50.5 6h110v523h-350v225h1539v-225zM576 1266v-523h449v523h-449z" />
    <glyph glyph-name="uni092F" unicode="&#x92f;" horiz-adv-x="1366" 
d="M-35 1266v225h1436v-225h-218v-1266h-261v371l-3 1q-23 -17 -50.5 -33.5t-60.5 -29.5t-73 -21t-89 -8q-128 0 -223.5 50.5t-161.5 133t-105 186.5t-54 212q64 8 107.5 28t70 48.5t38 63t11.5 71.5q0 45 -16 92t-51 101h-297zM594 1032q0 -97 -50 -170.5t-148 -116.5
q14 -59 39.5 -101t58.5 -68.5t72 -39t81 -12.5q94 0 162 46.5t113 129.5v566h-401q38 -61 55.5 -120.5t17.5 -113.5z" />
    <glyph glyph-name="uni0930" unicode="&#x930;" horiz-adv-x="1089" 
d="M1124 1266h-335q38 -78 60.5 -153.5t22.5 -157.5q0 -73 -19.5 -137t-60.5 -115.5t-104.5 -87.5t-151.5 -52l-2 -4q42 -60 85.5 -116t91.5 -110t102 -107t118 -107l-165 -183q-79 62 -152 136.5t-139 155.5t-124 164t-106.5 162t-87 150.5t-65.5 128.5l221 113
q34 -90 73 -127t82 -37q28 0 53 13t44 38.5t30.5 62t11.5 84.5q0 67 -24 144t-70 142h-548v225h1159v-225z" />
    <glyph glyph-name="uni0931" unicode="&#x931;" horiz-adv-x="1089" 
d="M1124 1266h-335q38 -78 60.5 -153.5t22.5 -157.5q0 -73 -19.5 -137t-60.5 -115.5t-104.5 -87.5t-151.5 -52l-2 -4q42 -60 85.5 -116t91.5 -110t102 -107t118 -107l-165 -183q-79 62 -152 136.5t-139 155.5t-124 164t-106.5 162t-87 150.5t-65.5 128.5l221 113
q34 -90 73 -127t82 -37q28 0 53 13t44 38.5t30.5 62t11.5 84.5q0 67 -24 144t-70 142h-548v225h1159v-225zM74 171q0 30 10.5 56t29.5 45t45.5 30t58.5 11q31 0 58 -11t46.5 -30.5t31 -46t11.5 -57.5t-10.5 -57t-30 -44.5t-46 -29t-57.5 -10.5t-58 10.5t-46.5 30t-31 45.5
t-11.5 58z" />
    <glyph glyph-name="uni0932" unicode="&#x932;" horiz-adv-x="1568" 
d="M1124 0v877q-12 2 -23.5 3.5t-24.5 1.5q-42 0 -73 -16t-51 -42.5t-30 -60t-10 -67.5q0 -14 2 -29t4 -29h-232q-6 46 -15.5 91.5t-26 81t-42 57.5t-62.5 22q-30 0 -51.5 -14.5t-36 -40.5t-21 -61.5t-6.5 -76.5q0 -104 38.5 -187t102 -149t145.5 -117.5t170 -92.5
l-116 -197q-39 15 -99 46.5t-127 79.5t-135 111.5t-122.5 142t-88.5 172t-34 200.5q0 90 26 170t74.5 139.5t117 94t153.5 34.5q58 0 101.5 -15t75 -38t53.5 -50t37 -50l5 1q20 37 48 64t60.5 44.5t67.5 25.5t70 8q18 0 37 -2t39 -6v140h-1159v225h1638v-225h-218v-1266
h-261z" />
    <glyph glyph-name="uni0933" unicode="&#x933;" horiz-adv-x="1941" 
d="M1459 1266v-150q72 -22 129 -65t96.5 -99.5t60 -123t20.5 -134.5q0 -110 -40 -201.5t-107 -157.5t-154.5 -102.5t-181.5 -36.5q-107 0 -198 47.5t-179 132.5q-59 -78 -138 -126t-189 -48q-104 0 -189 36.5t-145 100.5t-93 149t-33 183q0 106 35 193t97 148.5t146.5 95
t183.5 33.5q112 0 209 -44.5t192 -128.5q42 50 94.5 90.5t122.5 60.5v147h-1233v225h2010v-225h-516zM598 922q-47 0 -86.5 -19t-68 -53t-44.5 -81t-16 -102q0 -49 13 -92.5t38 -76t59.5 -51.5t78.5 -19q53 0 91.5 26t70.5 73t63.5 113t71.5 146q-72 73 -139.5 104.5
t-131.5 31.5zM1333 914q-56 0 -97.5 -29.5t-77 -79.5t-68.5 -116.5t-72 -141.5q25 -27 53 -50t58 -40t61.5 -26.5t64.5 -9.5q49 0 93.5 15.5t78.5 48t54 82.5t20 119q0 47 -11 88.5t-32.5 72.5t-53 49t-71.5 18z" />
    <glyph glyph-name="uni0934" unicode="&#x934;" horiz-adv-x="1941" 
d="M1459 1266v-150q72 -22 129 -65t96.5 -99.5t60 -123t20.5 -134.5q0 -110 -40 -201.5t-107 -157.5t-154.5 -102.5t-181.5 -36.5q-107 0 -198 47.5t-179 132.5q-59 -78 -138 -126t-189 -48q-104 0 -189 36.5t-145 100.5t-93 149t-33 183q0 106 35 193t97 148.5t146.5 95
t183.5 33.5q112 0 209 -44.5t192 -128.5q42 50 94.5 90.5t122.5 60.5v147h-1233v225h2010v-225h-516zM598 922q-47 0 -86.5 -19t-68 -53t-44.5 -81t-16 -102q0 -49 13 -92.5t38 -76t59.5 -51.5t78.5 -19q53 0 91.5 26t70.5 73t63.5 113t71.5 146q-72 73 -139.5 104.5
t-131.5 31.5zM1333 914q-56 0 -97.5 -29.5t-77 -79.5t-68.5 -116.5t-72 -141.5q25 -27 53 -50t58 -40t61.5 -26.5t64.5 -9.5q49 0 93.5 15.5t78.5 48t54 82.5t20 119q0 47 -11 88.5t-32.5 72.5t-53 49t-71.5 18zM799 -39q0 30 10.5 56t29.5 45t45.5 30t58.5 11q31 0 58 -11
t46.5 -30.5t31 -46t11.5 -57.5t-10.5 -57t-30 -44.5t-46 -29t-57.5 -10.5t-58 10.5t-46.5 30t-31 45.5t-11.5 58z" />
    <glyph glyph-name="uni0935" unicode="&#x935;" horiz-adv-x="1303" 
d="M1338 1266h-218v-1266h-261v294l-6 1q-60 -39 -123.5 -57.5t-126.5 -18.5q-92 0 -179 37.5t-154.5 103t-108.5 153t-41 187.5q0 92 35 171.5t95 138.5t141 92.5t173 33.5q16 0 46 -2.5t68.5 -12.5t84 -29.5t92.5 -53.5l4 1v227h-894v225h1373v-225zM863 802
q-57 67 -118 92t-114 25q-52 0 -96.5 -18.5t-77 -50t-51 -72.5t-18.5 -86q0 -43 17 -85.5t47.5 -76.5t74 -55.5t97.5 -21.5q53 0 97 21t75.5 54t49 73.5t17.5 79.5v121z" />
    <glyph glyph-name="uni0936" unicode="&#x936;" horiz-adv-x="1738" 
d="M245 1266h-280v225h1808v-225h-218v-1266h-261v1266h-292l-2 -3q41 -52 62.5 -122.5t21.5 -141.5q0 -73 -23 -142.5t-65 -132.5t-101 -117.5t-131 -96.5v-5q47 -30 100 -77t105 -101.5t100 -113t87 -111.5l-184 -147q-37 49 -86 108t-105.5 119t-119 116.5t-126.5 101.5
q-80 -30 -162 -30q-63 0 -111 17.5t-80.5 45.5t-49 63t-16.5 70q0 31 13 59.5t38.5 50.5t64.5 35.5t91 13.5q60 0 122.5 -18t116.5 -51q11 3 34.5 13.5t53 29.5t60.5 46.5t57 64.5t42.5 84t16.5 105q0 51 -14 98t-41.5 83t-67.5 57.5t-91 21.5q-38 0 -63.5 -11t-41 -29
t-22 -40t-6.5 -44q0 -63 44.5 -96.5t128.5 -33.5v-226q-8 -1 -13.5 -1h-6.5q-96 0 -173 27t-130.5 73.5t-82.5 108.5t-29 133q0 70 30 144z" />
    <glyph glyph-name="uni0937" unicode="&#x937;" horiz-adv-x="1346" 
d="M1381 1266h-218v-1266h-261v385l-4 1q-66 -38 -132.5 -56.5t-138.5 -18.5q-23 0 -64 4t-90 20.5t-99.5 49t-92 89t-67.5 141.5t-26 206v445h-223v225h1416v-225zM645 555q57 0 102 16t87 47l1 4l-382 541l-4 -1v-357q0 -76 15.5 -124.5t42.5 -76.5t62.5 -38.5t75.5 -10.5
zM902 1266h-372l-1 -4l370 -524l3 1v527z" />
    <glyph glyph-name="uni0938" unicode="&#x938;" horiz-adv-x="1634" 
d="M-35 1491h1704v-225h-218v-1266h-261v619h-515q-58 -39 -139 -56l-2 -4q29 -60 65 -116t80.5 -110t98.5 -107t118 -107l-165 -183q-70 62 -138 138.5t-131.5 159.5t-120.5 169t-106 167.5t-88 154.5t-66 130l221 113q38 -97 80.5 -141.5t87.5 -44.5q26 0 45.5 14t32 38.5
t18.5 58.5t6 75q0 80 -23 154t-71 144h-513v225zM1190 842v424h-441q38 -78 59.5 -153.5t21.5 -157.5q0 -29 -3 -57t-8 -56h371z" />
    <glyph glyph-name="uni0939" unicode="&#x939;" horiz-adv-x="1297" 
d="M739 306q75 29 109 59t34 77q0 27 -11.5 50.5t-37 41t-65.5 27.5t-96 10q-47 0 -92 -8.5t-80 -31t-56.5 -60.5t-21.5 -96q0 -61 23 -113.5t61 -97.5t87.5 -82.5t102.5 -68.5t105.5 -54.5t97.5 -40.5l-99 -211q-78 33 -155.5 71t-148 82.5t-130.5 97t-104.5 115
t-69.5 136.5t-25 161q0 88 25.5 156.5t70.5 119.5q-21 31 -39 65.5t-30.5 69.5t-20 69.5t-7.5 66.5q0 42 14 81t45.5 69t81.5 48t122 18h408v133h-872v225h1367v-225h-232v-346h-597q-13 0 -26.5 -3.5t-25 -12t-19 -23.5t-7.5 -38t6.5 -42.5t17.5 -36.5q105 35 223 35
q94 0 178.5 -21.5t148.5 -65.5t101.5 -112t37.5 -161q0 -80 -27 -137.5t-70.5 -99.5t-98.5 -71.5t-112 -51.5z" />
    <glyph glyph-name="uni093A" unicode="&#x93a;" 
d="M-126 1854v-391h-261v391h261z" />
    <glyph glyph-name="uni093B" unicode="&#x93b;" horiz-adv-x="630" 
d="M665 1266h-218v-1266h-261v1266h-221v225h700v-225zM447 1854v-391h-261v391h261z" />
    <glyph glyph-name="uni093C" unicode="&#x93c;" 
d="M-404 -249q0 30 10.5 56t29.5 45t45.5 30t58.5 11q31 0 58 -11t46.5 -30.5t31 -46t11.5 -57.5t-10.5 -57t-30 -44.5t-46 -29t-57.5 -10.5t-58 10.5t-46.5 30t-31 45.5t-11.5 58z" />
    <glyph glyph-name="uni093D" unicode="&#x93d;" horiz-adv-x="1283" 
d="M1062 1266h-498q-30 0 -54 -3t-40.5 -12t-25.5 -25.5t-9 -42.5q0 -56 34 -99t88.5 -81.5t122.5 -75.5t136 -79q58 -36 111 -78.5t94 -95.5t65.5 -119t24.5 -149q0 -82 -26 -163t-80.5 -145t-140 -104t-204.5 -40q-104 0 -189.5 29t-154.5 73.5t-121.5 96.5t-89.5 98
l187 158q78 -112 168.5 -169t184.5 -57q51 0 89.5 17.5t64.5 47t39 68.5t13 83q0 60 -24 106t-64 83t-92.5 68t-109.5 62q-68 37 -136.5 78t-123.5 96t-89 128.5t-34 175.5q0 70 19.5 124.5t64 92.5t115.5 58t174 20h511v-225z" />
    <glyph glyph-name="uni093E" unicode="&#x93e;" horiz-adv-x="630" 
d="M665 1266h-218v-1266h-261v1266h-221v225h700v-225z" />
    <glyph glyph-name="uni093F" unicode="&#x93f;" horiz-adv-x="630" 
d="M665 1266h-218v-1267h-261v1267h-221v225h225q-56 124 -56 230q0 80 29 151t89.5 124t155 83.5t225.5 30.5q157 0 296.5 -45t264.5 -127.5t238 -199t217 -258.5h-240q-35 35 -81.5 79t-103.5 89t-122.5 87.5t-137.5 76t-150 53.5t-159 20q-71 0 -123 -16t-86 -45
t-50 -68.5t-16 -87.5q0 -42 12.5 -85.5t38.5 -91.5h234v-225z" />
    <glyph glyph-name="uni0940" unicode="&#x940;" horiz-adv-x="630" 
d="M665 1266h-218v-1266h-261v1266h-221v225h225q-19 93 -48 158t-63 109t-70.5 69t-70.5 38t-63.5 16.5t-48.5 3.5q-95 0 -142 -41.5t-47 -104.5q0 -60 38.5 -126t111.5 -133h-288q-63 76 -94.5 156t-31.5 155q0 66 27 124.5t81 101.5t135.5 68t191.5 25q152 0 261.5 -48.5
t183.5 -132t117 -196.5t61 -242h234v-225z" />
    <glyph glyph-name="uni0941" unicode="&#x941;" 
d="M-534 -24q66 38 140 58t145 20q63 0 120 -16.5t100.5 -49.5t69.5 -83.5t26 -118.5q0 -81 -36.5 -139.5t-98 -96t-141.5 -55.5t-167 -18q-119 0 -219.5 25.5t-181.5 64t-143 85t-104 88.5l154 182q54 -58 108 -103t113 -75.5t125 -46.5t144 -16q38 0 73.5 4.5t62.5 17
t43.5 34t16.5 55.5q0 24 -8 40.5t-22 27.5t-33 16t-41 5q-24 0 -49 -5t-48 -13.5t-42.5 -18t-31.5 -18.5z" />
    <glyph glyph-name="uni0942" unicode="&#x942;" 
d="M183 -533q-46 89 -93 162t-100.5 125t-116 80.5t-140.5 28.5t-120.5 -27.5t-42.5 -75.5q0 -45 36 -71t95 -26q58 0 123 28l35 -163q-87 -40 -193 -40q-70 0 -133 18t-110.5 53.5t-75.5 87t-28 118.5q0 73 33 127.5t87.5 90.5t124 53.5t141.5 17.5q96 0 178 -25.5
t151 -66.5t125.5 -93.5t101 -106t78 -104t57.5 -88.5z" />
    <glyph glyph-name="uni0943" unicode="&#x943;" 
d="M-126 -115h-109q-72 0 -107 -33t-35 -82q0 -29 11 -49t30 -33t45.5 -19t56.5 -6q41 0 89 9.5t90 23.5l42 -170q-60 -20 -120 -30t-117 -10q-78 0 -146.5 18t-120 54t-81.5 89.5t-30 123.5q0 75 32.5 129t86.5 89t123.5 52t143.5 17h116v-173z" />
    <glyph glyph-name="uni0944" unicode="&#x944;" 
d="M-126 227h-119q-38 0 -65 -8.5t-44 -22t-25 -32t-8 -37.5q0 -26 12 -44.5t32 -30.5t47 -17.5t57 -5.5q62 0 116 17l38 -168q-50 -5 -89 -12.5t-66.5 -21t-42 -33.5t-14.5 -50q0 -51 40.5 -74.5t100.5 -23.5q33 0 64 6t55 15l46 -166q-45 -17 -92 -24.5t-95 -7.5
q-69 0 -135.5 16t-118.5 50t-84 85t-32 122q0 45 14 82t40 69l-1 4q-72 38 -107.5 89t-35.5 123t33 124t87 85t123.5 49t142.5 16h126v-173z" />
    <glyph glyph-name="uni0945" unicode="&#x945;" 
d="M-555 2140q4 -16 12 -44.5t22.5 -62.5t36 -69t52.5 -63.5t72.5 -46.5t95.5 -18q52 0 93 17t72 44t53.5 61t38 67.5t24.5 64t15 51.5l214 -74q-10 -41 -27 -90t-44 -99t-65.5 -97t-91.5 -83.5t-121.5 -58.5t-154.5 -22q-104 0 -189 32.5t-149.5 92t-109 142t-68.5 183.5z
" />
    <glyph glyph-name="uni0946" unicode="&#x946;" 
d="M-383 1463q-10 87 -32.5 135.5t-55 72.5t-74.5 29.5t-91 6.5q-48 1 -95 3.5t-91 13t-84.5 33t-75 63.5t-62.5 105t-47 157l226 48q13 -49 24 -83t24.5 -56.5t31 -35.5t42.5 -20t60 -9.5t83 -4.5q53 -2 104.5 -5t98 -16.5t87.5 -40.5t73.5 -77.5t55.5 -128t34 -190.5h-236
z" />
    <glyph glyph-name="uni0947" unicode="&#x947;" 
d="M-361 1463l-29 54q-52 98 -91.5 167t-72 114.5t-59.5 71t-54.5 38t-58 15.5t-68.5 3h-204v224h186q79 0 135.5 -5t101.5 -26.5t85.5 -64.5t88 -119.5t108.5 -191.5t147 -280h-215z" />
    <glyph glyph-name="uni0948" unicode="&#x948;" 
d="M-377 1456l-41 44q-46 49 -91 87.5t-96 65.5t-113 41t-142 14h-200v199h155q59 0 104.5 -2t86 -12.5t80.5 -32t87 -61.5t105.5 -101.5t136.5 -150.5l10 4q-67 103 -117 177.5t-90.5 125t-74 81t-68.5 46.5t-74 21t-90 5h-191v203h179q113 0 187 -20t125 -59t88 -96
t76 -130l237 -449h-269z" />
    <glyph glyph-name="uni0949" unicode="&#x949;" horiz-adv-x="630" 
d="M665 1266h-218v-1266h-261v1266h-221v225h700v-225zM18 2140q4 -16 12 -44.5t22.5 -62.5t36 -69t52.5 -63.5t72.5 -46.5t95.5 -18q52 0 93 17t72 44t53.5 61t38 67.5t24.5 64t15 51.5l214 -74q-10 -41 -27 -90t-44 -99t-65.5 -97t-91.5 -83.5t-121.5 -58.5t-154.5 -22
q-104 0 -189 32.5t-149.5 92t-109 142t-68.5 183.5z" />
    <glyph glyph-name="uni094A" unicode="&#x94a;" horiz-adv-x="630" 
d="M665 1266h-218v-1266h-261v1266h-221v225h700v-225zM190 1463q-10 87 -32.5 135.5t-55 72.5t-74.5 29.5t-91 6.5q-48 1 -95 3.5t-91 13t-84.5 33t-75 63.5t-62.5 105t-47 157l226 48q13 -49 24 -83t24.5 -56.5t31 -35.5t42.5 -20t60 -9.5t83 -4.5q53 -2 104.5 -5
t98 -16.5t87.5 -40.5t73.5 -77.5t55.5 -128t34 -190.5h-236z" />
    <glyph glyph-name="uni094B" unicode="&#x94b;" horiz-adv-x="630" 
d="M665 1266h-218v-1266h-261v1266h-221v225h700v-225zM212 1463l-29 54q-52 98 -91.5 167t-72 114.5t-59.5 71t-54.5 38t-58 15.5t-68.5 3h-204v224h186q79 0 135.5 -5t101.5 -26.5t85.5 -64.5t88 -119.5t108.5 -191.5t147 -280h-215z" />
    <glyph glyph-name="uni094C" unicode="&#x94c;" horiz-adv-x="630" 
d="M665 1266h-218v-1266h-261v1266h-221v225h700v-225zM199 1456l-41 44q-46 49 -91 87.5t-96 65.5t-113 41t-142 14h-200v199h155q59 0 104.5 -2t86 -12.5t80.5 -32t87 -61.5t105.5 -101.5t136.5 -150.5l10 4q-67 103 -117 177.5t-90.5 125t-74 81t-68.5 46.5t-74 21t-90 5
h-191v203h179q113 0 187 -20t125 -59t88 -96t76 -130l237 -449h-269z" />
    <glyph glyph-name="uni094D" unicode="&#x94d;" 
d="M-50 -559l-391 365l163 174l394 -362z" />
    <glyph glyph-name="uni094E" unicode="&#x94e;" horiz-adv-x="640" 
d="M675 1266h-218v-1266h-261v1491h479v-225z" />
    <glyph glyph-name="uni094F" unicode="&#x94f;" horiz-adv-x="630" 
d="M665 1266h-218v-1266h-261v1266h-221v225h228q-50 79 -100.5 110t-106.5 31q-47 0 -86.5 -12t-81.5 -26q-82 -28 -153 -28q-39 0 -76 9.5t-72 32t-68.5 59.5t-66.5 92l116 83q24 -29 43 -47.5t37 -30t37 -16t42 -4.5q43 0 83 11t79 24t78 24t81 11q40 0 81.5 -11.5
t82.5 -38t81 -71t76 -110.5h5q2 14 3 26.5t1 23.5q0 55 -21 92t-55.5 64t-78 46.5t-89.5 39.5t-89.5 44t-78 59t-55.5 84.5t-21 121.5q0 51 14 121l138 -21q-3 -14 -4 -27.5t-1 -22.5q0 -49 21 -82.5t56 -58t79.5 -43.5t90.5 -39.5t90.5 -45t79.5 -60.5t56 -86.5t21 -122.5
q0 -43 -8.5 -93.5t-27.5 -111.5h240v-225z" />
    <glyph glyph-name="uni0950" unicode="&#x950;" horiz-adv-x="2404" 
d="M1713 314q32 -7 69 -7q57 0 104.5 19t82.5 53t54.5 81t19.5 104q0 51 -13.5 86t-36 57t-51 32t-57.5 10q-43 0 -77.5 -21t-67.5 -52t-67 -67.5t-74 -67.5t-89.5 -52t-113.5 -21q-31 0 -63 7l-2 -2q3 -23 3 -47q0 -96 -32.5 -178t-94.5 -142.5t-151.5 -95t-203.5 -34.5
q-109 0 -198.5 31.5t-162.5 87t-131.5 131t-106 164t-85 186t-68.5 195.5l223 90q22 -76 49.5 -153.5t61.5 -149.5t75 -135.5t91 -110.5t109.5 -74t129.5 -27q54 0 96.5 16.5t72.5 47t46 73.5t16 96q0 62 -21.5 107t-58.5 74t-88 42.5t-109 13.5q-24 0 -56 -2t-57 -4v225
q9 -1 17 -1h9q60 0 114 14.5t95 43t65 72t24 101.5q0 87 -53.5 124.5t-143.5 37.5q-61 0 -112.5 -14.5t-109.5 -38.5l-60 218q73 35 147 52t150 17q103 0 186 -29.5t141 -81t89 -121.5t31 -151q0 -45 -9.5 -90.5t-31 -88t-55 -79t-81.5 -63.5l1 -6q38 -17 68.5 -39t56.5 -48
q11 -11 22.5 -20.5t26.5 -16t34.5 -10.5t46.5 -4q41 0 78 23.5t75.5 58.5t80 76t91 76t109.5 58.5t135 23.5q82 0 153 -31t123 -86t81.5 -131t29.5 -167q0 -111 -40.5 -203.5t-109.5 -159t-159.5 -103.5t-189.5 -37q-23 0 -46.5 1.5t-46.5 6.5zM1309 1969q4 -16 12.5 -44.5
t23.5 -62.5t37.5 -69t54.5 -63.5t75 -46.5t98 -18q54 0 96.5 17t74.5 44t55 61t39 67.5t25.5 64t15.5 51.5l214 -74q-10 -41 -27.5 -90t-45.5 -99t-67 -97t-93 -83.5t-123.5 -58.5t-157.5 -22q-106 0 -192.5 32.5t-152.5 92t-111.5 142t-69.5 183.5zM1471 1900
q0 30 10.5 55.5t29 44t44 29t56.5 10.5q30 0 56.5 -11t46 -29.5t30.5 -44.5t11 -56t-10.5 -55.5t-29.5 -44t-44.5 -28.5t-56.5 -10t-57 10.5t-45 29t-30 44.5t-11 56z" />
    <glyph glyph-name="uni0951" unicode="&#x951;" 
d="M-374 1644v502h230v-502h-230z" />
    <glyph glyph-name="uni0952" unicode="&#x952;" 
d="M-878 -151h777v-225h-777v225z" />
    <glyph glyph-name="uni0953" unicode="&#x953;" 
d="M-238 1627l-391 365l163 174l394 -362z" />
    <glyph glyph-name="uni0954" unicode="&#x954;" 
d="M-444 1804l394 362l163 -174l-391 -365z" />
    <glyph glyph-name="uni0955" unicode="&#x955;" 
d="M-555 2410q4 -16 12 -44.5t22.5 -62.5t36 -69t52.5 -63.5t72.5 -46.5t95.5 -18q52 0 93 17t72 44t53.5 61t38 67.5t24.5 64t15 51.5l214 -74q-10 -41 -27 -90t-44 -99t-65.5 -97t-91.5 -83.5t-121.5 -58.5t-154.5 -22q-104 0 -189 32.5t-149.5 92t-109 142t-68.5 183.5z
M-668 1807h807v-215h-807v215z" />
    <glyph glyph-name="uni0956" unicode="&#x956;" 
d="M-158 -293q-62 -21 -116 -36t-106.5 -24t-107.5 -13.5t-121 -4.5t-123 4.5t-111.5 13.5t-109.5 24t-117 36v207q62 -21 115.5 -36t106 -24t108 -13.5t121.5 -4.5t122.5 4.5t111 13.5t109.5 24t118 36v-207z" />
    <glyph glyph-name="uni0957" unicode="&#x957;" 
d="M-158 -288q-62 -21 -116 -36t-106.5 -24t-107.5 -13.5t-121 -4.5t-123 4.5t-111.5 13.5t-109.5 24t-117 36v202q62 -21 115.5 -36t106 -24t108 -13.5t121.5 -4.5t122.5 4.5t111 13.5t109.5 24t118 36v-202zM-158 -598q-62 -21 -116 -36t-106.5 -24t-107.5 -13.5
t-121 -4.5t-123 4.5t-111.5 13.5t-109.5 24t-117 36v202q62 -21 115.5 -36t106 -24t108 -13.5t121.5 -4.5t122.5 4.5t111 13.5t109.5 24t118 36v-202z" />
    <glyph glyph-name="uni0958" unicode="&#x958;" horiz-adv-x="1855" 
d="M1184 410q63 33 110 72t78.5 80.5t47 83t15.5 79.5q0 25 -7 54t-23.5 53t-42.5 40t-64 16q-39 0 -76 -19.5t-69 -52t-58.5 -74t-45.5 -86.5v-656h-261v329l-2 1q-12 -8 -31.5 -19.5t-46.5 -22.5t-62 -19t-77 -8q-88 0 -169.5 37.5t-144 102t-100 151.5t-37.5 185
q0 82 27.5 156t79 130t125.5 89t168 33q67 0 130 -21t138 -76l2 1v217h-823v225h1925v-225h-841v-236l2 -1q35 32 72 52t73 31t68 15t58 4q88 0 157 -35t117 -91.5t73.5 -128.5t25.5 -147q0 -78 -27 -153.5t-77 -144.5t-121 -129.5t-159 -109.5zM794 804q-20 20 -43 41
t-50 37.5t-59 27t-70 10.5q-46 0 -81 -16t-59 -43t-36 -63t-12 -76q0 -46 15 -86t43.5 -70t68 -47t89.5 -17q57 0 94.5 21t59.5 54.5t31 74.5t9 81v71zM314 21q0 30 10.5 56t29.5 45t45.5 30t58.5 11q31 0 58 -11t46.5 -30.5t31 -46t11.5 -57.5t-10.5 -57t-30 -44.5t-46 -29
t-57.5 -10.5t-58 10.5t-46.5 30t-31 45.5t-11.5 58z" />
    <glyph glyph-name="uni0959" unicode="&#x959;" horiz-adv-x="1965" 
d="M1409 15q-45 -18 -90.5 -30t-87.5 -19t-80 -9.5t-69 -2.5q-146 0 -282.5 51t-262.5 156t-240.5 266t-217.5 381l210 121q36 -80 67.5 -109.5t60.5 -29.5q43 0 72 49t29 131q0 69 -21 146.5t-55 149.5h-477v225h2035v-225h-218v-1266h-261v411l-4 1q-57 -45 -116.5 -63
t-116.5 -18q-83 0 -158 32t-132 89t-91 135.5t-34 170.5q0 75 23.5 144t69.5 122t112.5 84.5t152.5 31.5q87 0 158.5 -30t131.5 -78l4 1v233h-816q35 -81 53 -153.5t18 -150.5q0 -64 -13.5 -124.5t-44.5 -112t-82 -92t-126 -64.5v-5q84 -122 165 -197.5t158 -117.5
t148.5 -56.5t136.5 -14.5q73 0 141.5 15.5t149.5 48.5v-227zM1530 804q-15 15 -39.5 36.5t-55 40.5t-67 32.5t-76.5 13.5q-42 0 -75.5 -15.5t-56.5 -41t-35.5 -58.5t-12.5 -69q0 -41 15.5 -77t42.5 -63t63.5 -43t79.5 -16q34 0 72 12t70.5 39.5t53.5 72.5t21 111v25zM191 -9
q0 30 10.5 56t29.5 45t45.5 30t58.5 11q31 0 58 -11t46.5 -30.5t31 -46t11.5 -57.5t-10.5 -57t-30 -44.5t-46 -29t-57.5 -10.5t-58 10.5t-46.5 30t-31 45.5t-11.5 58z" />
    <glyph glyph-name="uni095A" unicode="&#x95a;" horiz-adv-x="1392" 
d="M1427 1266h-218v-1267h-261v1267h-366v-753q0 -28 -1.5 -54.5t-9 -46.5t-24 -32.5t-45.5 -12.5q-40 0 -85 22.5t-89 59t-84 82t-70.5 92t-48.5 89.5t-18 74q0 13 4.5 26t17.5 23t35.5 16t58.5 6h100v409h-358v225h1462v-225zM497 131q0 30 10.5 56t29.5 45t45.5 30
t58.5 11q31 0 58 -11t46.5 -30.5t31 -46t11.5 -57.5t-10.5 -57t-30 -44.5t-46 -29t-57.5 -10.5t-58 10.5t-46.5 30t-31 45.5t-11.5 58z" />
    <glyph glyph-name="uni095B" unicode="&#x95b;" horiz-adv-x="1652" 
d="M1687 1266h-218v-1266h-261v788h-253l-1 -3q54 -54 80 -122t26 -137q0 -63 -21.5 -122t-65 -105t-109.5 -73.5t-155 -27.5q-101 0 -182.5 36t-147 98.5t-115 146t-85.5 179t-60.5 197.5t-38.5 201l237 43q29 -184 72 -307.5t92.5 -198.5t101 -106.5t97.5 -31.5
q51 0 86.5 34t35.5 98q0 34 -12 72.5t-36 75t-60 68.5t-84 55v156h598v252h-1243v225h1722v-225zM511 -39q0 30 10.5 56t29.5 45t45.5 30t58.5 11q31 0 58 -11t46.5 -30.5t31 -46t11.5 -57.5t-10.5 -57t-30 -44.5t-46 -29t-57.5 -10.5t-58 10.5t-46.5 30t-31 45.5t-11.5 58z
" />
    <glyph glyph-name="uni095C" unicode="&#x95c;" horiz-adv-x="1509" 
d="M1547 1266h-314v-339h-503q-51 0 -69.5 -15t-18.5 -48q0 -17 5.5 -37t20.5 -37t41 -29t67 -12h280q83 0 139.5 -25.5t91 -69.5t49.5 -103.5t15 -126.5q0 -95 -31.5 -180t-94.5 -149.5t-158 -102.5t-222 -38q-134 0 -256.5 47.5t-224.5 131.5t-179.5 200.5t-120.5 254.5
l225 90q33 -95 88 -182t127 -154.5t158.5 -107.5t182.5 -40q59 0 104.5 16t76 45t46.5 70t16 91q0 36 -7.5 59t-24 36t-41.5 17.5t-59 4.5h-284q-77 0 -132.5 37t-92 93.5t-54 123.5t-17.5 128q0 66 18 109.5t51 70t78.5 37.5t99.5 11h349v123h-1014v225h1589v-225z
M706 -249q0 30 10.5 56t29.5 45t45.5 30t58.5 11q31 0 58 -11t46.5 -30.5t31 -46t11.5 -57.5t-10.5 -57t-30 -44.5t-46 -29t-57.5 -10.5t-58 10.5t-46.5 30t-31 45.5t-11.5 58z" />
    <glyph glyph-name="uni095D" unicode="&#x95d;" horiz-adv-x="1296" 
d="M1331 1266h-302v-448h-374q-137 0 -204.5 -69.5t-67.5 -193.5q0 -48 10 -94.5t29 -86t46.5 -71t63.5 -50.5l2 3q-8 29 -11 56t-3 53q0 65 20 122t59.5 99t97.5 66t134 24q82 0 147 -27.5t110 -73t69 -105t24 -122.5q0 -71 -30 -137.5t-87.5 -119t-141 -84t-189.5 -31.5
q-128 0 -240.5 47t-195.5 129.5t-131 195.5t-48 244q0 110 34.5 194t96.5 140.5t148.5 85.5t190.5 29h180v225h-803v225h1366v-225zM730 202q61 1 104 16.5t70.5 39t40 53t12.5 59.5q0 51 -31.5 82t-79.5 31q-32 0 -56.5 -14t-42 -38t-26.5 -56.5t-9 -69.5q0 -49 18 -103z
M586 -249q0 30 10.5 56t29.5 45t45.5 30t58.5 11q31 0 58 -11t46.5 -30.5t31 -46t11.5 -57.5t-10.5 -57t-30 -44.5t-46 -29t-57.5 -10.5t-58 10.5t-46.5 30t-31 45.5t-11.5 58z" />
    <glyph glyph-name="uni095E" unicode="&#x95e;" horiz-adv-x="1910" 
d="M1085 1046l2 -1q35 32 72 52t73 31t68.5 15t57.5 4q89 0 159.5 -35t119.5 -91.5t75 -128.5t26 -147q0 -78 -27 -153.5t-77 -144.5t-120 -129.5t-157 -109.5l-125 218q62 33 108 72t77 80.5t46 83t15 79.5q0 25 -7 54t-23.5 53t-43 40t-65.5 16q-40 0 -77.5 -19.5
t-70.5 -52t-60 -74t-46 -86.5v-672h-261v360l-2 1q-48 -36 -107.5 -53t-119.5 -17q-70 0 -142.5 26.5t-131.5 85.5t-96.5 153t-37.5 230v480h-222v225h1980v-225h-860v-220zM824 1266h-373v-474q0 -56 8 -103t26.5 -81t50 -53t78.5 -19q63 0 117 39t93 111v580zM388 31
q0 30 10.5 56t29.5 45t45.5 30t58.5 11q31 0 58 -11t46.5 -30.5t31 -46t11.5 -57.5t-10.5 -57t-30 -44.5t-46 -29t-57.5 -10.5t-58 10.5t-46.5 30t-31 45.5t-11.5 58z" />
    <glyph glyph-name="uni095F" unicode="&#x95f;" horiz-adv-x="1361" 
d="M-38 1266v225h1436v-225h-218v-1266h-261v371l-3 1q-23 -17 -50.5 -33.5t-60.5 -29.5t-73 -21t-89 -8q-128 0 -223.5 50.5t-161.5 133t-105 186.5t-54 212q64 8 107.5 28t70 48.5t38 63t11.5 71.5q0 45 -16 92t-51 101h-297zM591 1032q0 -97 -50 -170.5t-148 -116.5
q14 -59 39.5 -101t58.5 -68.5t72 -39t81 -12.5q94 0 162 46.5t113 129.5v566h-401q38 -61 55.5 -120.5t17.5 -113.5zM427 59q0 30 10.5 56t29.5 45t45.5 30t58.5 11q31 0 58 -11t46.5 -30.5t31 -46t11.5 -57.5t-10.5 -57t-30 -44.5t-46 -29t-57.5 -10.5t-58 10.5t-46.5 30
t-31 45.5t-11.5 58z" />
    <glyph glyph-name="uni0960" unicode="&#x960;" horiz-adv-x="1887" 
d="M1017 626v-626h-261v428l-5 1l-471 -343l-139 187l607 428v12q-48 48 -92.5 82.5t-88 57.5t-87.5 34t-91 11q-21 0 -61.5 -2t-86 -5.5t-90 -7.5t-74.5 -8v234q27 3 70 6t87 6t82 4.5t56 1.5q49 0 94 -13.5t90 -39t93 -61.5t103 -81l4 2v332h-791v225h1957v-225h-905v-448
q48 1 97.5 8.5t89.5 23.5q-15 43 -15 89q0 54 17.5 95t46 69t63.5 42.5t71 14.5q33 0 63.5 -12t54 -35.5t37.5 -58.5t14 -81q0 -60 -23.5 -106t-63.5 -89l182 -260q-72 -50 -121 -93t-79 -80t-42.5 -68.5t-12.5 -59.5t10 -48.5t26 -34.5t36.5 -21t41.5 -7q53 0 108 40.5
t112 107.5l160 -180q-48 -54 -93.5 -91t-90.5 -60t-91.5 -33t-95.5 -10q-78 0 -146.5 23.5t-119.5 67t-80.5 104t-29.5 134.5q0 56 17 103.5t46.5 89.5t70 80t88.5 74l-77 113q-124 -43 -271 -43z" />
    <glyph glyph-name="uni0961" unicode="&#x961;" horiz-adv-x="1660" 
d="M1664 -285q-63 -29 -127 -43t-126 -14q-74 0 -139.5 19.5t-114.5 55.5t-77.5 87t-28.5 114q0 42 13.5 81.5t43.5 83.5l-2 5q-33 13 -61.5 32t-50 44.5t-33.5 58.5t-12 74q0 47 15 82.5t37.5 65.5t48.5 56.5t48.5 54.5t37.5 60.5t15 73.5q0 66 -36.5 105.5t-95.5 39.5
q-37 0 -63 -15.5t-42.5 -41.5t-24.5 -60.5t-8 -71.5q0 -11 1 -24t3 -25h-229q-3 42 -12 85t-26.5 78t-43.5 57.5t-62 22.5q-51 0 -85 -45.5t-34 -130.5q0 -89 38.5 -165t101 -142t140.5 -123t156 -106l-140 -190q-21 11 -71 39t-112 73t-129 106t-122 138t-90.5 169.5
t-35.5 200.5q0 96 29.5 173.5t80 133t118 85.5t144.5 30q57 0 101.5 -15.5t78 -39.5t56.5 -53t37 -56l5 1q45 88 129 126v201h-943v225h1730v-225h-522v-195q63 -20 108.5 -58t75.5 -86.5t44.5 -103t14.5 -106.5q0 -57 -15.5 -103t-39 -83.5t-50.5 -67.5t-50.5 -56.5
t-39 -49.5t-15.5 -46q0 -68 91 -68q36 0 91 11t115 30l50 -207q-78 -12 -126.5 -27.5t-75 -32.5t-36 -35t-9.5 -35q0 -19 8 -32t22.5 -21.5t33.5 -12t40 -3.5q25 0 52.5 4.5t54 11.5t49.5 16t38 18z" />
    <glyph glyph-name="uni0962" unicode="&#x962;" 
d="M-494 -218q-2 27 -7 52t-14 44t-22 30.5t-31 11.5q-25 0 -38.5 -19t-13.5 -51q0 -39 17.5 -73.5t46 -64.5t66 -55.5t76.5 -46.5l-97 -137q-41 19 -93.5 55.5t-99.5 86t-79.5 110t-32.5 128.5q0 49 18.5 88.5t50 67.5t73.5 43t89 15q57 0 97 -20t65 -56h5q32 43 79 58.5
t96 15.5q59 0 102 -17.5t71 -46t41.5 -65t13.5 -74.5q0 -31 -7.5 -54t-19.5 -41t-25 -32t-25 -27.5t-19.5 -26.5t-7.5 -29q0 -20 12 -28t29 -8q19 0 37 8.5t34 21.5t30.5 29t26.5 31l89 -91q-55 -75 -114.5 -108.5t-131.5 -33.5q-51 0 -89 15t-63.5 39t-38 54.5t-12.5 62.5
q0 40 16.5 67t36 50.5t36 47.5t16.5 57q0 31 -15 44t-36 13q-20 0 -35.5 -10.5t-26 -28t-15.5 -40.5t-5 -47v-15h-156z" />
    <glyph glyph-name="uni0963" unicode="&#x963;" 
d="M153 -401q-39 -15 -78 -24t-84 -9q-50 0 -94.5 11.5t-78 33.5t-53.5 53.5t-20 72.5q0 28 11.5 58t42.5 59l-1 5q-21 7 -41 17.5t-35 25.5t-24.5 35.5t-9.5 47.5q0 38 16.5 63.5t37 48t37 45.5t16.5 56q0 31 -15 44t-36 13q-20 0 -35.5 -10.5t-26 -28t-15.5 -40.5t-5 -47
v-15h-156q-2 27 -7 52t-14 44t-22 30.5t-31 11.5q-25 0 -38.5 -19t-13.5 -51q0 -39 17.5 -73.5t46 -64.5t66 -55.5t76.5 -46.5l-97 -137q-41 19 -93.5 55.5t-99.5 86t-79.5 110t-32.5 128.5q0 49 18.5 88.5t50 67.5t73.5 43t90 15q57 0 96.5 -20t64.5 -56h5q32 43 79 58.5
t96 15.5q58 0 101 -17.5t71.5 -46t42 -64.5t13.5 -73q0 -47 -17.5 -77t-38.5 -51t-38.5 -39t-17.5 -41q0 -21 15.5 -30.5t36.5 -9.5t58 8t74 19l32 -135q-51 -8 -82.5 -18t-49 -21t-23.5 -23t-6 -23q0 -25 20 -35t48 -10q15 0 31 2.5t32 6.5t30.5 9t25.5 10z" />
    <glyph glyph-name="uni0964" unicode="&#x964;" horiz-adv-x="985" 
d="M736 -1h-264v1492h264v-1492z" />
    <glyph glyph-name="uni0965" unicode="&#x965;" horiz-adv-x="1483" 
d="M736 -1h-264v1492h264v-1492zM1234 -1h-264v1492h264v-1492z" />
    <glyph glyph-name="uni0966" unicode="&#x966;" horiz-adv-x="1162" 
d="M582 1020q-50 0 -91 -19.5t-70.5 -54t-46 -80.5t-16.5 -100t17.5 -101t48 -81.5t71.5 -54.5t87 -20t86.5 20t70.5 54.5t47.5 81.5t17.5 101t-16.5 100t-45.5 80.5t-70 54t-90 19.5zM582 1240q100 0 185 -37.5t147.5 -102t97.5 -151t35 -184.5q0 -99 -36.5 -185.5
t-100 -151t-148 -102t-180.5 -37.5t-180.5 37.5t-148.5 102t-101 151t-37 185.5q0 98 35.5 184.5t98 151t148 102t185.5 37.5z" />
    <glyph glyph-name="uni0967" unicode="&#x967;" horiz-adv-x="1023" 
d="M292 826q-36 31 -66.5 68t-53 80t-35 91t-12.5 102q0 84 30 150.5t80.5 113t117.5 71t141 24.5q73 0 141.5 -25t121 -74.5t84 -122t31.5 -166.5q0 -90 -28.5 -172.5t-78 -160.5t-115 -153.5t-140.5 -151.5q107 -95 183.5 -170t125 -136.5t71.5 -112.5t23 -99
q0 -60 -30.5 -116t-84.5 -116l-209 146q14 18 24 31t16 24.5t9 22t3 23.5q0 18 -6.5 38t-24 46.5t-49 62t-82.5 86t-123.5 119t-171.5 159.5q136 121 221 212t133 162.5t65.5 129t17.5 112.5q0 50 -10.5 83t-27 52t-38 26.5t-42.5 7.5q-54 0 -89 -40.5t-35 -106.5
q0 -51 20 -93.5t46 -71.5z" />
    <glyph glyph-name="uni0968" unicode="&#x968;" horiz-adv-x="1210" 
d="M752 -259q-95 168 -173 335t-142 349q-69 3 -124.5 31.5t-94.5 71t-59.5 94t-20.5 100.5q0 88 48.5 132t126.5 44q32 0 67 -12t68.5 -38.5t64 -68.5t53.5 -101q38 13 77 37.5t71 61.5t52.5 87.5t20.5 116.5q0 67 -22.5 123t-62 95.5t-95 61.5t-121.5 22q-60 0 -137.5 -21
t-155.5 -69l-93 239q60 29 118.5 47.5t110.5 29t95.5 14t73.5 3.5q123 0 224.5 -44.5t174.5 -119.5t113 -175t40 -211q0 -92 -28.5 -173.5t-80.5 -149t-125.5 -118.5t-163.5 -82l-1 -3q36 -77 71 -146.5t73.5 -137t82 -135.5t97.5 -143z" />
    <glyph glyph-name="uni0969" unicode="&#x969;" horiz-adv-x="1115" 
d="M719 -240q-43 73 -75 124t-59.5 90.5t-54 73t-57.5 70.5q-87 4 -149 28t-101.5 59t-58 77t-18.5 83q0 34 12 64t34.5 52.5t54 36t71.5 13.5q42 0 80 -15t70.5 -39t59.5 -55t49 -62q23 7 47.5 21.5t45 38.5t33.5 59t13 83q0 60 -20 100.5t-54 65.5t-79 36t-95 11h-244v212
h186q69 0 113.5 11.5t70 30.5t35.5 43.5t10 50.5q0 29 -11.5 55t-37.5 45.5t-68 31t-102 11.5h-305v225h297q132 0 224 -27t150 -72.5t84 -107t26 -130.5q0 -80 -32.5 -149.5t-99.5 -123.5v-6q51 -23 90.5 -57t66.5 -77.5t40.5 -94.5t13.5 -107q0 -123 -65 -219t-197 -149
v-4q17 -18 43.5 -49.5t56.5 -69t60.5 -78t54.5 -76.5z" />
    <glyph glyph-name="uni096A" unicode="&#x96a;" horiz-adv-x="1324" 
d="M503 772q-44 41 -90.5 85t-91.5 91.5t-85 98t-70 104t-47.5 109.5t-17.5 115q0 42 6.5 73.5t9.5 42.5h259q-7 -31 -10.5 -58.5t-3.5 -53.5q0 -74 26 -136.5t69 -118t97.5 -106.5t111.5 -102q58 52 111.5 107t95 116.5t66 132t24.5 154.5q0 14 -1 31t-3 34h254
q6 -22 8.5 -42.5t2.5 -44.5q0 -103 -35.5 -190t-91 -162.5t-124 -141t-134.5 -126.5q49 -46 91 -94.5t73 -101t49 -109t18 -117.5q0 -78 -31.5 -139.5t-84 -104.5t-122 -65.5t-144.5 -22.5q-77 0 -148 23t-125.5 66.5t-87 106t-32.5 142.5q0 60 16.5 114.5t45 104.5
t66.5 96.5t80 88.5zM673 634q-53 -59 -86 -116t-33 -124q0 -31 9.5 -56.5t26 -43.5t38.5 -28t48 -10q30 0 55 12t42.5 31.5t27.5 45.5t10 53q0 34 -10 64t-28 58.5t-43.5 56.5t-56.5 57z" />
    <glyph glyph-name="uni096B" unicode="&#x96b;" horiz-adv-x="1254" 
d="M756 663q-28 40 -42.5 89t-14.5 100q0 57 18 100.5t47 72.5t66 43.5t76 14.5q42 0 82 -16.5t71.5 -48.5t50.5 -79.5t19 -108.5q0 -69 -25 -129.5t-76 -118.5q60 -185 145 -363t200 -331l-224 -154q-32 45 -63.5 102.5t-61 120.5t-57 128.5t-50.5 128t-41 119t-30 100.5
q-51 -24 -101 -36.5t-107 -12.5q-119 0 -210 49.5t-153 133t-93.5 193t-31.5 229.5q0 36 3.5 88.5t13.5 117t26.5 140t43.5 156.5h255q-21 -80 -36.5 -148.5t-25.5 -129.5t-15 -115.5t-5 -106.5q0 -100 18 -170t49 -114.5t72 -64.5t87 -20q43 0 73.5 13.5t46.5 27.5z" />
    <glyph glyph-name="uni096C" unicode="&#x96c;" horiz-adv-x="1323" 
d="M800 342q-17 35 -26 72t-9 72q0 31 8 58.5t26 48t46.5 32.5t68.5 12q52 0 96.5 -19.5t76 -52.5t49.5 -76t18 -90q0 -52 -21.5 -93t-57.5 -73q43 -78 104 -161t127 -164l-201 -148q-27 37 -54.5 83t-54 96t-51.5 102.5t-47 101.5q-55 -16 -110.5 -23t-103.5 -7
q-113 0 -200.5 35.5t-148 94.5t-92 137t-31.5 162q0 38 7.5 80t25.5 82.5t48 78.5t75 69v5q-50 20 -91.5 47t-72 63.5t-47.5 84.5t-17 110q0 80 27.5 135.5t71 92t99 57t111 30.5t106.5 12t87 2h234v-225h-224q-53 0 -99 -6t-80.5 -22t-54.5 -42.5t-20 -67.5q0 -36 16 -62
t43 -42.5t63.5 -24.5t77.5 -8h312v-212h-247q-54 0 -90.5 -17t-59.5 -45.5t-33 -65t-10 -75.5q0 -52 16.5 -96.5t46.5 -77.5t73.5 -52t97.5 -19q21 0 47 3t49 8z" />
    <glyph glyph-name="uni096D" unicode="&#x96d;" horiz-adv-x="1475" 
d="M971 507q-112 6 -191.5 46t-129.5 100t-73.5 133t-23.5 144q0 76 24.5 141t70.5 112.5t111.5 74.5t147.5 27q106 0 190.5 -45t142.5 -125t89 -189t31 -238q0 -151 -41.5 -273.5t-115.5 -209t-176.5 -133.5t-225.5 -47q-103 0 -187.5 33t-153 94t-121 146.5t-90.5 189.5
q-37 102 -62.5 221t-41.5 248t-23 264.5t-7 269.5h259q0 -177 10 -337.5t32 -297t56 -247t82 -188.5t110 -120t139 -42q70 0 126 33.5t95 91.5t60 137t21 171q0 87 -17.5 154t-46 113t-64.5 70t-73 24q-18 0 -36.5 -6.5t-34.5 -22t-26 -41.5t-10 -65q0 -48 15.5 -82t40 -56
t55.5 -34.5t63 -18.5v-220z" />
    <glyph glyph-name="uni096E" unicode="&#x96e;" horiz-adv-x="1273" 
d="M999 1388q-141 -185 -241.5 -323t-168.5 -240t-109 -172.5t-62 -119.5t-27.5 -83t-6.5 -62q0 -51 17.5 -89t47.5 -63t69 -37t82 -12q58 0 108 20t94 57.5t84 90.5t79 119l213 -134q-49 -84 -107.5 -155t-128 -122t-152 -80t-179.5 -29q-99 0 -187.5 32t-154.5 89
t-105 137t-39 176q0 59 16 121.5t50.5 134.5t88 158t128 192.5t171 237.5t217.5 294z" />
    <glyph glyph-name="uni096F" unicode="&#x96f;" horiz-adv-x="1241" 
d="M577 944q22 12 41.5 29t34 39t23 50.5t8.5 64.5q0 33 -10.5 63t-30 52.5t-47 36t-62.5 13.5q-36 0 -65.5 -13.5t-50.5 -37.5t-32.5 -56t-11.5 -68q0 -51 24.5 -106t71 -120t114.5 -144t155 -178q97 -111 173 -197.5t128 -155.5t79 -126t27 -109q0 -18 -4.5 -41.5
t-17 -52.5t-35 -63.5t-58.5 -73.5l-209 146q29 34 40.5 55t11.5 49t-13.5 58t-43.5 70t-78.5 94t-118.5 130q-121 131 -215 238t-158.5 200t-98 177.5t-33.5 169.5q0 87 30.5 158.5t85 123t130.5 79.5t168 28q97 0 174 -31.5t131 -85.5t82.5 -126t28.5 -153
q0 -120 -61.5 -220.5t-186.5 -163.5z" />
    <glyph glyph-name="uni0970" unicode="&#x970;" horiz-adv-x="932" 
d="M467 1350q-36 0 -62.5 -13t-44 -35.5t-26.5 -53t-9 -65.5q0 -36 10 -67.5t28 -54t44.5 -35.5t59.5 -13t59 13t44 35.5t27.5 54t9.5 67.5q0 35 -9 65.5t-26.5 53t-44 35.5t-60.5 13zM467 1511q72 0 131 -26t100 -70.5t63.5 -104.5t22.5 -127q0 -68 -23.5 -127.5
t-65.5 -104t-100.5 -70.5t-127.5 -26t-127.5 26t-101 70.5t-66.5 104t-24 127.5q0 67 23 127t64.5 104.5t100.5 70.5t131 26z" />
    <glyph glyph-name="uni0971" unicode="&#x971;" horiz-adv-x="551" 
d="M130 1379q0 30 10.5 56t29.5 45t45.5 30t58.5 11q31 0 58 -11t46.5 -30.5t31 -46t11.5 -57.5t-10.5 -57t-30 -44.5t-46 -29t-57.5 -10.5t-58 10.5t-46.5 30t-31 45.5t-11.5 58z" />
    <glyph glyph-name="uni0972" unicode="&#x972;" horiz-adv-x="1696" 
d="M1011 823q18 -2 33 -3.5t34 -1.5q64 0 126.5 15t104.5 36v622h479v-225h-218v-1266h-261v646q-12 -6 -31 -12t-41.5 -11t-46.5 -8t-46 -3q5 -25 8 -45t3 -46q0 -90 -34 -161.5t-93.5 -121t-140 -76t-172.5 -26.5q-95 0 -173 27t-142 73.5t-115.5 109.5t-93 135.5t-74 151
t-58.5 155.5l223 90q18 -57 40.5 -117t51 -116.5t63 -106t76 -87t90 -59t105.5 -21.5q88 0 134.5 51t46.5 137q0 53 -17 91t-47 63t-71 36.5t-89 11.5q-10 0 -24 -0.5t-29 -1.5l-30 -2t-26 -2v225q9 -1 18.5 -1h18.5q52 0 97 8t78 27.5t52 52.5t19 82q0 75 -44 109t-119 34
q-56 0 -110 -15.5t-105 -37.5l-60 218q72 35 147.5 52t144.5 17q91 0 166.5 -27t129.5 -74t84 -110.5t30 -136.5q0 -88 -44.5 -163.5t-132.5 -132.5l1 -5q23 -11 44 -25t40 -29zM1141 2140q4 -16 12 -44.5t22.5 -62.5t36 -69t52.5 -63.5t72.5 -46.5t95.5 -18q52 0 93 17
t72 44t53.5 61t38 67.5t24.5 64t15 51.5l214 -74q-10 -41 -27 -90t-44 -99t-65.5 -97t-91.5 -83.5t-121.5 -58.5t-154.5 -22q-104 0 -189 32.5t-149.5 92t-109 142t-68.5 183.5z" />
    <glyph glyph-name="uni0973" unicode="&#x973;" horiz-adv-x="1753" 
d="M1011 823q18 -2 33 -3.5t34 -1.5q64 0 126.5 15t104.5 36v622h479v-225h-218v-1266h-261v646q-12 -6 -31 -12t-41.5 -11t-46.5 -8t-46 -3q5 -25 8 -45t3 -46q0 -90 -34 -161.5t-93.5 -121t-140 -76t-172.5 -26.5q-95 0 -173 27t-142 73.5t-115.5 109.5t-93 135.5t-74 151
t-58.5 155.5l223 90q18 -57 40.5 -117t51 -116.5t63 -106t76 -87t90 -59t105.5 -21.5q88 0 134.5 51t46.5 137q0 53 -17 91t-47 63t-71 36.5t-89 11.5q-10 0 -24 -0.5t-29 -1.5l-30 -2t-26 -2v225q9 -1 18.5 -1h18.5q52 0 97 8t78 27.5t52 52.5t19 82q0 75 -44 109t-119 34
q-56 0 -110 -15.5t-105 -37.5l-60 218q72 35 147.5 52t144.5 17q91 0 166.5 -27t129.5 -74t84 -110.5t30 -136.5q0 -88 -44.5 -163.5t-132.5 -132.5l1 -5q23 -11 44 -25t40 -29zM1570 1854v-391h-261v391h261z" />
    <glyph glyph-name="uni0974" unicode="&#x974;" horiz-adv-x="2383" 
d="M1011 823q18 -2 33 -3.5t34 -1.5q64 0 126.5 15t104.5 36v622h479v-225h-218v-1266h-261v646q-12 -6 -31 -12t-41.5 -11t-46.5 -8t-46 -3q5 -25 8 -45t3 -46q0 -90 -34 -161.5t-93.5 -121t-140 -76t-172.5 -26.5q-95 0 -173 27t-142 73.5t-115.5 109.5t-93 135.5t-74 151
t-58.5 155.5l223 90q18 -57 40.5 -117t51 -116.5t63 -106t76 -87t90 -59t105.5 -21.5q88 0 134.5 51t46.5 137q0 53 -17 91t-47 63t-71 36.5t-89 11.5q-10 0 -24 -0.5t-29 -1.5l-30 -2t-26 -2v225q9 -1 18.5 -1h18.5q52 0 97 8t78 27.5t52 52.5t19 82q0 75 -44 109t-119 34
q-56 0 -110 -15.5t-105 -37.5l-60 218q72 35 147.5 52t144.5 17q91 0 166.5 -27t129.5 -74t84 -110.5t30 -136.5q0 -88 -44.5 -163.5t-132.5 -132.5l1 -5q23 -11 44 -25t40 -29zM2418 1266h-218v-1266h-261v1266h-221v225h700v-225zM2200 1854v-391h-261v391h261z" />
    <glyph glyph-name="uni0975" unicode="&#x975;" horiz-adv-x="2383" 
d="M2418 1266h-218v-1266h-261v1266h-221v225h228q-50 79 -100.5 110t-106.5 31q-47 0 -86.5 -12t-81.5 -26q-82 -28 -153 -28q-39 0 -76 9.5t-72 32t-68.5 59.5t-66.5 92l116 83q24 -29 43 -47.5t37 -30t37 -16t42 -4.5q43 0 83 11t79 24t78 24t81 11q40 0 81.5 -11.5
t82.5 -38t81 -71t76 -110.5h5q2 14 3 26.5t1 23.5q0 55 -21 92t-55.5 64t-78 46.5t-89.5 39.5t-89.5 44t-78 59t-55.5 84.5t-21 121.5q0 51 14 121l138 -21q-3 -14 -4 -27.5t-1 -22.5q0 -49 21 -82.5t56 -58t79.5 -43.5t90.5 -39.5t90.5 -45t79.5 -60.5t56 -86.5t21 -122.5
q0 -43 -8.5 -93.5t-27.5 -111.5h240v-225zM1011 823q18 -2 33 -3.5t34 -1.5q64 0 126.5 15t104.5 36v622h479v-225h-218v-1266h-261v646q-12 -6 -31 -12t-41.5 -11t-46.5 -8t-46 -3q5 -25 8 -45t3 -46q0 -90 -34 -161.5t-93.5 -121t-140 -76t-172.5 -26.5q-95 0 -173 27
t-142 73.5t-115.5 109.5t-93 135.5t-74 151t-58.5 155.5l223 90q18 -57 40.5 -117t51 -116.5t63 -106t76 -87t90 -59t105.5 -21.5q88 0 134.5 51t46.5 137q0 53 -17 91t-47 63t-71 36.5t-89 11.5q-10 0 -24 -0.5t-29 -1.5l-30 -2t-26 -2v225q9 -1 18.5 -1h18.5q52 0 97 8
t78 27.5t52 52.5t19 82q0 75 -44 109t-119 34q-56 0 -110 -15.5t-105 -37.5l-60 218q72 35 147.5 52t144.5 17q91 0 166.5 -27t129.5 -74t84 -110.5t30 -136.5q0 -88 -44.5 -163.5t-132.5 -132.5l1 -5q23 -11 44 -25t40 -29z" />
    <glyph glyph-name="uni0976" unicode="&#x976;" horiz-adv-x="1753" 
d="M1011 823q18 -2 33 -3.5t34 -1.5q64 0 126.5 15t104.5 36v622h479v-225h-218v-1266h-261v646q-12 -6 -31 -12t-41.5 -11t-46.5 -8t-46 -3q5 -25 8 -45t3 -46q0 -90 -34 -161.5t-93.5 -121t-140 -76t-172.5 -26.5q-95 0 -173 27t-142 73.5t-115.5 109.5t-93 135.5t-74 151
t-58.5 155.5l223 90q18 -57 40.5 -117t51 -116.5t63 -106t76 -87t90 -59t105.5 -21.5q88 0 134.5 51t46.5 137q0 53 -17 91t-47 63t-71 36.5t-89 11.5q-10 0 -24 -0.5t-29 -1.5l-30 -2t-26 -2v225q9 -1 18.5 -1h18.5q52 0 97 8t78 27.5t52 52.5t19 82q0 75 -44 109t-119 34
q-56 0 -110 -15.5t-105 -37.5l-60 218q72 35 147.5 52t144.5 17q91 0 166.5 -27t129.5 -74t84 -110.5t30 -136.5q0 -88 -44.5 -163.5t-132.5 -132.5l1 -5q23 -11 44 -25t40 -29zM1595 -293q-62 -21 -116 -36t-106.5 -24t-107.5 -13.5t-121 -4.5t-123 4.5t-111.5 13.5
t-109.5 24t-117 36v207q62 -21 115.5 -36t106 -24t108 -13.5t121.5 -4.5t122.5 4.5t111 13.5t109.5 24t118 36v-207z" />
    <glyph glyph-name="uni0977" unicode="&#x977;" horiz-adv-x="1753" 
d="M1011 823q18 -2 33 -3.5t34 -1.5q64 0 126.5 15t104.5 36v622h479v-225h-218v-1266h-261v646q-12 -6 -31 -12t-41.5 -11t-46.5 -8t-46 -3q5 -25 8 -45t3 -46q0 -90 -34 -161.5t-93.5 -121t-140 -76t-172.5 -26.5q-95 0 -173 27t-142 73.5t-115.5 109.5t-93 135.5t-74 151
t-58.5 155.5l223 90q18 -57 40.5 -117t51 -116.5t63 -106t76 -87t90 -59t105.5 -21.5q88 0 134.5 51t46.5 137q0 53 -17 91t-47 63t-71 36.5t-89 11.5q-10 0 -24 -0.5t-29 -1.5l-30 -2t-26 -2v225q9 -1 18.5 -1h18.5q52 0 97 8t78 27.5t52 52.5t19 82q0 75 -44 109t-119 34
q-56 0 -110 -15.5t-105 -37.5l-60 218q72 35 147.5 52t144.5 17q91 0 166.5 -27t129.5 -74t84 -110.5t30 -136.5q0 -88 -44.5 -163.5t-132.5 -132.5l1 -5q23 -11 44 -25t40 -29zM1595 -288q-62 -21 -116 -36t-106.5 -24t-107.5 -13.5t-121 -4.5t-123 4.5t-111.5 13.5
t-109.5 24t-117 36v202q62 -21 115.5 -36t106 -24t108 -13.5t121.5 -4.5t122.5 4.5t111 13.5t109.5 24t118 36v-202zM1595 -598q-62 -21 -116 -36t-106.5 -24t-107.5 -13.5t-121 -4.5t-123 4.5t-111.5 13.5t-109.5 24t-117 36v202q62 -21 115.5 -36t106 -24t108 -13.5
t121.5 -4.5t122.5 4.5t111 13.5t109.5 24t118 36v-202z" />
    <glyph glyph-name="uni0978" unicode="&#x978;" horiz-adv-x="1371" 
d="M124 939q18 14 63.5 28.5t111.5 29.5v269h-334v225h1441v-225h-846v-227q45 5 87 8.5t84 3.5q138 0 231 -34t149.5 -93t80.5 -138.5t24 -169.5q0 -74 -15.5 -151.5t-45 -154.5t-71.5 -152.5t-95 -145.5l-227 155q37 43 73 97.5t64 115t45 123t17 122.5q0 101 -57 145
t-163 44q-42 0 -86 -4t-95 -12v-183q0 -20 -1.5 -41.5t-9 -39.5t-23 -30t-42.5 -12q-37 0 -79 19.5t-84.5 51.5t-82 73.5t-70 86t-48.5 87.5t-18 79q0 14 4 27t18 23z" />
    <glyph glyph-name="uni0979" unicode="&#x979;" horiz-adv-x="1652" 
d="M1687 1266h-218v-1266h-261v788h-253l-1 -3q54 -54 80 -122t26 -137q0 -63 -21.5 -121.5t-65 -103t-109.5 -71.5t-155 -27q-101 0 -182.5 35.5t-147 97.5t-115 145t-86 178t-60.5 196.5t-38 200.5l237 43q29 -184 72 -307t92.5 -196.5t101 -104.5t97.5 -31
q51 0 86.5 31.5t35.5 95.5q0 35 -12 73t-36 74.5t-60 68.5t-84 55v156h598v252h-1243v225h1722v-225zM337 41q0 53 32.5 86.5t85.5 33.5q52 0 87.5 -33.5t35.5 -89.5q0 -53 -33.5 -85.5t-87.5 -32.5q-25 0 -46.5 9t-38 25t-26 38t-9.5 49zM818 41q0 53 32.5 86.5t85.5 33.5
q52 0 87.5 -33.5t35.5 -89.5q0 -53 -33.5 -85.5t-87.5 -32.5q-25 0 -46.5 9t-38 25t-26 38t-9.5 49zM578 -204q0 53 32.5 86.5t85.5 33.5q52 0 87.5 -33.5t35.5 -89.5q0 -53 -33.5 -85.5t-87.5 -32.5q-25 0 -46.5 9t-38 25t-26 38t-9.5 49z" />
    <glyph glyph-name="uni097A" unicode="&#x97a;" horiz-adv-x="1366" 
d="M-35 1266v225h1436v-225h-218v-1266h-261v371l-3 1q-23 -17 -50.5 -33.5t-60.5 -29.5t-73 -21t-89 -8q-128 0 -223.5 50.5t-161.5 133t-105 186.5t-54 212q64 8 107.5 28t70 48.5t38 63t11.5 71.5q0 45 -16 92t-51 101h-297zM922 1266h-401q26 -42 42 -84t24 -82
l335 -358v524zM396 745q14 -59 39.5 -101t58.5 -68.5t72 -39t81 -12.5q69 0 123.5 25t96.5 72l-288 311l-2 -1q-19 -60 -64.5 -107.5t-116.5 -78.5z" />
    <glyph glyph-name="uni097B" unicode="&#x97b;" horiz-adv-x="1392" 
d="M1427 1266h-218v-1412h-1036v225h775v1187h-366v-753q0 -28 -1.5 -54.5t-9 -46.5t-24 -32.5t-45.5 -12.5q-40 0 -85 22.5t-89 59t-84 82t-70.5 92t-48.5 89.5t-18 74q0 13 4.5 26t17.5 23t35.5 16t58.5 6h100v409h-358v225h1462v-225z" />
    <glyph glyph-name="uni097C" unicode="&#x97c;" horiz-adv-x="1652" 
d="M1687 1266h-218v-1412h-1296v225h1035v709h-253l-1 -3q54 -54 80 -122t26 -137q0 -63 -21.5 -122t-65 -105t-109.5 -73.5t-155 -27.5q-101 0 -182.5 36t-147 98.5t-115 146t-85.5 179t-60.5 197.5t-38.5 201l237 43q29 -184 72 -307.5t92.5 -198.5t101 -106.5t97.5 -31.5
q51 0 86.5 34t35.5 98q0 34 -12 72.5t-36 75t-60 68.5t-84 55v156h598v252h-1243v225h1722v-225z" />
    <glyph glyph-name="uni097D" unicode="&#x97d;" horiz-adv-x="1172" 
d="M140 1417q90 38 185 66t199 28q108 0 197 -33t152 -91t97.5 -137t34.5 -172q0 -96 -35 -170.5t-93 -130t-132 -92.5t-152 -58v-627h-261v795q81 15 156 35t133.5 52.5t93.5 79.5t35 116q0 49 -18.5 87t-50.5 63.5t-75.5 38.5t-94.5 13q-47 0 -94.5 -10.5t-95 -28.5
t-93 -41t-88.5 -48v265z" />
    <glyph glyph-name="uni097E" unicode="&#x97e;" horiz-adv-x="1509" 
d="M1327 -366h-1154v225h1154v-225zM1544 1266h-314v-365h-483q-51 0 -69.5 -14.5t-18.5 -46.5q0 -16 5.5 -35.5t20.5 -36.5t41 -28.5t67 -11.5h260q83 0 139.5 -24.5t91 -67.5t49.5 -100.5t15 -123.5q0 -92 -31 -175t-93.5 -146t-157 -100t-220.5 -37q-133 0 -254.5 47.5
t-222.5 131.5t-178 200.5t-120 254.5l223 90q33 -95 87.5 -182t125.5 -154.5t156.5 -107.5t180.5 -40q118 0 179.5 57t61.5 151q0 34 -7.5 55.5t-24 33.5t-41.5 16.5t-59 4.5h-264q-77 0 -132.5 36.5t-92 92.5t-54 123t-17.5 127q0 65 18 108.5t51 69.5t78.5 37t99.5 11h329
v149h-1004v225h1579v-225z" />
    <glyph glyph-name="uni097F" unicode="&#x97f;" horiz-adv-x="1298" 
d="M1333 1266h-218v-1412h-942v225h681v205l-6 1q-61 -39 -124 -57.5t-125 -18.5q-95 0 -181 38.5t-152 105t-105 156t-39 191.5q0 90 31.5 169.5t88.5 139t136.5 94t175.5 34.5q18 0 48.5 -2.5t69.5 -12.5t84.5 -30.5t93.5 -55.5l4 1v229h-889v225h1368v-225zM379 688
q0 -42 15 -86t45 -79.5t73.5 -58.5t100.5 -23q49 0 91 17l-260 392q-32 -33 -48.5 -75t-16.5 -87zM858 807q-60 67 -120 92.5t-117 25.5q-39 0 -75 -11l256 -385q27 32 41.5 69.5t14.5 72.5v136z" />
    <glyph glyph-name="uni0980" unicode="&#x980;" horiz-adv-x="1326" 
d="M769 958q0 50 -8 98t-25 85.5t-42 60.5t-60 23q-34 0 -74.5 -22.5t-75.5 -63.5t-58.5 -99.5t-23.5 -131.5l4 -6q46 -12 87.5 -17.5t86.5 -5.5q31 0 60 2v-257h-35q-91 0 -165.5 8.5t-148.5 25.5l-145 123q-11 25 -11 66q0 48 15 114t45.5 136.5t78 139.5t112 123.5
t147 88t182.5 33.5q15 0 44 -10.5t64 -36.5t72.5 -68.5t67.5 -107t49.5 -152t19.5 -202.5v-625l6 -3q18 6 37 6q26 0 50 -10.5t42 -28.5t29 -42.5t11 -52.5q0 -27 -11.5 -57t-35 -55t-59.5 -41.5t-86 -16.5q-69 0 -115.5 31.5t-75 82.5t-40.5 115t-12 129z" />
    <glyph glyph-name="uni0981" unicode="&#x981;" 
d="M-556 2058q0 32 12 60t32.5 48.5t48.5 32.5t60 12t60 -12t48.5 -32.5t32.5 -48.5t12 -60t-12 -60t-32.5 -48.5t-48.5 -32.5t-60 -12t-60 12t-48.5 32.5t-32.5 48.5t-12 60zM50 1953q-19 -77 -58.5 -145t-97 -119t-132.5 -80.5t-164 -29.5q-91 0 -166 31t-133.5 84.5
t-100 126.5t-65.5 157l188 50q17 -57 38.5 -105t52.5 -82.5t74.5 -54t103.5 -19.5q57 0 101 17.5t78 49.5t59.5 77.5t45.5 101.5z" />
    <glyph glyph-name="uni0982" unicode="&#x982;" horiz-adv-x="954" 
d="M627 -163q-19 62 -54 128t-81.5 132t-102 129t-115 118.5t-120.5 100.5t-119 75v12l205 142q99 -56 194.5 -136t176 -174t140 -195.5t86.5 -199.5l-198 -132h-12zM477 755q-62 0 -115 24t-92 64.5t-61.5 93.5t-22.5 111q0 61 23.5 113.5t63.5 91.5t92.5 61t109.5 22
q61 0 114.5 -23t93 -62.5t62.5 -92t23 -110.5q0 -62 -23.5 -115t-63.5 -93t-93 -62.5t-111 -22.5zM477 1137q-19 0 -35.5 -7.5t-29 -19.5t-19.5 -28.5t-7 -34.5q0 -39 26 -66t63 -27q19 0 36 8t30 20.5t20 29.5t7 35q0 19 -7.5 35.5t-20 28.5t-29 19t-34.5 7z" />
    <glyph glyph-name="uni0983" unicode="&#x983;" horiz-adv-x="954" 
d="M477 755q-62 0 -115 24t-92 64.5t-61.5 93.5t-22.5 111q0 61 23.5 113.5t63.5 91.5t92.5 61t109.5 22q61 0 114.5 -23t93 -62.5t62.5 -92t23 -110.5q0 -62 -23.5 -115t-63.5 -93t-93 -62.5t-111 -22.5zM477 1137q-19 0 -35.5 -7.5t-29 -19.5t-19.5 -28.5t-7 -34.5
q0 -39 26 -66t63 -27q19 0 36 8t30 20.5t20 29.5t7 35q0 19 -7.5 35.5t-20 28.5t-29 19t-34.5 7zM477 8q-62 0 -115 24t-92 64.5t-61.5 93.5t-22.5 111q0 61 23.5 113.5t63.5 91.5t92.5 61t109.5 22q61 0 114.5 -23t93 -62.5t62.5 -92t23 -110.5q0 -62 -23.5 -115t-63.5 -93
t-93 -62.5t-111 -22.5zM477 390q-19 0 -35.5 -7.5t-29 -19.5t-19.5 -28.5t-7 -34.5q0 -39 26 -66t63 -27q19 0 36 8t30 20.5t20 29.5t7 35q0 19 -7.5 35.5t-20 28.5t-29 19t-34.5 7z" />
    <glyph glyph-name="uni0985" unicode="&#x985;" horiz-adv-x="2250" 
d="M339 1211q40 -112 83.5 -219t91.5 -202.5t101 -176t114.5 -139t131 -91t150.5 -32.5t144 31.5t106.5 82.5t66.5 115.5t23 130.5q0 41 -10 84.5t-34 82.5t-64.5 70.5t-100.5 47.5l-9 -14q24 -31 34.5 -63.5t10.5 -64.5q0 -47 -19 -87t-50.5 -69t-72.5 -46t-86 -17
q-44 0 -88 17t-79.5 51t-57.5 83t-22 114q0 74 30 129t87 97q-3 9 -14 24.5t-27 34.5t-36.5 40t-42.5 41h-770v225h2390v-225h-255v-1306h-147q-30 59 -74.5 111.5t-99.5 98t-118 85t-132 72.5q-38 -50 -86.5 -93t-109 -74.5t-132 -49t-153.5 -17.5q-120 0 -219.5 37.5
t-182.5 105t-152.5 160t-129.5 202.5t-113 232.5t-104 250.5l215 130h12zM1095 1197q91 0 165.5 -21.5t132.5 -58.5t100 -86.5t69.5 -106t41 -117t13.5 -118.5q0 -32 -4 -65t-12 -67q60 -32 111.5 -65.5t85.5 -63.5h6v838h-795q28 -36 43 -70q13 1 22 1h21z" />
    <glyph glyph-name="uni0986" unicode="&#x986;" horiz-adv-x="2762" 
d="M339 1211q40 -112 83.5 -219t91.5 -202.5t101 -176t114.5 -139t131 -91t150.5 -32.5t144 31.5t106.5 82.5t66.5 115.5t23 130.5q0 41 -10 84.5t-34 82.5t-64.5 70.5t-100.5 47.5l-9 -14q24 -31 34.5 -63.5t10.5 -64.5q0 -47 -19 -87t-50.5 -69t-72.5 -46t-86 -17
q-44 0 -88 17t-79.5 51t-57.5 83t-22 114q0 74 30 129t87 97q-3 9 -14 24.5t-27 34.5t-36.5 40t-42.5 41h-770v225h2268q24 0 55.5 -4.5t65.5 -16t67.5 -30t61.5 -45.5v8q0 38 17.5 63t45.5 25h321v-225h-86q-36 0 -66.5 -12t-53.5 -33t-36 -48.5t-13 -58.5v-1114h-261v1114
q0 31 -12.5 58.5t-34.5 48.5t-52.5 33t-66.5 12h-85v-1306h-147q-30 59 -74.5 111.5t-99.5 98t-118 85t-132 72.5q-38 -50 -86.5 -93t-109 -74.5t-132 -49t-153.5 -17.5q-120 0 -219.5 37.5t-182.5 105t-152.5 160t-129.5 202.5t-113 232.5t-104 250.5l215 130h12z
M1095 1197q91 0 165.5 -21.5t132.5 -58.5t100 -86.5t69.5 -106t41 -117t13.5 -118.5q0 -32 -4 -65t-12 -67q60 -32 111.5 -65.5t85.5 -63.5h6v838h-795q28 -36 43 -70q13 1 22 1h21z" />
    <glyph glyph-name="uni0987" unicode="&#x987;" horiz-adv-x="1412" 
d="M1482 1266h-863q6 -22 10.5 -41.5t7.5 -27.5q54 0 112 -10t112.5 -30t103 -49.5t85 -69t58 -89t21.5 -108.5q0 -68 -27.5 -124t-74 -101t-108.5 -79.5t-130 -58.5v-6q76 -34 155 -75t154.5 -89t145 -103t126.5 -117l-190 -192q-60 81 -136 148.5t-162.5 122t-179.5 96.5
t-187.5 72t-187 49t-177.5 28l26 261q13 -1 45.5 -5.5t69 -10.5t70.5 -12t49 -9q8 -1 16 -1h17q37 0 81.5 4.5t90 13.5t88.5 24t76.5 36t53.5 48t20 62t-19 61.5t-46 44.5t-55.5 27t-47.5 9q-12 -41 -39.5 -71t-63 -50.5t-75.5 -30.5t-78 -10q-46 0 -79 13.5t-54 36
t-31 51.5t-10 61q0 34 11 63t29.5 53t44 43t54.5 34q-6 23 -14.5 52.5t-16.5 55.5h-433v225h988q0 60 -22 98t-56.5 59.5t-77 29.5t-83.5 8q-27 0 -64 -4.5t-80 -10.5t-90.5 -10.5t-95.5 -4.5q-72 0 -140.5 15.5t-122 58.5t-86 120.5t-32.5 200.5h254q0 -50 15.5 -82.5
t42 -51.5t62 -26.5t75.5 -7.5q45 0 92.5 6.5t92.5 15t84.5 15t68.5 6.5q117 0 196.5 -40t129 -103t71 -140t21.5 -152h309v-225z" />
    <glyph glyph-name="uni0988" unicode="&#x988;" horiz-adv-x="1786" 
d="M-70 1491h1397q0 60 -22 98t-56.5 59.5t-77 29.5t-83.5 8q-45 0 -102.5 -6.5t-120 -14t-125 -13.5t-116.5 -6q-117 0 -198 33t-131.5 89t-72.5 129t-22 154h254q0 -60 23.5 -94.5t59 -52t77 -22.5t77.5 -5q65 0 127 7.5t121.5 17t115.5 17t109 7.5q117 0 196.5 -40
t129 -103t71 -140t21.5 -152h274v-225h-1395q20 -23 39 -47.5t29 -36.5q61 15 119 15q79 0 147.5 -24.5t121 -67.5t88 -100t48.5 -122q50 46 103.5 82.5t106 64.5t103 46.5t95.5 29.5l231 -180q-53 -60 -95 -130t-71 -146t-44 -156t-15 -161q0 -111 28 -217.5t82 -197.5
l-180 -189q-43 54 -77 121t-58 142t-36.5 155t-12.5 161q0 68 9.5 135t29 130.5t49.5 121.5t72 108l-4 5q-48 -30 -90 -69t-81 -83t-76 -91.5t-75 -95.5q-22 -66 -64.5 -123t-99 -98.5t-123.5 -65t-138 -23.5q-94 0 -183 42t-170 123l171 166q24 -26 47 -41t44 -23t39 -10
t32 -2q52 0 91 16t66.5 41.5t45 58.5t27.5 67t14 66.5t4 56.5q0 45 -11 87.5t-33 77.5t-55 59.5t-78 33.5l-6 -11q21 -27 29.5 -56t8.5 -55q0 -40 -17.5 -76t-47.5 -63.5t-70.5 -43.5t-86.5 -16q-52 0 -94.5 20t-72.5 54t-46 77.5t-16 91.5q0 46 16.5 93t51.5 89
q-29 45 -66 91t-94 93h-232v225z" />
    <glyph glyph-name="uni0989" unicode="&#x989;" horiz-adv-x="1710" 
d="M340 1108q32 -112 65.5 -223t73 -212.5t88 -189t111 -152t141 -101t178.5 -36.5q78 0 139.5 29.5t105 79.5t66.5 116t23 138q0 35 -5.5 71t-17.5 72q-35 -39 -68.5 -67t-70 -46t-77.5 -26.5t-91 -8.5q-75 0 -132.5 23.5t-97.5 61.5t-60.5 84.5t-20.5 93.5v451h-760v225
h1301q0 60 -22 98t-56.5 59.5t-77 29.5t-83.5 8q-45 0 -102.5 -6.5t-120 -14t-125 -13.5t-116.5 -6q-117 0 -198 33t-131.5 89t-72.5 129t-22 154h254q0 -60 23.5 -94.5t59 -52t77 -22.5t77.5 -5q65 0 127 7.5t121.5 17t115.5 17t109 7.5q117 0 196.5 -40t129 -103t71 -140
t21.5 -152h294v-225h-832v-408q5 -67 36 -67q53 0 97.5 18t86.5 56t85.5 96.5t94.5 139.5h19q56 -49 100.5 -114.5t76 -139t48.5 -151t17 -149.5t-17 -145t-51.5 -141t-86 -127.5t-120 -103.5t-153.5 -69.5t-188 -25.5q-132 0 -239.5 42t-194.5 115.5t-155.5 173.5
t-122.5 216t-94.5 243t-72.5 254l214 129h12z" />
    <glyph glyph-name="uni098A" unicode="&#x98a;" horiz-adv-x="1983" 
d="M1213 858q5 -67 36 -67q53 0 97.5 18t86.5 56t85.5 96.5t94.5 139.5h19q55 -49 99.5 -113t76 -137.5t49 -153.5t17.5 -162q0 -69 -14 -140t-45.5 -137.5t-83 -125.5t-127 -102.5t-177 -69t-233.5 -25.5q-214 0 -393.5 70t-317 203.5t-229.5 328.5t-129 444l204 156h6
q32 -137 67.5 -267t82.5 -242.5t110 -202t151 -144.5l4 5q-48 74 -86 156t-68.5 169.5t-55 180.5t-44.5 189l204 156h6q23 -108 49.5 -219.5t61.5 -216t79.5 -197t102 -161.5t131 -109t165.5 -40q85 0 147 32.5t103 85t61 118t20 131.5q0 38 -7 80.5t-21 84.5
q-62 -84 -146.5 -129t-185.5 -45q-75 0 -132.5 23.5t-97.5 61.5t-60.5 84.5t-20.5 93.5v451h-1025v225h1571q0 60 -22 98t-56.5 59.5t-77 29.5t-83.5 8q-45 0 -102.5 -6.5t-120 -14t-125 -13.5t-116.5 -6q-117 0 -198 33t-131.5 89t-72.5 129t-22 154h254q0 -60 23.5 -94.5
t59 -52t77 -22.5t77.5 -5q65 0 127 7.5t121.5 17t115.5 17t109 7.5q117 0 196.5 -40t129 -103t71 -140t21.5 -152h297v-225h-840v-408z" />
    <glyph glyph-name="uni098B" unicode="&#x98b;" horiz-adv-x="2020" 
d="M1670 0q-46 93 -123.5 178.5t-170.5 158.5v-377h-147q-47 81 -111.5 147.5t-140 120t-160 95t-172 73t-175 54.5t-170.5 39v290q22 19 71 50.5t115.5 68.5t146 76t163.5 74q-11 26 -22.5 49t-26.5 38q-26 -29 -62.5 -51.5t-79 -38.5t-89.5 -24t-93 -8q-59 0 -113.5 14
t-96.5 43t-67.5 74t-25.5 108q0 48 14 87.5t39.5 68t62 44.5t82.5 16q43 0 77.5 -14t59.5 -37.5t38.5 -55.5t13.5 -68v-9t-1 -9l14 -12q63 20 110 50.5t79.5 63t52 63.5t28.5 54h13q40 -33 74 -67t63 -76t54.5 -95t48.5 -125q19 5 37 8.5t35 5.5v346h261v-836
q54 -31 104 -67t88 -78h6v981h516v-225h-255v-1266h-165zM1109 428h6v441q-30 -2 -85.5 -13.5t-123 -33.5t-139 -55.5t-132.5 -78.5v-12q60 -18 128 -47t133 -63t121 -70t92 -68z" />
    <glyph glyph-name="uni098C" unicode="&#x98c;" horiz-adv-x="1528" 
d="M979 -106l-130 128q12 64 12 118q0 80 -23.5 139t-64 98t-93.5 58.5t-112 19.5q-45 0 -84.5 -11t-69 -33.5t-47 -57t-17.5 -81.5l11 -4q26 40 61.5 55t74.5 15q43 0 75.5 -14.5t54.5 -39t33 -56t11 -65.5q0 -37 -13.5 -73.5t-40.5 -65.5t-68.5 -47t-98.5 -18
q-59 0 -115 22t-99.5 65t-69.5 107t-26 148q0 99 36.5 175t96.5 127.5t137.5 78t159.5 26.5q83 0 166 -26t150.5 -81.5t111.5 -142t49 -208.5q53 52 77.5 110.5t24.5 124.5q0 86 -40 150t-105.5 113.5t-149 89.5t-170.5 78t-170.5 78.5t-149 92.5t-105.5 118.5t-40 157.5
q0 29 5.5 75.5t33.5 100.5l248 -85q-25 -56 -14.5 -100t46.5 -81t93 -69t125.5 -63t144 -64.5t149 -72.5t140.5 -87t117.5 -108t80.5 -135.5t30 -170.5q0 -111 -35.5 -201.5t-95.5 -165t-139.5 -134t-168.5 -108.5z" />
    <glyph glyph-name="uni098F" unicode="&#x98f;" horiz-adv-x="1680" 
d="M808 857q20 14 45.5 23t57.5 9q42 0 74 -15t53.5 -40t32.5 -57t11 -66q0 -29 -11 -64.5t-38.5 -67.5t-74 -53.5t-116.5 -21.5q-72 0 -133.5 24.5t-105.5 69t-69 105.5t-25 135q0 90 37 173.5t100.5 156t148 132t180 102t196 66t196.5 23.5q60 0 113 -10v-1584h-147
q-26 48 -55 92t-63.5 77t-76.5 53t-94 20q-57 0 -120 -17t-132.5 -37.5t-146 -37.5t-161.5 -17q-98 0 -170 25.5t-119.5 70.5t-71 106t-23.5 132q0 68 20.5 136t60.5 126h6l214 -155v-4q-19 -38 -19 -69t17 -50.5t42 -31t54.5 -15.5t54.5 -4q56 0 109.5 14.5t109 32.5
t114.5 32.5t126 14.5q66 0 114 -16t90 -42h6v875q-42 -1 -90 -13.5t-94.5 -34.5t-89.5 -51.5t-76 -63.5t-52.5 -72t-19.5 -77q0 -17 5 -37z" />
    <glyph glyph-name="uni0990" unicode="&#x990;" horiz-adv-x="2061" 
d="M808 857q20 14 45.5 23t57.5 9q42 0 74 -15.5t53.5 -40t32.5 -56t11 -63.5q0 -30 -11 -66.5t-38.5 -68.5t-74 -53.5t-116.5 -21.5q-72 0 -133.5 24.5t-105.5 69t-69 105.5t-25 135q0 90 37 173.5t100.5 156t148 132t180 102t196 66t196.5 23.5q60 0 113 -10v-357
q45 14 80.5 47t59.5 75.5t36.5 91.5t12.5 95q0 44 -14 84.5t-43 71t-74 49t-108 18.5q-48 0 -95 -8.5t-96 -18t-99.5 -18t-104.5 -8.5q-132 0 -214.5 31t-128 88.5t-62 141t-16.5 188.5h262q0 -111 39 -160.5t129 -49.5q48 0 105.5 10t120 22t128 22t129.5 10
q93 0 169.5 -38t130.5 -101t84 -144t30 -167q0 -65 -14 -132.5t-41 -131t-66 -120.5t-90.5 -101.5t-114 -74t-135.5 -36.5v-964h-147q-26 48 -54.5 92t-63.5 77.5t-78 53.5t-98 20q-54 0 -116 -17t-131.5 -37.5t-147 -37.5t-161.5 -17q-98 0 -170 25.5t-119 70.5t-70.5 106
t-23.5 132q0 68 20.5 136t60.5 126h6l214 -155v-4q-19 -38 -19 -69t17 -50.5t42 -31t54.5 -15.5t54.5 -4q56 0 109.5 14.5t109 32.5t114.5 32.5t125 14.5q67 0 115 -16t90 -42h6v875q-43 -1 -90.5 -14t-94.5 -34.5t-90 -51t-75.5 -63.5t-52 -71.5t-19.5 -75.5q0 -19 5 -39z
" />
    <glyph glyph-name="uni0993" unicode="&#x993;" horiz-adv-x="1587" 
d="M329 997h6q50 -194 116.5 -344t144.5 -253t165.5 -156.5t179.5 -53.5q63 0 114 23.5t87.5 62t56.5 88.5t20 103q0 42 -13.5 84.5t-42.5 80.5q-17 -29 -43 -52t-57 -39t-65.5 -24t-67.5 -8q-37 0 -70.5 10.5t-59 32.5t-41 55.5t-15.5 79.5q0 49 17.5 86t46 63t63.5 42.5
t70 26t66 13t51 3.5q29 61 29 132q0 50 -15 99t-44 87.5t-70.5 62t-95.5 23.5q-38 0 -74 -13t-69 -42l5 -9q40 0 67.5 -16t45 -41t25.5 -56t8 -60q0 -42 -15 -79.5t-42 -66t-65 -45t-84 -16.5q-49 0 -94.5 19.5t-81 55.5t-56.5 87t-21 114q0 87 40.5 161.5t108.5 129
t156 85.5t184 31q109 0 192 -39.5t138.5 -104t84 -147.5t28.5 -171q0 -64 -15.5 -126.5t-47.5 -120.5q55 -38 92.5 -90t60.5 -109.5t33.5 -116t10.5 -109.5q0 -102 -36 -192.5t-103.5 -158.5t-163.5 -107.5t-217 -39.5q-128 0 -233.5 43.5t-192 116.5t-154.5 167
t-119.5 195.5t-88 202t-59.5 186.5z" />
    <glyph glyph-name="uni0994" unicode="&#x994;" horiz-adv-x="1946" 
d="M329 997h6q50 -194 116.5 -344t144.5 -253t165.5 -156.5t179.5 -53.5q63 0 114 23.5t87.5 62t56.5 88.5t20 103q0 42 -13.5 84.5t-42.5 80.5q-17 -29 -43 -52t-57 -39t-65.5 -24t-67.5 -8q-37 0 -70.5 10.5t-59 32.5t-41 55.5t-15.5 79.5q0 49 17.5 86t46 63t63.5 42.5
t70 26t66 13t51 3.5q29 61 29 132q0 50 -15 99t-44 87.5t-70.5 62t-95.5 23.5q-38 0 -74 -13t-69 -42l5 -9q40 0 67.5 -16t45 -41t25.5 -56t8 -60q0 -42 -15 -79.5t-42 -66t-65 -45t-84 -16.5q-49 0 -94.5 19.5t-81 55.5t-56.5 87t-21 114q0 87 40.5 161.5t108.5 129
t156 85.5t184 31q109 0 192 -39.5t138.5 -104t84 -148t28.5 -171.5q0 -41 -6 -81.5t-20 -80.5q70 35 116.5 74t74.5 80.5t39 85t11 88.5q0 82 -29 137.5t-78.5 93t-116 61t-140.5 40t-153 30.5t-153 33t-140.5 47t-116 73t-78.5 110.5t-29 159.5h262q0 -50 29 -83.5t79 -57
t116.5 -39.5t141.5 -31t154 -32.5t154 -43.5t141.5 -63.5t116.5 -93t79 -132.5t29 -181q0 -95 -28 -182.5t-81 -163.5t-130 -138.5t-176 -106.5q35 -68 50.5 -139.5t15.5 -134.5q0 -102 -36 -192.5t-103.5 -158.5t-163.5 -107.5t-217 -39.5q-128 0 -233.5 43.5t-192 116.5
t-154.5 167t-119.5 195.5t-88 202t-59.5 186.5z" />
    <glyph glyph-name="uni0995" unicode="&#x995;" horiz-adv-x="1960" 
d="M955 1266h-1025v225h2100v-225h-814v-78q73 -2 148.5 -22t146.5 -55t133 -84.5t108 -110t73 -131.5t27 -150q0 -71 -21.5 -140t-61.5 -123.5t-97 -88t-127 -33.5q-51 0 -93.5 18t-72.5 48t-46.5 69.5t-16.5 82.5q0 42 13.5 79.5t38.5 66t59.5 45t76.5 16.5q58 0 117 -37
l5 6q-2 57 -39 106t-95.5 85.5t-131 57.5t-144.5 21v-954h-147q-38 75 -98 138.5t-134.5 117t-160.5 97t-176.5 77t-182 58t-177.5 40.5v290q22 19 71 53.5t115 76.5t145 87t162 84.5t165.5 69t156.5 40.5v77zM475 687v-12q99 -35 174.5 -68t132 -64.5t97 -60t70.5 -54.5h6
v485q-30 -2 -85.5 -20.5t-123 -49t-139 -71t-132.5 -85.5z" />
    <glyph glyph-name="uni0996" unicode="&#x996;" horiz-adv-x="1561" 
d="M520 1263q63 20 110 50.5t79.5 63t52 63.5t28.5 54h13q82 -67 120 -152t38 -176q0 -69 -24 -142t-71.5 -137.5t-118.5 -114.5t-166 -74v-8q59 -13 134 -42t149.5 -66t139.5 -77.5t105 -76.5h6v1063h516v-225h-255v-1306h-147q-38 75 -98 138.5t-134.5 117t-160.5 97
t-176.5 77t-182 58t-177.5 40.5v341q140 34 222.5 75.5t125 83.5t55 81.5t12.5 69.5q-23 -30 -57 -53.5t-73.5 -39.5t-84 -24.5t-88.5 -8.5q-56 0 -109 14t-93.5 43t-65 74.5t-24.5 107.5q0 48 14 87.5t39.5 68t62 44.5t82.5 16q43 0 77.5 -14t59.5 -37.5t38.5 -55.5
t13.5 -68v-9t-1 -9z" />
    <glyph glyph-name="uni0997" unicode="&#x997;" horiz-adv-x="1578" 
d="M1132 0v829q-66 126 -121.5 213t-108.5 141t-107.5 78t-118.5 24q-90 0 -149.5 -41t-101.5 -111q21 4 41.5 6t43.5 2q67 0 130.5 -19t113 -55.5t80 -89.5t30.5 -122q0 -55 -19.5 -111.5t-51.5 -112.5t-74.5 -110t-88.5 -103.5t-93 -92t-88 -75.5l-183 178
q81 61 143.5 120t106 112t66 97.5t22.5 76.5q0 21 -10 37t-26.5 26t-38.5 15t-47 5q-42 0 -95.5 -15t-120.5 -47l-146 190q6 55 25.5 113.5t52 114t77.5 105t102.5 86.5t127 59t150.5 22q85 0 156 -24t129.5 -63t104.5 -89t81 -103h6v225h516v-225h-255v-1266h-261z" />
    <glyph glyph-name="uni0998" unicode="&#x998;" horiz-adv-x="1492" 
d="M158 1192q0 19 1 37t3 37h-232v225h1632v-225h-255v-1306h-147q-38 75 -98.5 138.5t-135.5 117t-162 97t-178.5 77t-183.5 58t-178 40.5v209q33 29 74 62t83 62q-57 21 -99 57.5t-69.5 84.5t-41 106t-13.5 123zM761 1013q33 -39 61.5 -81.5t50.5 -87.5q-29 -13 -69.5 -32
t-83.5 -41t-84 -44.5t-70 -43.5v-8q99 -35 174.5 -68t132 -64.5t97 -60t70.5 -54.5h6v838h-624q-2 -17 -3.5 -33.5t-1.5 -32.5q0 -44 10 -83.5t32.5 -69t58.5 -47t89 -17.5q32 0 67 6.5t69 17.5z" />
    <glyph glyph-name="uni0999" unicode="&#x999;" horiz-adv-x="1747" 
d="M1061 1662q80 0 151.5 -17.5t125.5 -53.5t85.5 -91.5t31.5 -131.5q0 -93 -46 -163t-117 -116.5t-156 -70t-164 -23.5q-24 0 -43.5 2t-40.5 7q18 -66 40 -107t47.5 -64t54 -31t59.5 -8q44 0 84 12.5t74.5 32t64 44t54.5 49t45 47t35 37.5h19q82 -96 122 -211t40 -234
q0 -80 -18 -159.5t-53.5 -151.5t-88 -134.5t-122 -108t-155 -71.5t-186.5 -26q-131 0 -240.5 43.5t-199.5 119.5t-162 178.5t-127.5 221.5t-96.5 248t-68 258l212 153h6q25 -108 59 -221t78.5 -220.5t99.5 -202.5t121 -166.5t143 -113t167 -41.5q64 0 117 20.5t95 54.5
t73.5 77.5t52.5 88.5t31.5 88.5t10.5 77.5q0 37 -12 57q-31 -24 -69.5 -43.5t-79.5 -33t-82 -20.5t-77 -7q-95 0 -174 47t-138 125t-95.5 177.5t-45.5 204.5q-28 16 -70.5 44t-89.5 65t-93 83.5t-81 100.5l166 175l6 2q38 -52 66.5 -86t50 -56.5t37.5 -35.5t30 -22
q49 153 159.5 227t276.5 74zM1195 1358q0 22 -10 37.5t-27 25.5t-39 15t-47 5q-40 0 -77.5 -12t-67 -35t-47.5 -58.5t-18 -81.5q20 -6 50.5 -12t68.5 -6q37 0 75 7.5t69 22.5t50.5 38t19.5 54z" />
    <glyph glyph-name="uni099A" unicode="&#x99a;" horiz-adv-x="1349" 
d="M215 1266h-285v225h1489v-225h-943v-83q70 -68 140 -109t143.5 -62.5t153 -28.5t168.5 -7q36 -14 63 -33.5t45.5 -47.5t28 -66t9.5 -88q0 -74 -18.5 -159.5t-55 -170.5t-89.5 -163.5t-121 -139t-151.5 -96.5t-179.5 -36q-11 0 -44.5 9.5t-77.5 33t-92.5 64t-89 102.5
t-67 148.5t-26.5 201.5v731zM476 569q0 -117 19.5 -184.5t45.5 -101.5t52.5 -43t41.5 -9q38 0 90 33t102 97t90 158t54 216l-7 10q-64 0 -129.5 8t-128.5 25.5t-121.5 45.5t-108.5 69v-324z" />
    <glyph glyph-name="uni099B" unicode="&#x99b;" horiz-adv-x="1717" 
d="M-70 1491h1857v-225h-1311v-68q39 -22 74.5 -38t71 -26t71.5 -15t76 -5q45 0 90.5 5.5t93.5 15.5q8 3 26 8t40 9.5t46 7.5t44 3q42 0 91 -13.5t97.5 -39.5t93.5 -65t79.5 -90.5t55 -115t20.5 -138.5q0 -90 -30 -173.5t-82 -157t-122 -135.5t-151 -108v-6q78 -31 158 -73
t157.5 -92t148.5 -107t131 -117l-183 -198q-63 79 -141.5 146t-166.5 121t-182.5 96t-190.5 71.5t-189.5 47t-178.5 23.5l17 261q13 0 45.5 -3.5t69.5 -8t71 -9t50 -7.5q55 0 112.5 18t111.5 49.5t101 73.5t82 90.5t55.5 101t20.5 104.5q0 33 -9.5 65.5t-30 60.5t-52 50.5
t-74.5 37.5q-9 -97 -35.5 -175t-64 -138.5t-83 -103.5t-92.5 -71t-92.5 -41t-82.5 -13q-22 0 -62 6t-88 24.5t-97.5 52.5t-90 91t-66 140t-25.5 198v373h-285v225zM476 940q0 -81 9.5 -137t24 -93.5t32.5 -59t35.5 -32.5t32.5 -13.5t23 -2.5q24 0 56 13t63 46.5t57 90.5
t39 145l-7 10q-21 -10 -54.5 -16t-81.5 -6q-32 0 -58 3t-52 10t-54.5 17t-64.5 25z" />
    <glyph glyph-name="uni099C" unicode="&#x99c;" horiz-adv-x="2255" 
d="M-70 1491h2395v-225h-742q26 -41 76 -65t107.5 -36.5t115.5 -16.5t100 -4l162 -177q-160 -284 -160 -556q0 -112 25 -221t78 -223l-170 -182q-97 134 -145 295.5t-48 330.5q0 140 32 274t96 252q-45 1 -97 8.5t-106 23.5t-107 40.5t-100.5 60.5t-86.5 84.5t-65 111.5
h-219q-37 -38 -67.5 -83t-52.5 -91.5t-34 -92.5t-12 -86q0 -70 36 -114.5t102 -44.5q31 0 61.5 12.5t64.5 42.5t74 80t91 125h19q49 -27 88.5 -65.5t69 -85t50.5 -98.5t34 -104t19 -101.5t6 -92.5q0 -113 -40 -212.5t-115.5 -173.5t-186 -117t-251.5 -43q-140 0 -254 42.5
t-206.5 117t-165 176t-128.5 220t-97 249.5t-70 263l213 156h6q32 -130 68.5 -252t81 -229.5t98.5 -197t121 -154t149.5 -100t182.5 -35.5q90 0 152.5 28t101.5 75t57 107.5t18 126.5q0 36 -5 72.5t-14 71.5q-92 -87 -171.5 -124.5t-154.5 -37.5q-80 0 -145.5 34
t-112.5 92.5t-72.5 137t-25.5 166.5t27.5 176t87.5 164h-839v225z" />
    <glyph glyph-name="uni099D" unicode="&#x99d;" horiz-adv-x="1866" 
d="M1420 1491h516v-225h-255v-1306h-147q-21 53 -54 104t-74.5 99t-89.5 93t-100 86v-382h-147q-38 75 -98 138.5t-134.5 117t-160.5 97t-176.5 77t-182 58t-177.5 40.5v290q22 19 71 53.5t115 76.5t145 87t162 84.5t165.5 69t156.5 40.5v77h-1025v225h1286v-832
q55 -32 106.5 -69t91.5 -80h6v981zM475 687v-12q99 -35 174.5 -68t132 -64.5t97 -60t70.5 -54.5h6v485q-30 -2 -85.5 -20.5t-123 -49t-139 -71t-132.5 -85.5z" />
    <glyph glyph-name="uni099E" unicode="&#x99e;" horiz-adv-x="2312" 
d="M818 857q20 14 45.5 23t57.5 9q42 0 74 -15.5t53.5 -40t32.5 -56t11 -63.5q0 -30 -11 -66.5t-38.5 -68.5t-74 -53.5t-116.5 -21.5q-72 0 -133.5 24.5t-105.5 69t-69 105.5t-25 135q0 90 37 173.5t100.5 156t148 132t180 102t196 66t196.5 23.5q60 0 113 -10v-376
q81 88 180 137.5t198 49.5q66 0 125 -22t103.5 -65.5t70 -108.5t25.5 -151q0 -60 -18 -117.5t-56 -105.5q38 -48 55.5 -104.5t17.5 -116.5q0 -86 -25 -151t-68 -109t-101 -66t-124 -22q-99 0 -199.5 45t-183.5 135v-437h-147q-26 48 -54.5 92t-63.5 77.5t-78 53.5t-98 20
q-54 0 -116 -17t-131.5 -37.5t-147 -37.5t-161.5 -17q-98 0 -170 25.5t-119 70.5t-70.5 106t-23.5 132q0 68 20.5 136t60.5 126h6l214 -155v-4q-19 -38 -19 -69t17 -50.5t42 -31t54.5 -15.5t54.5 -4q56 0 109.5 14.5t109 32.5t114.5 32.5t125 14.5q67 0 115 -16t90 -42h6
v875q-43 -1 -90.5 -14t-94.5 -34.5t-90 -51t-75.5 -63.5t-52 -71.5t-19.5 -75.5q0 -19 5 -39zM1979 555q-48 -17 -97 -17q-51 0 -89.5 16.5t-65 43.5t-40 61t-13.5 69q0 33 12.5 64.5t37 56t62 39t88.5 14.5q52 0 106 -17q5 8 7 16.5t2 16.5q0 37 -12 63.5t-32.5 44
t-48.5 25.5t-61 8q-45 0 -95 -14.5t-97 -42t-87.5 -66t-65.5 -86.5v-248q33 -57 75.5 -100t89 -72.5t94 -44.5t89.5 -15q64 0 106.5 36t42.5 110q0 20 -8 39z" />
    <glyph glyph-name="uni099F" unicode="&#x99f;" horiz-adv-x="1420" 
d="M1490 1266h-1014v-699q0 -80 9.5 -136.5t25 -94t35 -59t38.5 -32.5t36 -13.5t28 -2.5q43 0 91 20t94.5 53.5t89 78t75 93.5t51.5 99.5t19 96.5q0 71 -31 137l-21 -6q-4 -29 -16 -58t-34 -52.5t-55 -38.5t-79 -15q-49 0 -89 17t-68.5 46t-44 67.5t-15.5 81.5q0 33 12 75
t45 78.5t90.5 61.5t149.5 25q108 0 186 -36.5t128.5 -96.5t75 -138t24.5 -162q0 -102 -32 -191.5t-85.5 -165t-122 -135.5t-141.5 -102t-144 -64t-130 -22q-35 0 -82.5 9.5t-98.5 33t-100 64t-88 102.5t-63 148.5t-24 201.5v731h-285v225h1085q0 60 -22 98t-56.5 59.5
t-77 29.5t-83.5 8q-45 0 -97 -6.5t-107.5 -14t-112 -13.5t-110.5 -6q-117 0 -196.5 33t-128 89t-69.5 129t-21 154h254q0 -60 22 -94.5t56 -52t74 -22.5t76 -5q65 0 121.5 7.5t108.5 17t102.5 17t103.5 7.5q117 0 196.5 -40t129 -103t71 -140t21.5 -152h220v-225z" />
    <glyph glyph-name="uni09A0" unicode="&#x9a0;" horiz-adv-x="1303" 
d="M-70 1491h554q-25 32 -48 70.5t-40.5 80t-28 84.5t-10.5 85q0 52 19 101t61 86.5t109.5 60.5t164.5 23v-215q-33 0 -56 -9.5t-38 -25t-21.5 -35t-6.5 -38.5q0 -33 15 -71t39 -75t54 -69t59 -53h617v-225h-449q63 -90 116.5 -179.5t93 -178t62 -177.5t22.5 -177
q0 -126 -43 -232t-118.5 -183t-178.5 -120t-222 -43q-115 0 -203 40t-148 109t-90.5 161.5t-30.5 197.5q0 43 4.5 86.5t15.5 88.5q75 4 146.5 47t128 112t91 158t34.5 185q0 52 -12 105h-662v225zM809 992q-8 -85 -35 -155t-64.5 -125.5t-80.5 -97.5t-83 -71.5t-73.5 -46.5
t-50.5 -23q0 -55 20 -99t55 -75t82 -48t101 -17q66 0 117.5 29.5t87 77.5t54 108.5t18.5 122.5t-13.5 122.5t-34.5 114.5t-46 101t-48 82h-6z" />
    <glyph glyph-name="uni09A1" unicode="&#x9a1;" horiz-adv-x="1744" 
d="M362 1109q29 -119 62.5 -233t75.5 -216t92.5 -188t113.5 -148.5t139.5 -97.5t169.5 -35q75 0 138 33t108.5 87t70.5 124.5t25 145.5q0 66 -21 131q-62 -84 -140.5 -130.5t-179.5 -46.5q-75 0 -132.5 26.5t-97.5 67t-60.5 90t-20.5 96.5v451h-775v225h1884v-225h-851v-408
q5 -67 36 -67q53 0 97.5 18t86.5 56t85.5 96.5t94.5 139.5h19q56 -49 100.5 -114.5t76 -139t48.5 -151t17 -149.5t-17 -145t-51.5 -141t-86 -127.5t-120 -103.5t-154 -69.5t-187.5 -25.5q-132 0 -240 42t-196 115.5t-156.5 173.5t-121.5 216.5t-91.5 243.5t-66.5 254
l214 129h12z" />
    <glyph glyph-name="uni09A2" unicode="&#x9a2;" horiz-adv-x="1446" 
d="M1516 1266h-1031v-699q0 -80 9.5 -136.5t25 -94t35 -59t38.5 -32.5t36 -13.5t28 -2.5q43 0 91 20t94.5 53.5t89 78t75 93.5t51.5 99.5t19 96.5q0 71 -31 137l-21 -6q-4 -29 -16 -58t-34 -52.5t-55 -38.5t-79 -15q-49 0 -89 17t-68.5 46t-44 67.5t-15.5 81.5q0 33 12 75
t45 78.5t90.5 61.5t149.5 25q108 0 186 -36.5t128.5 -96.5t75 -138t24.5 -162q0 -102 -32 -191.5t-85.5 -165t-122 -135.5t-141.5 -102t-144 -64t-130 -22q-35 0 -82.5 9.5t-98.5 33t-100 64t-88 102.5t-63 148.5t-24 201.5v731h-294v225h1586v-225z" />
    <glyph glyph-name="uni09A3" unicode="&#x9a3;" horiz-adv-x="1442" 
d="M996 0v877q-36 78 -80 151.5t-95 130.5t-109.5 91t-122.5 34q-42 0 -80.5 -15t-67.5 -42.5t-46.5 -65t-17.5 -82.5q0 -25 5 -48l13 -5q21 32 56 48t77 16q39 0 73 -13t60 -36.5t41 -56t15 -70.5q0 -36 -14 -72t-42.5 -65t-71.5 -47t-101 -18q-68 0 -134 26.5t-118 77
t-84 123t-32 165.5q0 71 19.5 131.5t53.5 109.5t80 86.5t98 62.5t107.5 38t109.5 13q71 0 132 -20.5t111.5 -55t90 -78.5t68.5 -90h6v190h516v-225h-255v-1266h-261z" />
    <glyph glyph-name="uni09A4" unicode="&#x9a4;" horiz-adv-x="1744" 
d="M-70 1491h1884v-225h-1884v225zM317 1234q40 -114 87 -224.5t101 -209.5t114.5 -183t128 -145t142.5 -95.5t157 -34.5q81 0 144 32t106.5 83t66 115.5t22.5 129.5q0 41 -10 84.5t-34 82.5t-64.5 70.5t-100.5 47.5l-9 -14q24 -31 34.5 -63.5t10.5 -64.5q0 -47 -19 -87
t-50.5 -69t-72.5 -46t-86 -17q-44 0 -88 17t-79.5 51t-57.5 83t-22 114q0 76 31 131.5t84.5 92.5t125 55t151.5 18q137 0 235.5 -46.5t162.5 -120t94 -163.5t30 -177q0 -67 -17 -137t-51 -136t-84.5 -125t-117.5 -103.5t-150 -70t-183 -25.5q-121 0 -224.5 38.5t-192 107
t-164 162t-141 204t-121.5 233.5t-107 250l212 155h6z" />
    <glyph glyph-name="uni09A5" unicode="&#x9a5;" horiz-adv-x="1482" 
d="M502 698v-8q59 -13 134 -42t149.5 -66t139.5 -77.5t105 -76.5h6v1063h516v-225h-255v-1306h-147q-38 75 -98 138.5t-134.5 117t-160.5 97t-176.5 77t-182 58t-177.5 40.5v341q118 30 198 70.5t128.5 86t69.5 93t21 89.5q0 32 -10.5 59.5t-28.5 48t-43.5 32t-55.5 11.5
q-21 0 -44.5 -6.5t-39.5 -21.5l3 -4q44 -23 63.5 -56t19.5 -68q0 -31 -14 -60.5t-39 -53t-58.5 -38t-72.5 -14.5q-29 0 -63.5 10t-64.5 35.5t-50 69t-20 109.5q0 78 29.5 137t79.5 98t117 58.5t142 19.5q96 0 171.5 -29.5t128 -79t80.5 -114.5t28 -137q0 -70 -26.5 -142
t-77.5 -136.5t-124 -116t-166 -81.5z" />
    <glyph glyph-name="uni09A6" unicode="&#x9a6;" horiz-adv-x="1358" 
d="M1098 -115q-105 152 -152 307.5t-47 318.5q0 81 11 162.5t32 166.5l-3 5q-34 -14 -81 -51.5t-100.5 -89.5t-111 -113.5t-111 -124t-100.5 -120.5t-80 -103h-6l-119 164v859h-300v225h1498v-225h-937v-480h6q52 49 118.5 105t142 108t157.5 95.5t164 67.5l181 -192
q-49 -105 -73.5 -223t-24.5 -239q0 -70 8 -130t23 -114t35.5 -104t45.5 -100l-164 -175h-12z" />
    <glyph glyph-name="uni09A7" unicode="&#x9a7;" horiz-adv-x="1391" 
d="M945 1491h516v-225h-255v-1306h-147q-38 75 -98 138.5t-134.5 117t-160.5 97t-176.5 77t-182 58t-177.5 40.5v290q26 21 84.5 62.5t138.5 91.5q-38 28 -66.5 64.5t-48 77t-29.5 83.5t-10 85q0 63 22.5 120.5t65 102t103 71t135.5 26.5q63 0 109 -18t76 -47t44 -65t14 -71
q0 -36 -14 -68t-38.5 -55t-58.5 -36.5t-73 -13.5t-66.5 12.5t-44 31.5t-24 40t-7.5 38l-10 7q-18 -42 -18 -78q0 -32 11.5 -59.5t30.5 -51.5t43.5 -45t50.5 -39q100 51 202.5 91t192.5 54v302zM465 687v-12q99 -35 174.5 -68t132 -64.5t97 -60t70.5 -54.5h6v485
q-30 -2 -85.5 -20.5t-123 -49t-139 -71t-132.5 -85.5z" />
    <glyph glyph-name="uni09A8" unicode="&#x9a8;" horiz-adv-x="1438" 
d="M986 669h6v597h-1062v225h1578v-225h-255v-1305h-147q-69 147 -128 259.5t-109.5 196.5t-94 143.5t-82.5 101t-74.5 68t-70.5 44.5l-7 -11q13 -24 18.5 -47.5t5.5 -46.5q0 -44 -19 -82t-51.5 -66.5t-74.5 -45t-87 -16.5q-44 0 -87 16t-77 48.5t-54.5 81.5t-20.5 114
q0 77 29.5 134t80 94.5t117 55.5t141.5 18q76 0 145 -19.5t134 -61.5t126 -109t120 -162z" />
    <glyph glyph-name="uni09AA" unicode="&#x9aa;" horiz-adv-x="1773" 
d="M1327 0v610q-25 57 -45 99t-39.5 77.5t-41 69.5t-49.5 75q-55 -18 -109.5 -52t-104.5 -76.5t-95 -88.5t-80 -88t-59.5 -75.5t-34.5 -50.5l-201 166q6 21 24 50q15 40 15 85q0 39 -10.5 67.5t-28.5 47t-42.5 27t-53.5 8.5q-68 0 -126 -46l-126 184q10 56 41 112
t76.5 106.5t104 94t123.5 75.5t135 50t138 18q75 0 141 -21.5t123.5 -57t106.5 -81.5t89.5 -96t72.5 -99.5t56 -92.5v394h516v-225h-255v-1266h-261zM710 932q36 31 70 59t71 53.5t78 47t90 39.5q-23 46 -55 79t-70.5 55t-81.5 32.5t-87 10.5q-41 0 -81.5 -8.5t-77.5 -25.5
t-70 -41.5t-58 -55.5l4 -5q11 2 20.5 2h18.5q55 0 94.5 -18.5t66.5 -51t42 -76t20 -93.5z" />
    <glyph glyph-name="uni09AB" unicode="&#x9ab;" horiz-adv-x="2127" 
d="M1364 1110q129 0 247.5 -29.5t208.5 -88t143.5 -146t53.5 -203.5q0 -76 -21.5 -144t-61.5 -119t-97 -80.5t-127 -29.5q-51 0 -93.5 18t-72.5 48.5t-46.5 70.5t-16.5 84q0 40 13.5 77t38 65t59 45t75.5 17q60 0 119 -37l5 6q0 36 -26 67t-77.5 54t-128.5 36.5t-179 13.5
h-25v-875h-147q-38 75 -98 138.5t-134.5 117t-160.5 97t-176.5 77t-182 58t-177.5 40.5v215q30 26 64.5 54t71.5 54t73.5 49t70.5 40q-27 33 -79 71t-112 72.5t-118.5 60.5t-98.5 36v126h-221v225h2267v-225h-1706q54 -26 115.5 -68.5t120 -97.5t109.5 -120t85 -136
q-29 -13 -69.5 -32t-83.5 -41t-84 -44.5t-70 -43.5v-8q99 -35 174.5 -68t132 -64.5t97 -60t70.5 -54.5h6v682h270z" />
    <glyph glyph-name="uni09AC" unicode="&#x9ac;" horiz-adv-x="1402" 
d="M955 1266h-1025v225h1542v-225h-256v-1306h-147q-38 75 -98 138.5t-134.5 117t-160.5 97t-176.5 77t-182 58t-177.5 40.5v290q22 19 71 53.5t115 76.5t145 87t162 84.5t165.5 69t156.5 40.5v77zM475 687v-12q99 -35 174.5 -68t132 -64.5t97 -60t70.5 -54.5h6v485
q-30 -2 -85.5 -20.5t-123 -49t-139 -71t-132.5 -85.5z" />
    <glyph glyph-name="uni09AD" unicode="&#x9ad;" horiz-adv-x="1781" 
d="M-70 1491h1921v-225h-1921v225zM1680 580q0 -71 -17 -143.5t-51 -140t-84.5 -127t-117 -103.5t-150 -69.5t-182.5 -25.5q-121 0 -226 38.5t-195.5 106.5t-168 161.5t-144.5 204t-124.5 234t-108.5 250.5l216 155h6q39 -112 86.5 -221.5t102.5 -208.5t117.5 -184
t130.5 -147t142.5 -97t153.5 -35q58 0 107.5 18.5t90.5 50t72 73t52.5 87t32.5 92t11 88.5q-34 -33 -70.5 -61.5t-78 -49.5t-88.5 -33t-101 -12q-51 0 -102 11t-98 32.5t-87.5 52.5t-70.5 70.5t-47 87t-17 102.5q0 59 20 109t54.5 87t82 57.5t102.5 20.5q46 0 89 -14.5
t76.5 -42.5t53.5 -68.5t20 -92.5q0 -40 -12 -79.5t-34 -65.5l3 -5q61 13 107.5 44.5t83 74t67 93.5t60.5 103h14q59 -35 101 -92t68.5 -123t39 -135t12.5 -128z" />
    <glyph glyph-name="uni09AE" unicode="&#x9ae;" horiz-adv-x="1563" 
d="M-70 1491h1703v-225h-255v-1306h-195q-68 132 -182 229t-260 165q-42 -45 -102 -69.5t-129 -24.5q-59 0 -104.5 17.5t-76 46.5t-46 65.5t-15.5 75.5q0 56 25.5 99.5t64.5 73t86.5 45t92.5 15.5h13t12 -1q-4 99 -29.5 172.5t-64 126t-86.5 87t-98 56.5t-97.5 34t-84.5 20
v73h-172v225zM809 619q43 -22 87.5 -47t84.5 -50t73.5 -49.5t56.5 -44.5h6v838h-626q86 -57 145.5 -127.5t97 -152.5t55.5 -174.5t20 -192.5z" />
    <glyph glyph-name="uni09AF" unicode="&#x9af;" horiz-adv-x="1558" 
d="M1628 1491v-225h-255v-1306h-147q-38 75 -98 138.5t-134.5 117t-160.5 97t-176.5 77t-182 58t-177.5 40.5v215q30 26 64.5 54t71.5 54t73.5 49t70.5 40q-27 33 -79 71t-112 72.5t-118.5 60.5t-98.5 36v126h-239v225h1698zM632 675q99 -35 174.5 -68t132 -64.5t97 -60
t70.5 -54.5h6v838h-603q54 -26 115.5 -68.5t120 -97.5t109.5 -120t85 -136q-29 -13 -69.5 -32t-83.5 -41t-84 -44.5t-70 -43.5v-8z" />
    <glyph glyph-name="uni09B0" unicode="&#x9b0;" horiz-adv-x="1402" 
d="M955 1266h-1025v225h1542v-225h-256v-1306h-147q-38 75 -98 138.5t-134.5 117t-160.5 97t-176.5 77t-182 58t-177.5 40.5v290q22 19 71 53.5t115 76.5t145 87t162 84.5t165.5 69t156.5 40.5v77zM475 687v-12q99 -35 174.5 -68t132 -64.5t97 -60t70.5 -54.5h6v485
q-30 -2 -85.5 -20.5t-123 -49t-139 -71t-132.5 -85.5zM302 154q0 36 13.5 67t36.5 54t54.5 36.5t67.5 13.5t67 -13.5t54 -36.5t36.5 -54t13.5 -67t-13.5 -67.5t-36.5 -54.5t-54 -36.5t-67 -13.5t-67.5 13.5t-54.5 36.5t-36.5 54.5t-13.5 67.5z" />
    <glyph glyph-name="uni09B2" unicode="&#x9b2;" horiz-adv-x="1612" 
d="M1166 0v819q-37 42 -80.5 64t-89.5 22q-35 0 -69.5 -14.5t-65.5 -44.5q1 -1 10.5 -20.5t21.5 -42.5t22 -43.5t11 -23.5l-172 -107h-4q-10 18 -22 45.5t-28.5 58t-37 61t-47 55t-59 39.5t-72.5 15q-33 0 -60 -12.5t-46.5 -33.5t-30 -47.5t-10.5 -54.5q0 -14 2.5 -29.5
t6.5 -27.5l8 -1q28 30 60.5 44t65.5 14q34 0 66.5 -13.5t57.5 -38t40 -58.5t15 -74q0 -38 -14.5 -76t-44 -68t-74 -48.5t-104.5 -18.5q-71 0 -129 27.5t-99 75.5t-63 114.5t-22 144.5q0 84 26 163t74 140t116.5 97.5t152.5 36.5q67 0 134.5 -26t133.5 -89h6q48 60 114.5 88
t137.5 28q88 0 162 -41v167h-1236v225h1752v-225h-255v-1266h-261z" />
    <glyph glyph-name="uni09B6" unicode="&#x9b6;" horiz-adv-x="1694" 
d="M1249 0v859q-53 112 -102 191.5t-94.5 130t-87 74t-78.5 23.5q-15 0 -30.5 -4t-33.5 -14t-39 -28.5t-48 -46.5q50 -37 95.5 -76t80 -79.5t55 -83.5t20.5 -89q0 -42 -16.5 -80t-45 -67.5t-65.5 -47t-77 -17.5q-24 0 -55 7.5t-62.5 25.5t-60 48.5t-47.5 76.5h-6
q-21 -46 -48 -76t-55.5 -48t-56.5 -25.5t-52 -7.5q-38 0 -75 16t-66 44.5t-46.5 68t-17.5 86.5q0 49 19.5 91.5t51 79t70 68.5t77.5 62q-18 15 -41.5 33.5t-52 34t-61 26t-67.5 10.5h-201v225h219q59 0 112.5 -15t103 -39.5t95.5 -56t91 -63.5q10 11 31 31.5t49 45t61 50.5
t69 47t72.5 34.5t71.5 13.5q37 0 81.5 -16.5t90 -48.5t88.5 -79.5t78 -110.5h6v207h515v-225h-254v-1266h-261z" />
    <glyph glyph-name="uni09B7" unicode="&#x9b7;" horiz-adv-x="1479" 
d="M184 1140v126h-254v225h1619v-225h-255v-1306h-147q-38 75 -98 138.5t-134.5 117t-160.5 97t-176.5 77t-182 58t-177.5 40.5v245q33 27 78 57.5t96.5 61t106.5 60.5t109 57q-96 46 -202 89.5t-222 81.5zM855 841q-15 -6 -39.5 -17t-54 -26t-61.5 -31.5t-60.5 -32.5
t-51.5 -29.5t-35 -21.5v-8q99 -35 174.5 -68t132 -64.5t97 -60t70.5 -54.5h6v310q-37 22 -81.5 48t-96.5 55zM538 1260q78 -31 151 -66t136.5 -69.5t115 -65.5t86.5 -55h6v262h-495v-6z" />
    <glyph glyph-name="uni09B8" unicode="&#x9b8;" horiz-adv-x="1628" 
d="M1182 0v577q-25 42 -51 77t-52 60.5t-51 40t-46 14.5q-31 0 -64.5 -36.5t-71.5 -91t-81.5 -118t-94.5 -118t-111.5 -91t-132.5 -36.5q-60 0 -111.5 31t-91.5 76.5t-67.5 96.5t-38.5 91l186 133q38 -91 71 -131t67 -40q35 0 74.5 40.5t92.5 125.5q-23 100 -68.5 175.5
t-103 129t-122.5 86.5t-126 50v124h-258v225h1768v-225h-255v-1266h-261zM774 928q57 48 102.5 73t94.5 25q50 0 103 -25t108 -71v336h-660q49 -34 88 -74t69.5 -83.5t53.5 -89t41 -91.5z" />
    <glyph glyph-name="uni09B9" unicode="&#x9b9;" horiz-adv-x="1412" 
d="M789 471q76 -34 155 -78.5t154.5 -97.5t145 -112t126.5 -121l-190 -192q-60 81 -136 150.5t-162.5 127t-179.5 102.5t-187.5 78t-187 53.5t-177.5 29.5l26 261q13 -1 45.5 -5.5t69 -10.5t70.5 -12t49 -9q8 -1 16 -1h17q36 0 81 4t90.5 13.5t88.5 24.5t76.5 36t53.5 49
t20 64q0 33 -19 59t-46 44t-55.5 27.5t-47.5 9.5q-12 -41 -39.5 -71.5t-63 -50.5t-75.5 -30.5t-78 -10.5q-46 0 -79 13.5t-54 36t-31 52t-10 61.5q0 34 11 63t29.5 53.5t44 43.5t54.5 33q-5 20 -14 52t-17 56h-433v225h1552v-225h-863l17 -69q55 0 112.5 -10t112.5 -30
t103.5 -50t85 -69.5t58 -88.5t21.5 -107q0 -70 -28.5 -127t-75.5 -102t-108.5 -78.5t-127.5 -57.5v-6z" />
    <glyph glyph-name="uni09BC" unicode="&#x9bc;" 
d="M-745 -275q0 36 13.5 67t36.5 54t54.5 36.5t67.5 13.5t67 -13.5t54 -36.5t36.5 -54t13.5 -67t-13.5 -67.5t-36.5 -54.5t-54 -36.5t-67 -13.5t-67.5 13.5t-54.5 36.5t-36.5 54.5t-13.5 67.5z" />
    <glyph glyph-name="uni09BD" unicode="&#x9bd;" horiz-adv-x="1193" 
d="M-70 1491h667v-294q85 -2 173.5 -25t160.5 -67t118 -110t46 -153q0 -70 -28.5 -127t-75.5 -102t-108.5 -78.5t-127.5 -57.5v-6q93 -54 161 -106.5t122 -107.5t97.5 -113t87.5 -123l-225 -126q-88 123 -189 214.5t-212.5 154.5t-232.5 100t-248 50l26 258q13 -1 45.5 -5.5
t69 -10.5t70.5 -12t49 -9q8 -1 16 -1h17q36 0 81 4t90.5 13.5t88.5 24.5t76.5 36t53.5 49t20 64q0 33 -19 59t-46 43.5t-55.5 27t-47.5 9.5q-12 -41 -39.5 -71t-63 -50.5t-75.5 -30.5t-78 -10q-46 0 -79 13.5t-54 36t-31 52t-10 61.5q0 34 11 63t30 53t44.5 43t54.5 33
q-5 23 -14.5 54t-17.5 55h-399v225z" />
    <glyph glyph-name="uni09BE" unicode="&#x9be;" horiz-adv-x="621" 
d="M175 1114q0 31 -12.5 58.5t-34.5 48.5t-52.5 33t-66.5 12h-79v225h127q24 0 55.5 -4.5t65.5 -16t67.5 -30t61.5 -45.5v8q0 38 17.5 63t45.5 25h321v-225h-86q-36 0 -66.5 -12t-53.5 -33t-36 -48.5t-13 -58.5v-1114h-261v1114z" />
    <glyph glyph-name="uni09BF" unicode="&#x9bf;" horiz-adv-x="631" 
d="M185 0v1266h-255v225h255q-48 94 -48 185q0 89 47 167t137 136t221.5 91.5t301.5 33.5q147 0 274.5 -27t236 -69t198 -92t160.5 -96l-125 -218q-72 51 -159 98.5t-181.5 84t-193.5 58.5t-197 22q-93 0 -177.5 -13t-148.5 -40t-102 -69.5t-38 -101.5q0 -32 13 -69.5
t42 -80.5h255v-225h-255v-1266h-261z" />
    <glyph glyph-name="uni09C0" unicode="&#x9c0;" horiz-adv-x="631" 
d="M-70 1491h255q-3 58 -14.5 118t-35.5 116t-61.5 105t-91.5 85.5t-126 57.5t-165 21h-579q-34 0 -70 -2.5t-65 -13t-48 -32t-19 -58.5q0 -31 13.5 -48t39.5 -25.5t62.5 -10.5t83.5 -2h403q71 0 127.5 -21t95.5 -61t59.5 -98t20.5 -131h-261q0 28 -10 45t-31.5 26t-55 12
t-80.5 3h-419q-81 0 -137.5 29.5t-92.5 74.5t-52 100t-16 106q0 73 30 134t86 105t137 68.5t182 24.5h539q143 0 254 -23.5t194.5 -64t142.5 -94t98.5 -113t63.5 -121.5t36.5 -120t16.5 -107.5t6 -84.5h255v-225h-255v-1266h-261v1266h-255v225z" />
    <glyph glyph-name="uni09C1" unicode="&#x9c1;" 
d="M280 -283l-123 -232q-39 35 -80.5 71t-88 68.5t-99 61t-113.5 48.5q-59 -117 -153 -182.5t-222 -65.5q-69 0 -125.5 19t-96.5 52.5t-62 78.5t-22 97q0 55 25 109.5t74 98t121.5 70.5t166.5 27q75 0 157 -17t163 -44.5t157.5 -62.5t140 -70.5t111 -69t69.5 -57.5z
M-449 -184q-20 13 -45.5 19t-53.5 6q-27 0 -52.5 -5.5t-46 -17t-33 -28.5t-12.5 -39q0 -33 25 -50.5t62 -17.5q28 0 54.5 10t47.5 27.5t35.5 42t18.5 53.5z" />
    <glyph glyph-name="uni09C2" unicode="&#x9c2;" 
d="M-185 -139q-80 0 -139 -4t-98 -16t-58.5 -33.5t-19.5 -55.5q0 -39 26 -57t64 -18q30 0 64.5 9t66.5 22t57.5 27.5t37.5 26.5q70 -25 116.5 -39.5t85 -23t76 -13.5t88.5 -10v-190q-41 0 -78.5 3.5t-78.5 13.5t-89.5 27.5t-110.5 45.5q-54 -41 -130.5 -65.5t-157.5 -24.5
q-66 0 -120 17.5t-92.5 52t-59.5 85t-21 116.5q0 63 24.5 116t88.5 91.5t175 60t283 21.5v-185z" />
    <glyph glyph-name="uni09C3" unicode="&#x9c3;" 
d="M-185 0q-36 -9 -82.5 -24t-95 -33t-96 -36.5t-86.5 -33.5v-12q59 -14 112.5 -28.5t102.5 -31.5t95.5 -37t92.5 -45v-214h-12q-61 33 -137 64t-154.5 58t-152.5 48t-132 33v290q46 24 94 47.5t105 48t126.5 49t158.5 50.5z" />
    <glyph glyph-name="uni09C4" unicode="&#x9c4;" 
d="M-482 46q-32 4 -68 9t-71.5 10t-68 10.5t-57.5 11.5v264q30 21 91 44.5t135 47.5t151.5 47t141.5 42l43 -190q-54 -15 -106.5 -31.5t-97.5 -33t-80 -31.5t-54 -27v-12q93 -23 173 -54t161 -79v-62q-41 -26 -77 -45.5t-72.5 -35.5t-76 -28.5t-85.5 -23.5v-12
q19 -12 50 -24t72 -25t90 -26.5t103 -28.5l-43 -169q-64 19 -141.5 42t-151.5 47t-135 47.5t-91 44.5v220q25 6 57 12t67.5 11t71.5 10.5t69 11.5v6z" />
    <glyph glyph-name="uni09C7" unicode="&#x9c7;" horiz-adv-x="969" 
d="M-70 1491h1109v-225h-382q-56 -49 -96 -115.5t-65.5 -144.5t-37.5 -162.5t-12 -169.5q0 -109 18 -210t52 -182l14 2q33 66 81 91.5t99 25.5t89.5 -16.5t64.5 -44.5t39.5 -63.5t13.5 -73.5q0 -42 -16.5 -82.5t-50.5 -72.5t-86 -52t-122 -20q-85 0 -151.5 27t-117.5 75
t-86.5 113.5t-58 142.5t-32.5 162t-10 172q0 85 9.5 169.5t27.5 161.5t44 145t59 122h-396v225z" />
    <glyph glyph-name="uni09C8" unicode="&#x9c8;" horiz-adv-x="969" 
d="M-70 1491h681q0 52 -18 83t-47 47t-66.5 20.5t-77.5 4.5h-96q-84 0 -142 16.5t-96 45.5t-59.5 67.5t-31.5 83.5t-12 93t-2 95h254q0 -42 9 -69t28.5 -42.5t49.5 -21t72 -5.5h101q70 0 127 -18.5t101 -50t76 -73.5t52.5 -88.5t30.5 -94.5t10 -93h165v-225h-382
q-56 -49 -96 -115.5t-65.5 -144.5t-37.5 -162.5t-12 -169.5q0 -109 18 -210t52 -182l14 2q33 66 81 91.5t99 25.5t89.5 -16.5t64.5 -44.5t39.5 -63.5t13.5 -73.5q0 -42 -16.5 -82.5t-50.5 -72.5t-86 -52t-122 -20q-85 0 -151.5 27t-117.5 75t-86.5 113.5t-58 142.5
t-32.5 162t-10 172q0 85 9.5 169.5t27.5 161.5t44 145t59 122h-396v225z" />
    <glyph glyph-name="uni09CB" unicode="&#x9cb;" horiz-adv-x="2661" 
d="M-70 1491h1109v-225h-382q-56 -49 -96 -115.5t-65.5 -144.5t-37.5 -162.5t-12 -169.5q0 -109 18 -210t52 -182l14 2q33 66 81 91.5t99 25.5t89.5 -16.5t64.5 -44.5t39.5 -63.5t13.5 -73.5q0 -42 -16.5 -82.5t-50.5 -72.5t-86 -52t-122 -20q-85 0 -151.5 27t-117.5 75
t-86.5 113.5t-58 142.5t-32.5 162t-10 172q0 85 9.5 169.5t27.5 161.5t44 145t59 122h-396v225zM1873 918q0 -50 -48 -50q-52 0 -52 50t52 50q48 0 48 -50zM1725 1016q0 -49 -48 -49q-52 0 -52 49q0 51 52 51q48 0 48 -51zM1972 770q0 -51 -51 -51q-49 0 -49 51q0 49 51 49
q49 0 49 -49zM2008 596q0 -50 -48 -50q-52 0 -52 50t52 50q48 0 48 -50zM1551 1053q0 -51 -50 -51t-50 51q0 49 50 49t50 -49zM1378 1016q0 -49 -51 -49q-49 0 -49 49q0 51 49 51q51 0 51 -51zM1972 422q0 -49 -51 -49q-49 0 -49 49q0 51 49 51q51 0 51 -51zM1230 918
q0 -50 -50 -50t-50 47q0 53 50 53t50 -50zM1873 272q0 -49 -48 -49q-52 0 -52 49q0 51 52 51q48 0 48 -51zM1725 174q0 -48 -48 -48q-52 0 -52 48q0 52 52 52q48 0 48 -52zM1131 770q0 -51 -48 -51q-52 0 -52 51q0 49 50 49t50 -49zM1095 596q1 -50 -48 -50q-52 0 -52 50
t52 50q49 0 48 -50zM1551 141q0 -51 -50 -51t-50 51q0 49 50 49t50 -49zM1131 422q0 -49 -50 -49t-50 49q0 51 50 51t50 -51zM1378 178q0 -52 -51 -52q-49 0 -49 48q0 52 49 52q51 0 51 -48zM1230 272q0 -49 -50 -49t-50 49q0 51 50 51t50 -51zM2215 1114q0 31 -12.5 58.5
t-34.5 48.5t-52.5 33t-66.5 12h-79v225h127q24 0 55.5 -4.5t65.5 -16t67.5 -30t61.5 -45.5v8q0 38 17.5 63t45.5 25h321v-225h-86q-36 0 -66.5 -12t-53.5 -33t-36 -48.5t-13 -58.5v-1114h-261v1114z" />
    <glyph glyph-name="uni09CC" unicode="&#x9cc;" horiz-adv-x="2655" 
d="M-70 1491h1109v-225h-382q-56 -49 -96 -115.5t-65.5 -144.5t-37.5 -162.5t-12 -169.5q0 -109 18 -210t52 -182l14 2q33 66 81 91.5t99 25.5t89.5 -16.5t64.5 -44.5t39.5 -63.5t13.5 -73.5q0 -42 -16.5 -82.5t-50.5 -72.5t-86 -52t-122 -20q-85 0 -151.5 27t-117.5 75
t-86.5 113.5t-58 142.5t-32.5 162t-10 172q0 85 9.5 169.5t27.5 161.5t44 145t59 122h-396v225zM1873 918q0 -50 -48 -50q-52 0 -52 50t52 50q48 0 48 -50zM1725 1016q0 -49 -48 -49q-52 0 -52 49q0 51 52 51q48 0 48 -51zM1972 770q0 -51 -51 -51q-49 0 -49 51q0 49 51 49
q49 0 49 -49zM2008 596q0 -50 -48 -50q-52 0 -52 50t52 50q48 0 48 -50zM1551 1053q0 -51 -50 -51t-50 51q0 49 50 49t50 -49zM1378 1016q0 -49 -51 -49q-49 0 -49 49q0 51 49 51q51 0 51 -51zM1972 422q0 -49 -51 -49q-49 0 -49 49q0 51 49 51q51 0 51 -51zM1230 918
q0 -50 -50 -50t-50 47q0 53 50 53t50 -50zM1873 272q0 -49 -48 -49q-52 0 -52 49q0 51 52 51q48 0 48 -51zM1725 174q0 -48 -48 -48q-52 0 -52 48q0 52 52 52q48 0 48 -52zM1131 770q0 -51 -48 -51q-52 0 -52 51q0 49 50 49t50 -49zM1095 596q1 -50 -48 -50q-52 0 -52 50
t52 50q49 0 48 -50zM1551 141q0 -51 -50 -51t-50 51q0 49 50 49t50 -49zM1131 422q0 -49 -50 -49t-50 49q0 51 50 51t50 -51zM1378 178q0 -52 -51 -52q-49 0 -49 48q0 52 49 52q51 0 51 -48zM1230 272q0 -49 -50 -49t-50 49q0 51 50 51t50 -51zM2209 0v1266h-255v225h255
q0 60 -22 98t-56.5 59.5t-77 29.5t-83.5 8q-45 0 -95 -6.5t-103 -14t-108 -13.5t-109 -6q-117 0 -197.5 32.5t-131 87.5t-72.5 127.5t-22 153.5h254q0 -62 25 -97t62.5 -52t79.5 -21.5t77 -4.5q64 0 119.5 6t105.5 13t97 13t93 6q112 0 189.5 -37.5t126.5 -97.5t71 -135
t22 -149h271v-225h-255v-1266h-261z" />
    <glyph glyph-name="uni09CD" unicode="&#x9cd;" 
d="M-129 -514q-40 38 -100.5 84.5t-136 89.5t-162 78t-177.5 50v12l256 140q67 -26 135.5 -59t131.5 -71.5t119 -82t99 -89.5z" />
    <glyph glyph-name="uni09CE" unicode="&#x9ce;" horiz-adv-x="1261" 
d="M799 1188q0 27 -13.5 47t-34.5 33.5t-46.5 20.5t-49.5 7q-26 0 -53 -7.5t-50 -22.5q5 -27 14 -56.5t24.5 -54t40 -40.5t59.5 -16q21 0 40.5 5.5t34.5 17t24.5 28t9.5 38.5zM354 1036q0 -97 34.5 -167.5t91.5 -124t129.5 -95.5t148 -81t148 -79.5t129.5 -91.5t91.5 -118
t34.5 -159q0 -64 -17 -116.5t-44 -97t-61.5 -82.5t-69.5 -74l-172 178q35 33 55.5 58t31.5 45t14.5 36t3.5 32q0 64 -34.5 112.5t-91 89t-128.5 77.5t-147 78t-147 90t-128.5 114t-91 150t-34.5 198q0 100 27 177.5t71.5 134t101.5 95t116.5 62t116.5 33.5t102 10
q41 0 86 -8t89 -25t83.5 -43.5t69.5 -63.5t48 -85.5t18 -108.5q0 -80 -30 -138.5t-78 -97t-107.5 -57.5t-118.5 -19q-60 0 -110.5 18t-91.5 50.5t-72.5 76.5t-53.5 95q-4 -14 -6.5 -23.5t-4 -17.5t-2 -16.5t-0.5 -20.5z" />
    <glyph glyph-name="uni09D7" unicode="&#x9d7;" horiz-adv-x="631" 
d="M185 0v1266h-255v225h255q0 60 -22 98t-56.5 59.5t-77 29.5t-83.5 8q-45 0 -95 -6.5t-103 -14t-108 -13.5t-109 -6q-117 0 -197.5 32.5t-131 87.5t-72.5 127.5t-22 153.5h254q0 -62 25 -97t62.5 -52t79.5 -21.5t77 -4.5q64 0 119.5 6t105.5 13t97 13t93 6
q112 0 189.5 -37.5t126.5 -97.5t71 -135t22 -149h271v-225h-255v-1266h-261z" />
    <glyph glyph-name="uni09DC" unicode="&#x9dc;" horiz-adv-x="1744" 
d="M362 1109q29 -119 62.5 -233t75.5 -216t92.5 -188t113.5 -148.5t139.5 -97.5t169.5 -35q75 0 138 33t108.5 87t70.5 124.5t25 145.5q0 66 -21 131q-62 -84 -140.5 -130.5t-179.5 -46.5q-75 0 -132.5 26.5t-97.5 67t-60.5 90t-20.5 96.5v451h-775v225h1884v-225h-851v-408
q5 -67 36 -67q53 0 97.5 18t86.5 56t85.5 96.5t94.5 139.5h19q56 -49 100.5 -114.5t76 -139t48.5 -151t17 -149.5t-17 -145t-51.5 -141t-86 -127.5t-120 -103.5t-154 -69.5t-187.5 -25.5q-132 0 -240 42t-196 115.5t-156.5 173.5t-121.5 216.5t-91.5 243.5t-66.5 254
l214 129h12zM804 -303q0 36 13.5 67t36.5 54t54.5 36.5t67.5 13.5t67 -13.5t54 -36.5t36.5 -54t13.5 -67t-13.5 -67.5t-36.5 -54.5t-54 -36.5t-67 -13.5t-67.5 13.5t-54.5 36.5t-36.5 54.5t-13.5 67.5z" />
    <glyph glyph-name="uni09DD" unicode="&#x9dd;" horiz-adv-x="1446" 
d="M1516 1266h-1031v-699q0 -80 9.5 -136.5t25 -94t35 -59t38.5 -32.5t36 -13.5t28 -2.5q43 0 91 20t94.5 53.5t89 78t75 93.5t51.5 99.5t19 96.5q0 71 -31 137l-21 -6q-4 -29 -16 -58t-34 -52.5t-55 -38.5t-79 -15q-49 0 -89 17t-68.5 46t-44 67.5t-15.5 81.5q0 33 12 75
t45 78.5t90.5 61.5t149.5 25q108 0 186 -36.5t128.5 -96.5t75 -138t24.5 -162q0 -102 -32 -191.5t-85.5 -165t-122 -135.5t-141.5 -102t-144 -64t-130 -22q-35 0 -82.5 9.5t-98.5 33t-100 64t-88 102.5t-63 148.5t-24 201.5v731h-294v225h1586v-225zM473 -275q0 36 13.5 67
t36.5 54t54.5 36.5t67.5 13.5t67 -13.5t54 -36.5t36.5 -54t13.5 -67t-13.5 -67.5t-36.5 -54.5t-54 -36.5t-67 -13.5t-67.5 13.5t-54.5 36.5t-36.5 54.5t-13.5 67.5z" />
    <glyph glyph-name="uni09DF" unicode="&#x9df;" horiz-adv-x="1558" 
d="M1628 1491v-225h-255v-1306h-147q-38 75 -98 138.5t-134.5 117t-160.5 97t-176.5 77t-182 58t-177.5 40.5v215q30 26 64.5 54t71.5 54t73.5 49t70.5 40q-27 33 -79 71t-112 72.5t-118.5 60.5t-98.5 36v126h-239v225h1698zM632 675q99 -35 174.5 -68t132 -64.5t97 -60
t70.5 -54.5h6v838h-603q54 -26 115.5 -68.5t120 -97.5t109.5 -120t85 -136q-29 -13 -69.5 -32t-83.5 -41t-84 -44.5t-70 -43.5v-8zM525 104q0 36 13.5 67t36.5 54t54.5 36.5t67.5 13.5t67 -13.5t54 -36.5t36.5 -54t13.5 -67t-13.5 -67.5t-36.5 -54.5t-54 -36.5t-67 -13.5
t-67.5 13.5t-54.5 36.5t-36.5 54.5t-13.5 67.5z" />
    <glyph glyph-name="uni09E0" unicode="&#x9e0;" horiz-adv-x="2019" 
d="M747 1135q-26 -29 -62.5 -51.5t-79 -38.5t-89.5 -24t-93 -8q-59 0 -113.5 14t-96.5 43t-67.5 74t-25.5 108q0 48 14 87.5t39.5 68t62 44.5t82.5 16q43 0 77.5 -14t59.5 -37.5t38.5 -55.5t13.5 -68v-9t-1 -9l14 -12q63 20 110 50.5t79.5 63t52 63.5t28.5 54h13
q40 -33 74 -67t63 -76t54.5 -95t48.5 -125q19 5 37 8.5t35 5.5v346h261v-836q54 -31 104 -67t88 -78h6v981h515v-225h-254v-1306h-147q-21 52 -53 102.5t-72.5 98t-88 91.5t-98.5 85v-364q-36 -9 -82.5 -22.5t-96 -30t-98 -33.5t-87.5 -33v-12q59 -14 112.5 -28.5
t102.5 -31.5t95.5 -37t92.5 -45v-214h-12q-61 33 -137 64t-154.5 58t-152.5 48t-132 33v290q74 38 149.5 68.5t157.5 59.5q-84 84 -184.5 146.5t-209 108t-220.5 76t-220 51.5v290q22 19 71 50.5t115.5 68.5t146 76t163.5 74q-11 26 -22.5 49t-26.5 38zM1109 428h6v441
q-30 -2 -85.5 -13.5t-123 -33.5t-139 -55.5t-132.5 -78.5v-12q60 -18 128 -47t133 -63t121 -70t92 -68z" />
    <glyph glyph-name="uni09E1" unicode="&#x9e1;" horiz-adv-x="2047" 
d="M413 1631q0 -58 28.5 -96t78 -63.5t115 -41.5t139 -29t151.5 -26.5t151.5 -35t139 -53.5t115 -81.5t78 -120t28.5 -169.5q0 -30 -3 -57q95 -42 185.5 -89t161 -108.5t113.5 -143.5t43 -194q0 -104 -37 -193.5t-100 -170t-146 -155.5t-175 -148l-130 128q12 64 12 118
q0 80 -23.5 139t-64 98t-93.5 58.5t-112 19.5q-45 0 -84.5 -11t-69 -33.5t-47 -57t-17.5 -81.5l11 -4q26 40 61.5 55t74.5 15q43 0 75.5 -14.5t54.5 -39t33 -56t11 -65.5q0 -37 -13.5 -73.5t-40.5 -65.5t-68.5 -47t-98.5 -18q-59 0 -115 22t-99.5 65t-69.5 107t-26 148
q0 65 16 120.5t45 100.5t68.5 79t86.5 58q2 20 3.5 38t1.5 35q0 80 -23.5 139t-64 98t-93.5 58.5t-112 19.5q-45 0 -84.5 -11t-69 -33.5t-47 -57t-17.5 -81.5l11 -4q26 40 61.5 55t74.5 15q43 0 75.5 -14.5t54.5 -39t33 -56t11 -65.5q0 -37 -13.5 -73.5t-40.5 -65.5
t-68.5 -47t-98.5 -18q-59 0 -115 22t-99.5 65t-69.5 107t-26 148q0 99 36.5 175t96.5 127.5t137.5 78t159.5 26.5q83 0 164.5 -27.5t148 -84.5t111 -143t53.5 -203q48 68 82 140.5t34 147.5q0 61 -28.5 103t-77 71.5t-113.5 49.5t-138 37t-149.5 34t-149.5 39.5t-138 54.5
t-113.5 79.5t-77 113.5t-28.5 157h263zM1547 12q48 68 82 140.5t34 147.5q0 60 -24 108t-65.5 87t-98 72t-120.5 64q-29 -48 -65.5 -93t-79.5 -88q64 -19 121.5 -55t103 -90.5t75 -127.5t37.5 -165z" />
    <glyph glyph-name="uni09E2" unicode="&#x9e2;" 
d="M-90 -204q0 -69 -22.5 -126t-63 -98t-97.5 -63.5t-127 -22.5q-59 0 -107 13t-77 24l60 117q12 0 20 6t13 14t7.5 17t2.5 15q0 21 -24.5 31.5t-53.5 10.5q-22 0 -39.5 -6.5t-24.5 -20.5l-4 -8q5 -5 8.5 -14t3.5 -22q0 -19 -8.5 -36t-23.5 -30.5t-34.5 -21.5t-41.5 -8
t-41 8t-33.5 23t-23 35.5t-8.5 46.5q0 42 22.5 78t60.5 63t87 42.5t103 15.5q55 0 96 -16.5t68.5 -46t41.5 -70t14 -89.5q22 4 35.5 16.5t20.5 28.5t9 33t2 30q0 50 -21.5 80.5t-57.5 48t-81.5 27.5t-92.5 19t-92.5 22.5t-81.5 38.5t-57.5 65.5t-21.5 105.5h191
q0 -34 21 -53t56 -30.5t79.5 -18.5t90.5 -16.5t90.5 -25.5t79.5 -44.5t56 -73.5t21 -114z" />
    <glyph glyph-name="uni09E3" unicode="&#x9e3;" 
d="M87 -82q0 43 -22.5 70t-59 44.5t-83 29t-95 23.5t-95 28t-83 43.5t-59 69.5t-22.5 106h179q0 -34 21.5 -53.5t57.5 -30.5t81.5 -18t92.5 -16.5t92.5 -25.5t81.5 -45t57.5 -74.5t21.5 -114.5q0 -68 -22.5 -125t-63 -97.5t-97.5 -63t-127 -22.5q-17 0 -32.5 1.5t-30.5 3.5
q-36 -77 -108 -121t-172 -44q-59 0 -107 13t-77 24l60 117q12 0 20 6t13 14t7.5 17t2.5 15q0 21 -24.5 31.5t-53.5 10.5q-22 0 -39.5 -6.5t-24.5 -20.5l-4 -8q5 -5 8.5 -14t3.5 -22q0 -19 -8.5 -36t-23.5 -30.5t-34.5 -21.5t-41.5 -8t-41 8t-33.5 23t-23 35.5t-8.5 46.5
q0 42 22.5 78t60.5 63t87 42.5t103 15.5q55 0 96 -16.5t68.5 -46t41.5 -70t14 -89.5q41 18 62.5 40.5t21.5 60.5q0 45 -22.5 73t-59 46t-83.5 29t-96.5 22.5t-96.5 27t-83.5 42.5t-59 68.5t-22.5 105.5h179q0 -34 21.5 -53.5t56.5 -32t79.5 -20.5t91.5 -18t92.5 -25.5
t81.5 -43t58.5 -69.5t24.5 -105q29 1 60 7.5t57 19.5t43 34t17 52z" />
    <glyph glyph-name="uni09E6" unicode="&#x9e6;" horiz-adv-x="1333" 
d="M935 724q0 52 -16.5 105.5t-49.5 96.5t-82 70.5t-113 27.5q-68 0 -119.5 -30t-86.5 -77t-53 -105t-18 -114q0 -57 17.5 -109t50.5 -92.5t80 -64.5t106 -24q61 0 113.5 26.5t90 71t59 101.5t21.5 117zM632 172q-115 0 -204.5 43.5t-151 116t-94 167.5t-32.5 197
q0 118 41.5 219.5t114 175.5t171 116.5t213.5 42.5t206.5 -42t155.5 -113t97.5 -164.5t33.5 -196.5q0 -119 -43.5 -222t-118 -178.5t-175 -118.5t-214.5 -43z" />
    <glyph glyph-name="uni09E7" unicode="&#x9e7;" horiz-adv-x="1141" 
d="M416 1264q18 -33 53.5 -66.5t80 -69.5t96 -75t102 -82t97.5 -91t82.5 -102t57 -114.5t21.5 -129.5q0 -55 -14.5 -118t-43.5 -125.5t-71.5 -120.5t-98.5 -102.5t-125 -71t-151 -26.5q-54 0 -101.5 12.5t-83 36.5t-55.5 59.5t-20 80.5q0 40 15 73.5t40.5 60t58.5 46
t68.5 32.5t71 19.5t65.5 6.5q19 0 40.5 -2.5t40.5 -5.5t34 -6t23 -5q24 38 35 74t11 70q0 56 -27 108t-71 101t-100 96t-114.5 93.5t-114.5 93.5t-100 96.5t-71 102t-27 109.5q0 40 13.5 72.5t36.5 55t54.5 34.5t66.5 12q33 0 63.5 -10.5t54 -28.5t37.5 -42.5t14 -51.5
q0 -22 -10 -45t-33 -46z" />
    <glyph glyph-name="uni09E8" unicode="&#x9e8;" horiz-adv-x="1415" 
d="M1161 -91q-39 47 -99 100t-137.5 105.5t-170 102t-195.5 90t-214 69t-225 38.5l20 246q41 -4 86.5 -9.5t91.5 -12t89.5 -14t81.5 -15.5q66 0 131.5 17.5t118.5 50t86 79.5t33 107q0 55 -28 87.5t-73.5 52.5t-104 30.5t-120 21t-120 25t-104 41t-73.5 70t-28 112.5
q0 46 13 81.5t36 60.5t54.5 38t69.5 13q37 0 67.5 -11.5t53 -30.5t35 -43t12.5 -49q0 -24 -11 -48t-31 -42v-6q71 -10 144 -23t141 -32.5t127 -48.5t103 -72t69.5 -101.5t25.5 -137.5q0 -71 -21.5 -130t-60.5 -105.5t-94.5 -80t-124.5 -52.5v-6q59 -25 126 -64t134 -90.5
t131.5 -114.5t118.5 -135z" />
    <glyph glyph-name="uni09E9" unicode="&#x9e9;" horiz-adv-x="1673" 
d="M1095 1062q15 -23 21.5 -46t6.5 -46q0 -41 -18.5 -79.5t-50 -67.5t-72.5 -46.5t-87 -17.5q-40 0 -84 15t-81 47t-61 82t-24 119q0 76 30 131.5t81 91t117 52.5t138 17q126 0 225 -47t167.5 -126.5t104 -183.5t35.5 -218q0 -67 -13 -138t-41 -138t-71.5 -126.5
t-104 -104.5t-138.5 -71t-175 -26q-124 0 -227.5 42.5t-189.5 117.5t-156 176.5t-125 220.5t-97.5 249t-74.5 261l212 157h6q33 -125 72 -245.5t84.5 -228t98 -198.5t113.5 -156.5t130 -102.5t148 -37q74 0 128 31t89.5 82t52.5 115.5t17 130.5q0 55 -11.5 108t-34 96.5
t-56 74.5t-76.5 43z" />
    <glyph glyph-name="uni09EA" unicode="&#x9ea;" horiz-adv-x="1329" 
d="M904 843q57 -24 107 -54t87.5 -71.5t59 -96.5t21.5 -128q0 -98 -44.5 -171t-117.5 -122.5t-166.5 -74t-190.5 -24.5q-96 0 -187.5 24.5t-163.5 73t-115.5 122t-43.5 172.5q0 79 25 135.5t67.5 97.5t98.5 69t119 49v6q-54 21 -100.5 47.5t-81.5 62t-55 81.5t-20 107
q0 82 41.5 144.5t109 104.5t153.5 63.5t175 21.5q87 0 169.5 -20t147 -61t103.5 -103t39 -145q0 -64 -18 -112t-50 -84t-75.5 -62t-93.5 -46v-6zM922 496q0 45 -21 77.5t-56 56t-80.5 41t-95.5 33.5q-51 -14 -97.5 -29t-82.5 -37t-57 -53.5t-21 -78.5q0 -45 23.5 -79.5
t62 -58.5t86.5 -36t97 -12q46 0 90 10.5t77.5 32t54 55t20.5 78.5zM461 1146q0 -36 19 -61.5t51 -44.5t74 -33t88 -27q39 11 73.5 24.5t60.5 32.5t41 45t15 62q0 29 -19 51.5t-50 37.5t-70 22.5t-79 7.5q-39 0 -76 -7t-65.5 -21.5t-45.5 -36.5t-17 -52z" />
    <glyph glyph-name="uni09EB" unicode="&#x9eb;" horiz-adv-x="1530" 
d="M970 1395q-22 -37 -32 -74.5t-10 -73.5q0 -45 15 -85t41.5 -70t63.5 -47.5t81 -17.5q28 0 58 7.5t62 24.5l161 -81v-6q-51 -36 -109 -71.5t-115.5 -73t-110.5 -77.5t-93.5 -83.5t-65 -91t-24.5 -101.5q0 -36 11.5 -67.5t32 -54t49 -35.5t62.5 -13l156 -165v-6
q-112 -57 -217 -82t-202 -25q-140 0 -256.5 45t-200.5 121t-130.5 176.5t-46.5 210.5q0 103 43 221t126.5 237.5t206.5 234t284 210.5l160 -81v-6zM404 609q0 -65 21 -119t58.5 -94.5t88.5 -66t112 -33.5q-27 47 -39.5 93.5t-12.5 92.5q0 57 17.5 111.5t48.5 104.5t74 93.5
t94 79.5q-28 15 -54.5 36.5t-46.5 47t-32.5 55t-12.5 61.5q0 14 3 29q-75 -61 -134 -120.5t-100.5 -120t-63 -122.5t-21.5 -128z" />
    <glyph glyph-name="uni09EC" unicode="&#x9ec;" horiz-adv-x="1669" 
d="M898 1146v-288q5 -67 36 -67q53 0 97.5 18t86.5 56t85.5 96.5t94.5 139.5h19q56 -49 100.5 -114.5t76 -139t48.5 -151t17 -149.5t-17 -145t-51.5 -141t-86 -127.5t-120 -103.5t-154 -69.5t-187.5 -25.5q-132 0 -240 42t-196 116t-157 174t-122 216t-92 243.5t-66 254.5
l220 156h6q26 -113 57.5 -227t71 -219t89 -196t112 -158.5t140 -106.5t172.5 -39q85 0 151.5 30.5t112 81.5t69 117t23.5 137q0 37 -6 73.5t-20 72.5q-62 -85 -135.5 -125.5t-166.5 -40.5q-78 0 -138.5 26t-102.5 66.5t-63.5 89.5t-21.5 96v388l-6 3q-9 -3 -19.5 -4.5
t-19.5 -1.5q-26 0 -50 10.5t-42 28.5t-29 42.5t-11 52.5q0 27 11.5 57t35 55t59.5 41.5t86 16.5q69 0 115.5 -31.5t75 -82.5t40.5 -115t12 -129z" />
    <glyph glyph-name="uni09ED" unicode="&#x9ed;" horiz-adv-x="1304" 
d="M1010 280l6 -3q18 6 37 6q26 0 50 -10.5t42 -28.5t29 -42.5t11 -52.5q0 -27 -11.5 -57t-35 -55t-59.5 -41.5t-86 -16.5q-69 0 -115.5 31.5t-75 82.5t-40.5 115t-12 129v296q-38 -5 -72.5 -7t-72.5 -2q-91 0 -165.5 8.5t-148.5 25.5l-145 123q-11 25 -11 66q0 48 14.5 114
t44.5 136.5t76 139.5t109 123.5t143.5 88t178.5 33.5q14 0 42.5 -10.5t62.5 -36.5t70.5 -68.5t66 -107t48.5 -152t19 -202.5v-625zM406 902q46 -12 87.5 -17.5t86.5 -5.5q49 0 92 6t75 18v55q0 50 -7.5 98t-23.5 85.5t-39.5 60.5t-56.5 23q-32 0 -70 -22.5t-71 -63.5
t-55 -99.5t-22 -131.5z" />
    <glyph glyph-name="uni09EE" unicode="&#x9ee;" horiz-adv-x="1670" 
d="M313 1162v20t-1 21l-5 3q-18 -6 -37 -6q-26 0 -50 10.5t-42 28.5t-29 42.5t-11 52.5q0 40 16 71.5t43 53.5t61.5 33.5t71.5 11.5q69 0 115.5 -31.5t75 -82.5t40.5 -115t12 -129v-276q43 11 89.5 16.5t95.5 5.5q37 0 66 -2.5t55 -7.5t52 -13t57 -19q48 31 118 46t159 15
q48 0 75 18t27 53q0 21 -10 47v6l178 135h6q20 -42 29.5 -86t9.5 -88q0 -61 -20 -117.5t-61 -99.5t-104 -69t-149 -26q-21 0 -37 -1.5t-29 -3.5q4 -20 4 -51q0 -53 -15.5 -120.5t-46.5 -137t-78 -136t-109.5 -118.5t-140.5 -83.5t-172 -31.5q-14 0 -42.5 10.5t-62.5 36.5
t-70.5 68.5t-66 107t-48.5 152t-19 202.5v584zM918 593q-38 20 -74 30t-82 10q-52 0 -101 -11t-91 -30v-61q0 -76 13.5 -128.5t32 -84.5t37.5 -46.5t30 -14.5q49 0 92.5 26.5t76 71.5t51.5 105t19 126z" />
    <glyph glyph-name="uni09EF" unicode="&#x9ef;" horiz-adv-x="1521" 
d="M1411 510q0 -106 -43 -199t-119 -162t-179.5 -109t-224.5 -40q-20 132 -38 226.5t-46 155t-72 89.5t-116 29q-46 0 -86.5 -11.5t-71 -35t-48 -58.5t-17.5 -82l11 -4q26 40 61.5 55t74.5 15q43 0 75.5 -14.5t54.5 -39t33 -56t11 -64.5q0 -38 -13.5 -74.5t-41 -65.5
t-68 -47t-94.5 -18q-64 0 -121 26.5t-100 73t-68 109.5t-25 136q0 39 8.5 84.5t28 90.5t52 87.5t80.5 74.5t113 51.5t151 19.5q85 0 149 -19t112 -53t81.5 -79.5t57 -98t38 -110t24.5 -114.5q21 19 39.5 38t32 41.5t21.5 51.5t8 68q0 71 -25.5 127t-69 101.5t-101.5 82
t-123.5 68t-134 60.5t-134 58.5t-123.5 62t-101.5 72.5t-69 88.5t-25.5 109.5q0 43 13 78t36 59.5t55 37.5t70 13q36 0 67 -11.5t53 -30.5t34.5 -43t12.5 -49q0 -24 -11 -48t-31 -42v-6q13 -27 57.5 -53t109 -54t142.5 -60t158 -72t154.5 -89.5t133 -112.5t93.5 -140.5
t35 -174.5z" />
    <glyph glyph-name="uni09F0" unicode="&#x9f0;" horiz-adv-x="1401" 
d="M955 1266h-1025v225h1541v-225h-255v-1306h-147q-38 75 -98 138.5t-134.5 117t-160.5 97t-176.5 77t-182 58t-177.5 40.5v290q22 19 71 53.5t115 76.5t145 87t162 84.5t165.5 69t156.5 40.5v77zM475 687v-12q99 -35 174.5 -68t132 -64.5t97 -60t70.5 -54.5h6v107
q-45 31 -95.5 60.5t-103 55.5t-104.5 48.5t-100 39.5q-20 -13 -39.5 -25.5t-37.5 -26.5zM955 913q-29 -2 -83.5 -20t-120.5 -48q51 -23 102.5 -50t101.5 -57v175z" />
    <glyph glyph-name="uni09F1" unicode="&#x9f1;" horiz-adv-x="1401" 
d="M955 1266h-1025v225h1541v-225h-255v-1306h-147q-38 75 -98 138.5t-134.5 117t-160.5 97t-176.5 77t-182 58t-177.5 40.5v290q22 19 71 53.5t115 76.5t145 87t162 84.5t165.5 69t156.5 40.5v77zM475 687v-12q99 -35 174.5 -68t132 -64.5t97 -60t70.5 -54.5h6v485
q-30 -2 -85.5 -20.5t-123 -49t-139 -71t-132.5 -85.5zM127 144l148 185q67 -15 147 -47.5t161 -75.5t156.5 -92t132.5 -97l-163 -177q-56 47 -130.5 93.5t-153.5 86t-155.5 69t-136.5 44.5z" />
    <glyph glyph-name="uni09F2" unicode="&#x9f2;" horiz-adv-x="1361" 
d="M120 1092q54 20 113.5 33t125.5 13q146 0 265 -51.5t212.5 -136.5t164.5 -194.5t122.5 -225t85 -228t52.5 -203.5l-207 -161h-6q-63 224 -131 400t-145.5 298t-167.5 186t-196 64q-46 0 -93.5 -8.5t-92.5 -25.5z" />
    <glyph glyph-name="uni09F3" unicode="&#x9f3;" horiz-adv-x="1656" 
d="M830 82q43 0 91 20t94.5 53.5t89 78t75 93.5t51.5 99.5t19 96.5q0 71 -31 137l-21 -6q-4 -29 -16 -58t-34 -52.5t-55 -38.5t-79 -15q-49 0 -89 17t-68.5 46t-44 67.5t-15.5 81.5q0 33 12 75t45 78.5t90.5 61.5t149.5 25q108 0 186 -36.5t128.5 -96.5t75 -138t24.5 -162
q0 -102 -32 -191.5t-85.5 -165t-122 -135.5t-141.5 -102t-144 -64t-130 -22q-35 0 -82.5 9.5t-98.5 33t-100 64t-88 102.5t-63 148.5t-24 201.5v636h-277v225h277v331l-6 3q-9 -3 -19.5 -4.5t-19.5 -1.5q-26 0 -50 10.5t-42 28.5t-29 42.5t-11 52.5q0 27 12 57t36.5 55
t61.5 41.5t87 16.5q69 0 115 -31.5t74 -82.5t40 -115t12 -129v-274h888v-225h-888v-604q0 -80 9.5 -136.5t25 -94t35 -59t38.5 -32.5t36 -13.5t28 -2.5z" />
    <glyph glyph-name="uni09F4" unicode="&#x9f4;" horiz-adv-x="1503" 
d="M1403 1037q-32 -78 -83 -174t-118 -194.5t-148.5 -192t-176 -166.5t-200.5 -117t-220 -44q-48 0 -93.5 8.5t-89.5 23.5t-87.5 35.5t-87.5 44.5l139 218q54 -33 117.5 -57.5t130.5 -24.5q89 0 172 53.5t166 152.5t168 238.5t177 311.5z" />
    <glyph glyph-name="uni09F5" unicode="&#x9f5;" horiz-adv-x="1516" 
d="M792 528q54 56 108.5 127t107 152t102.5 168.5t97 177.5l234 -116q-31 -78 -82 -174t-118 -194.5t-149.5 -192t-177 -166.5t-199.5 -117t-217 -44q-58 0 -112 12t-106 32t-103 46.5t-102 55.5l139 218q27 -17 56.5 -34.5t58.5 -32t56 -24t50 -9.5q32 0 61.5 19t51.5 49
t35 67.5t13 74.5q0 42 -16.5 77t-44 60.5t-64.5 40t-78 14.5q-55 0 -107 -26l-167 115q57 72 132 109t179 37q94 0 167.5 -28t124 -75.5t77 -111t26.5 -134.5q0 -85 -37 -168z" />
    <glyph glyph-name="uni09F6" unicode="&#x9f6;" horiz-adv-x="1685" 
d="M85 967q28 18 68 36.5t85.5 34t94.5 25.5t95 10q66 0 124.5 -21.5t102.5 -60t69.5 -92.5t25.5 -118q0 -73 -31 -120t-78 -78t-101 -51t-101 -37.5t-78 -38t-31 -53.5q0 -20 11.5 -32t29 -18.5t38 -8.5t38.5 -2q101 0 198.5 42.5t188.5 111.5t173 156t152.5 177
t126.5 174.5t95 147.5l214 -103q-34 -56 -78 -126t-98 -146.5t-117.5 -155t-135.5 -152t-152.5 -138t-169 -112.5t-184.5 -76t-198 -28q-103 0 -177 27t-122 69t-70.5 93t-22.5 99q0 47 19.5 82.5t51 62t72 47t82.5 37.5t82.5 32t72 32.5t51 38t19.5 48.5q0 34 -27.5 51.5
t-66.5 17.5q-24 0 -51 -6t-52.5 -14.5t-47.5 -17.5t-35 -16z" />
    <glyph glyph-name="uni09F7" unicode="&#x9f7;" horiz-adv-x="561" 
d="M150 -1v1491h261v-1491h-261z" />
    <glyph glyph-name="uni09F8" unicode="&#x9f8;" horiz-adv-x="1390" 
d="M554 1181v-493h6q36 30 83.5 65.5t108.5 66t134 51t160 20.5q44 0 95 -19t94 -60t71.5 -105t28.5 -155v-656h-262v482q0 60 -3 106t-12 77t-26.5 47t-46.5 16q-47 0 -96.5 -25t-99.5 -65.5t-99.5 -92t-97 -104.5t-91.5 -103.5t-82 -88.5h-6l-119 164v929l-6 3
q-18 -6 -37 -6q-26 0 -50 10.5t-42 28.5t-29 42.5t-11 52.5q0 27 11.5 57t35 55t59.5 41.5t86 16.5q69 0 115.5 -31.5t75 -82.5t40.5 -115t12 -129z" />
    <glyph glyph-name="uni09F9" unicode="&#x9f9;" horiz-adv-x="1035" 
d="M666 671q0 30 -9 58t-27 50.5t-45 36t-63 13.5q-38 0 -66.5 -15t-48 -39t-29.5 -54.5t-10 -61.5q0 -32 10 -61t28 -51t44 -34.5t58 -12.5q34 0 63 14t50 38t33 55t12 64zM492 276q-83 0 -146.5 31.5t-107 83.5t-66 120t-22.5 142q0 85 29 158.5t80.5 127t121.5 84
t153 30.5t148.5 -30t110.5 -81t68.5 -118.5t23.5 -142.5q0 -86 -30.5 -160t-84 -128.5t-125 -85.5t-153.5 -31z" />
    <glyph glyph-name="uni09FA" unicode="&#x9fa;" horiz-adv-x="1602" 
d="M375 837q-7 -35 -14 -76t-13 -86t-9.5 -92.5t-3.5 -94.5q0 -66 8.5 -124.5t30.5 -103t59 -70t93 -25.5q66 0 137.5 36.5t143.5 101.5t141.5 155t132.5 197.5t116.5 228.5t93.5 248h6l225 -129q-14 -63 -44.5 -144t-75 -170t-101.5 -181.5t-125 -180t-145 -164t-161 -134
t-174.5 -91t-184.5 -33.5q-85 0 -149.5 27t-112.5 73.5t-80.5 109t-52 134.5t-28 149.5t-8.5 153.5q0 100 12 189.5t29 154.5zM564 895q0 35 13.5 65.5t36.5 53.5t53.5 36.5t65.5 13.5t65.5 -13.5t53.5 -36.5t36.5 -53.5t13.5 -65.5t-13.5 -65.5t-36.5 -53.5t-53.5 -36.5
t-65.5 -13.5t-65.5 13.5t-53.5 36.5t-36.5 53.5t-13.5 65.5z" />
    <glyph glyph-name="uni09FB" unicode="&#x9fb;" horiz-adv-x="1360" 
d="M785 1223q-30 15 -63 29t-65 25t-63 17.5t-56 6.5q-64 0 -99 -39.5t-35 -100.5q0 -54 26.5 -112t72.5 -117t108 -118.5t132 -115.5t144.5 -108t146.5 -97t138 -82t118 -63l-104 -265q-46 21 -115 55.5t-150.5 82t-170 107t-174.5 130.5t-163 152.5t-135.5 172.5
t-93 191.5t-34.5 208.5q0 109 33.5 181t85 115t113.5 60.5t118 17.5q51 0 103.5 -12t103.5 -31t98.5 -42.5t89.5 -47.5z" />
    <glyph glyph-name="uni0A01" unicode="&#xa01;" 
d="M-520 2130q6 -50 21.5 -103t46 -96.5t79 -71.5t121.5 -28q45 0 89 13.5t80 48t61.5 92t34.5 146.5l217 -42q-16 -115 -56 -203t-101.5 -148t-143 -90.5t-180.5 -30.5q-95 0 -177 28.5t-146 86.5t-107.5 146.5t-60.5 209.5zM-389 2075q0 27 9.5 51t27 41t41.5 27t53 10
q28 0 52.5 -10t42.5 -27.5t28.5 -42t10.5 -52.5t-10 -51.5t-27 -40.5t-41.5 -26.5t-52.5 -9.5q-29 0 -53.5 9.5t-42.5 27t-28 41.5t-10 53z" />
    <glyph glyph-name="uni0A02" unicode="&#xa02;" 
d="M-404 1811q0 30 10.5 56t29.5 45t45.5 30t58.5 11q31 0 58 -11t46.5 -30.5t31 -46t11.5 -57.5t-10.5 -57t-30 -44.5t-46 -29t-57.5 -10.5t-58 10.5t-46.5 30t-31 45.5t-11.5 58z" />
    <glyph glyph-name="uni0A03" unicode="&#xa03;" horiz-adv-x="969" 
d="M485 738q-67 0 -124.5 25.5t-99.5 69t-66 101t-24 120.5q0 66 25.5 122.5t68 98t99 65.5t118.5 24q66 0 123.5 -25t100 -67.5t67.5 -98.5t25 -119q0 -66 -25.5 -123.5t-68 -100.5t-99.5 -67.5t-120 -24.5zM485 1169q-25 0 -46.5 -9.5t-37.5 -25.5t-25 -37t-9 -44
q0 -25 9 -46.5t25 -38t36.5 -26t44.5 -9.5q25 0 47 10t38 26.5t25.5 38.5t9.5 45q0 24 -9.5 45.5t-25.5 37t-37.5 24.5t-44.5 9zM485 -20q-67 0 -124.5 25.5t-99.5 69t-66 101t-24 120.5q0 66 25.5 122.5t68 98t99 65.5t118.5 24q66 0 123.5 -25t100 -67.5t67.5 -98.5
t25 -119q0 -66 -25.5 -123.5t-68 -100.5t-99.5 -67.5t-120 -24.5zM485 411q-25 0 -46.5 -9.5t-37.5 -25.5t-25 -37t-9 -44q0 -25 9 -46.5t25 -38t36.5 -26t44.5 -9.5q25 0 47 10t38 26.5t25.5 38.5t9.5 45q0 24 -9.5 45.5t-25.5 37t-37.5 24.5t-44.5 9z" />
    <glyph glyph-name="uni0A05" unicode="&#xa05;" horiz-adv-x="1779" 
d="M1653 1266v-1266h-262v732q-63 -28 -126.5 -64t-120.5 -78q-14 -107 -42.5 -188.5t-68.5 -137.5t-88 -84.5t-101 -28.5q-32 0 -61 10.5t-51.5 31.5t-35.5 51.5t-13 70.5q0 38 13.5 82t43.5 93t77 101.5t115 108.5q-3 40 -10.5 85.5t-17 90.5t-21.5 87.5t-24 77.5
q-35 -23 -73 -54t-75 -63.5t-68.5 -64t-52.5 -55.5q-14 -121 -45 -204t-70.5 -134.5t-84.5 -74t-88 -22.5q-32 0 -61 12.5t-50.5 34.5t-34 53t-12.5 69q0 37 13.5 81t42 92t72.5 98.5t106 101.5q-8 91 -32 158t-60.5 110.5t-83 65t-99.5 21.5h-138v225h150q100 0 177 -32
t134 -85.5t95.5 -124t60.5 -146.5q66 60 156.5 130.5t222.5 148.5q28 -41 56.5 -98t54 -124.5t47 -143.5t35.5 -155q51 29 111 60t126 57v513h423v-225h-161z" />
    <glyph glyph-name="uni0A06" unicode="&#xa06;" horiz-adv-x="2394" 
d="M1653 1266v-1266h-262v732q-63 -28 -126.5 -64t-120.5 -78q-14 -107 -42.5 -188.5t-68.5 -137.5t-88 -84.5t-101 -28.5q-32 0 -61 10.5t-51.5 31.5t-35.5 51.5t-13 70.5q0 38 13.5 82t43.5 93t77 101.5t115 108.5q-3 40 -10.5 85.5t-17 90.5t-21.5 87.5t-24 77.5
q-35 -23 -73 -54t-75 -63.5t-68.5 -64t-52.5 -55.5q-14 -121 -45 -204t-70.5 -134.5t-84.5 -74t-88 -22.5q-32 0 -61 12.5t-50.5 34.5t-34 53t-12.5 69q0 37 13.5 81t42 92t72.5 98.5t106 101.5q-8 91 -32 158t-60.5 110.5t-83 65t-99.5 21.5h-138v225h150q100 0 177 -32
t134 -85.5t95.5 -124t60.5 -146.5q66 60 156.5 130.5t222.5 148.5q28 -41 56.5 -98t54 -124.5t47 -143.5t35.5 -155q51 29 111 60t126 57v513h423v-225h-161zM2262 1266v-753h-261v753h-255v225h683v-225h-167z" />
    <glyph glyph-name="uni0A07" unicode="&#xa07;" horiz-adv-x="1953" 
d="M190 1491v147q0 122 35 205.5t95.5 135t141.5 74t172 22.5q121 0 209.5 -35t147 -94t88 -137t32.5 -165h-262q-3 43 -16.5 82t-39 67.5t-64.5 45.5t-93 17q-36 0 -69.5 -9.5t-59 -33.5t-41 -64.5t-15.5 -102.5v-155h161v-225h-161v-1266h-261v1266h-225v225h225zM1848 59
q-45 -33 -92.5 -53.5t-93.5 -32t-89 -15.5t-80 -4q-117 0 -228 41.5t-209.5 110t-180.5 156t-142 179.5q19 53 48.5 101.5t66 90.5t78.5 77.5t86 61.5q-55 43 -93 95.5t-62 114.5t-36 133t-16 151h-255v225h1438v-225h-157v-615h-425q-62 0 -119.5 -13.5t-107.5 -38.5
t-89 -61.5t-63 -81.5q58 -80 125 -133t131.5 -85t121.5 -45.5t95 -13.5q88 0 174 31.5t174 82.5v-234zM1068 1266q6 -101 27 -174.5t61 -121.5t101 -71t147 -23h167v390h-503z" />
    <glyph glyph-name="uni0A08" unicode="&#xa08;" horiz-adv-x="1945" 
d="M1263 59q-45 -33 -92.5 -53.5t-93.5 -32t-89 -15.5t-80 -4q-117 0 -228 41.5t-209.5 110t-180.5 156t-142 179.5q19 53 48.5 101.5t66 90.5t78.5 77.5t86 61.5q-55 43 -93 95.5t-62 114.5t-36 133t-16 151h-255v225h1438v-225h-157v-615h-425q-62 0 -119.5 -13.5
t-107.5 -38.5t-89 -61.5t-63 -81.5q58 -80 125 -133t131.5 -85t121.5 -45.5t95 -13.5q88 0 174 31.5t174 82.5v-234zM483 1266q6 -101 27 -174.5t61 -121.5t101 -71t147 -23h167v390h-503zM898 1644q3 87 31.5 165t85.5 137.5t144.5 94t210.5 34.5q90 0 171.5 -22t143 -72.5
t98 -133.5t36.5 -205v-151h161v-225h-161v-1266h-261v1266h-225v225h225v159q0 62 -15 102t-39.5 63t-57 32t-68.5 9q-56 0 -95.5 -17t-66 -45.5t-40 -67.5t-16.5 -82h-262z" />
    <glyph glyph-name="uni0A09" unicode="&#xa09;" horiz-adv-x="1561" 
d="M1203 713q88 -75 126.5 -161t38.5 -183q0 -104 -37 -181.5t-99 -129.5t-144.5 -78t-172.5 -26q-117 0 -212 41t-170 110.5t-131.5 162.5t-98 196.5t-69 212.5t-44 210.5t-23 190.5t-6.5 153v35h-196v225h213q18 128 66.5 235t127.5 184.5t187 121t246 43.5
q145 0 258.5 -47t196.5 -127t137.5 -186t80.5 -224h118v-225h-94q-1 -90 -18.5 -174.5t-54 -156.5t-92.5 -127.5t-133 -88.5zM426 1266v-21q0 -79 8 -171t26 -190h460q87 0 148 28t99 78.5t55 121t17 154.5h-813zM519 652q31 -103 71.5 -188.5t91 -147.5t111 -96.5
t131.5 -34.5q37 0 70.5 10t58.5 32t39.5 56t14.5 81q0 65 -27.5 118t-73 91t-106 58.5t-126.5 20.5h-255zM801 1846q-146 0 -237 -89t-121 -266h761q-22 78 -57 143t-84.5 112t-114.5 73.5t-147 26.5zM1372 -297q-62 -21 -116 -36t-106.5 -24t-108 -13.5t-121.5 -4.5
t-123 4.5t-111.5 13.5t-109.5 24t-117 36v212q62 -21 115.5 -36t106 -24t108 -13.5t121.5 -4.5t123 4.5t111 13.5t109.5 24t118.5 36v-212z" />
    <glyph glyph-name="uni0A0A" unicode="&#xa0a;" horiz-adv-x="1561" 
d="M1203 713q88 -75 126.5 -161t38.5 -183q0 -104 -37 -181.5t-99 -129.5t-144.5 -78t-172.5 -26q-117 0 -212 41t-170 110.5t-131.5 162.5t-98 196.5t-69 212.5t-44 210.5t-23 190.5t-6.5 153v35h-196v225h213q18 128 66.5 235t127.5 184.5t187 121t246 43.5
q145 0 258.5 -47t196.5 -127t137.5 -186t80.5 -224h118v-225h-94q-1 -90 -18.5 -174.5t-54 -156.5t-92.5 -127.5t-133 -88.5zM426 1266v-21q0 -79 8 -171t26 -190h460q87 0 148 28t99 78.5t55 121t17 154.5h-813zM519 652q31 -103 71.5 -188.5t91 -147.5t111 -96.5
t131.5 -34.5q37 0 70.5 10t58.5 32t39.5 56t14.5 81q0 65 -27.5 118t-73 91t-106 58.5t-126.5 20.5h-255zM801 1846q-146 0 -237 -89t-121 -266h761q-22 78 -57 143t-84.5 112t-114.5 73.5t-147 26.5zM1372 -172q-62 -21 -116 -36t-106.5 -24t-107.5 -13.5t-121 -4.5
t-123 4.5t-111.5 13.5t-109.5 24t-117 36v167q62 -21 115.5 -36t106 -24t108 -13.5t121.5 -4.5t122.5 4.5t111 13.5t109.5 24t118 36v-167zM1372 -434q-62 -21 -116 -36t-106.5 -24t-107.5 -13.5t-121 -4.5t-123 4.5t-111.5 13.5t-109.5 24t-117 36v167q62 -21 115.5 -36
t106 -24t108 -13.5t121.5 -4.5t122.5 4.5t111 13.5t109.5 24t118 36v-167z" />
    <glyph glyph-name="uni0A0F" unicode="&#xa0f;" horiz-adv-x="1368" 
d="M1263 59q-45 -33 -92.5 -53.5t-93.5 -32t-89 -15.5t-80 -4q-117 0 -228 41.5t-209.5 110t-180.5 156t-142 179.5q19 53 48.5 101.5t66 90.5t78.5 77.5t86 61.5q-55 43 -93 95.5t-62 114.5t-36 133t-16 151h-255v225h1438v-225h-157v-615h-425q-62 0 -119.5 -13.5
t-107.5 -38.5t-89 -61.5t-63 -81.5q58 -80 125 -133t131.5 -85t121.5 -45.5t95 -13.5q88 0 174 31.5t174 82.5v-234zM483 1266q6 -101 27 -174.5t61 -121.5t101 -71t147 -23h167v390h-503zM403 2150h87q80 0 144.5 -10.5t120.5 -38.5t107.5 -77t106.5 -125t117.5 -183.5
t139.5 -252.5h-219q-56 108 -101.5 184.5t-86 127.5t-78.5 81.5t-78 45.5t-84.5 19.5t-97.5 4.5h-78v224z" />
    <glyph glyph-name="uni0A10" unicode="&#xa10;" horiz-adv-x="1779" 
d="M1653 1266v-1266h-262v732q-63 -28 -126.5 -64t-120.5 -78q-14 -107 -42.5 -188.5t-68.5 -137.5t-88 -84.5t-101 -28.5q-32 0 -61 10.5t-51.5 31.5t-35.5 51.5t-13 70.5q0 38 13.5 82t43.5 93t77 101.5t115 108.5q-3 40 -10.5 85.5t-17 90.5t-21.5 87.5t-24 77.5
q-35 -23 -73 -54t-75 -63.5t-68.5 -64t-52.5 -55.5q-14 -121 -45 -204t-70.5 -134.5t-84.5 -74t-88 -22.5q-32 0 -61 12.5t-50.5 34.5t-34 53t-12.5 69q0 37 13.5 81t42 92t72.5 98.5t106 101.5q-8 91 -32 158t-60.5 110.5t-83 65t-99.5 21.5h-138v225h150q100 0 177 -32
t134 -85.5t95.5 -124t60.5 -146.5q66 60 156.5 130.5t222.5 148.5q28 -41 56.5 -98t54 -124.5t47 -143.5t35.5 -155q51 29 111 60t126 57v513h423v-225h-161zM1399 1456q-61 72 -108.5 116.5t-97.5 69t-112.5 32.5t-153.5 8h-114v211h71q65 0 115 -1.5t91.5 -11t80.5 -30.5
t82.5 -59.5t96.5 -98t123 -145.5l12 7q-56 100 -99 172t-79 122t-69 80t-69.5 46t-79.5 21.5t-100 5.5h-119v209h108q80 0 139 -9.5t107.5 -37.5t92.5 -79.5t93 -135.5t109 -204.5t141 -287.5h-261z" />
    <glyph glyph-name="uni0A13" unicode="&#xa13;" horiz-adv-x="1561" 
d="M178 1491q22 114 65 212t119 170.5t191 113.5t282 41h589v-225h-592q-98 0 -166 -23.5t-113 -65t-71 -99t-39 -124.5h1153v-225h-94q-1 -90 -18.5 -174.5t-54 -156.5t-92.5 -127.5t-133 -88.5l-1 -6q88 -75 126.5 -161t38.5 -183q0 -104 -37 -181.5t-99 -129.5
t-144.5 -78t-172.5 -26q-117 0 -212 41t-170 110.5t-131.5 162.5t-98 196.5t-69 212.5t-44 210.5t-23 190.5t-6.5 153v35h-196v225h213zM426 1266v-21q0 -79 8 -171t26 -190h460q87 0 148 28t99 78.5t55 121t17 154.5h-813zM519 652q31 -103 71.5 -188.5t91 -147.5
t111 -96.5t131.5 -34.5q37 0 70.5 10t58.5 32t39.5 56t14.5 81q0 65 -27.5 118t-73 91t-106 58.5t-126.5 20.5h-255z" />
    <glyph glyph-name="uni0A14" unicode="&#xa14;" horiz-adv-x="1779" 
d="M1653 1266v-1266h-262v732q-63 -28 -126.5 -64t-120.5 -78q-14 -107 -42.5 -188.5t-68.5 -137.5t-88 -84.5t-101 -28.5q-32 0 -61 10.5t-51.5 31.5t-35.5 51.5t-13 70.5q0 38 13.5 82t43.5 93t77 101.5t115 108.5q-3 40 -10.5 85.5t-17 90.5t-21.5 87.5t-24 77.5
q-35 -23 -73 -54t-75 -63.5t-68.5 -64t-52.5 -55.5q-14 -121 -45 -204t-70.5 -134.5t-84.5 -74t-88 -22.5q-32 0 -61 12.5t-50.5 34.5t-34 53t-12.5 69q0 37 13.5 81t42 92t72.5 98.5t106 101.5q-8 91 -32 158t-60.5 110.5t-83 65t-99.5 21.5h-138v225h150q100 0 177 -32
t134 -85.5t95.5 -124t60.5 -146.5q66 60 156.5 130.5t222.5 148.5q28 -41 56.5 -98t54 -124.5t47 -143.5t35.5 -155q51 29 111 60t126 57v513h423v-225h-161zM1601 1601q27 46 44 96t17 99q0 31 -8 57.5t-24.5 46t-42.5 31t-62 11.5t-63 -11.5t-45 -31t-26.5 -47t-8.5 -58.5
q0 -48 17.5 -99.5t43.5 -93.5h-198q-42 54 -59.5 110.5t-17.5 112.5q0 20 1.5 31.5t3.5 21.5q-16 -2 -31.5 -3t-28.5 -1q-88 0 -146.5 32t-93.5 81t-49.5 108.5t-14.5 115.5h263q0 -30 6 -59t20 -51.5t37 -36.5t58 -14q38 0 67.5 15.5t63.5 34t79.5 34t116.5 15.5
q85 0 151.5 -25.5t111.5 -69.5t68.5 -103.5t23.5 -126.5q0 -54 -17 -110.5t-59 -111.5h-198z" />
    <glyph glyph-name="uni0A15" unicode="&#xa15;" horiz-adv-x="1552" 
d="M1587 1266h-162q-5 -201 -55 -367.5t-138 -299.5q32 -69 58 -144t45.5 -152t33.5 -153.5t23 -149.5h-270q-17 225 -75 394q-94 -81 -193.5 -122t-217.5 -41q-108 0 -195.5 32.5t-149 89t-95 131.5t-33.5 160t33.5 160t94 130t145 87t187.5 32q71 0 134 -15.5t119.5 -43.5
t105.5 -68t93 -89q38 88 61.5 195t27.5 234h-1199v225h1622v-225zM634 828q-50 0 -88.5 -16t-65 -42.5t-40.5 -61t-14 -70.5q0 -39 16 -72.5t44.5 -58t68 -38t86.5 -13.5q81 0 157 42t146 124q-30 46 -64.5 84t-73.5 65t-82 42t-90 15z" />
    </font>
</defs>
</svg>
